osu file format v14

[General]
AudioFilename: audio.mp3
AudioLeadIn: 0
PreviewTime: 44793
Countdown: 0
SampleSet: Soft
StackLeniency: 0.7
Mode: 0
LetterboxInBreaks: 0
WidescreenStoryboard: 1

[Editor]
Bookmarks: 14631,25009,35388,45766,66523
DistanceSpacing: 1.1
BeatDivisor: 2
GridSize: 32
TimelineZoom: 2.2

[Metadata]
Title:Asuiro (TV size)
TitleUnicode:アスイロ(TV size)
Artist:Rie Murakawa
ArtistUnicode:村川梨衣
Creator:Firis Mistlud
Version:Collab Easy
Source:エスカ&ロジーのアトリエ
Tags:黄昏の空の錬金術士 Escha & Logy no Atelier: Tasogare no Sora no Renkinjutsushi A15 Alchemists of the Dusk Sky opening KuranteMelodii krt Suzuki_1112 LowComboFC LCFC Moecho Moeri Pata-mon Asuka_-
BeatmapID:1311844
BeatmapSetID:596487

[Difficulty]
HPDrainRate:2
CircleSize:3
OverallDifficulty:2
ApproachRate:3
SliderMultiplier:0.8
SliderTickRate:1

[Events]
//Background and Video events
0,0,"Konachan.com - 204391 sample.jpg",0,0
Video,0,"AtelierOPmov.avi"
//Break Periods
//Storyboard Layer 0 (Background)
//Storyboard Layer 1 (Fail)
//Storyboard Layer 2 (Pass)
//Storyboard Layer 3 (Foreground)
Sprite,Foreground,Centre,"SB\LCFC.png",320,240 M,0,4253,,404.2667,384 S,0,4253,,0.701333 F,0,4253,4415,0,1 F,0,4415,14469,1 F,0,14469,14631,1,0 F,0,14631,25009,0 F,0,25009,25172,0,1 F,0,25172,35226,1 F,0,35226,35388,1,0 F,0,35388,45766,0 F,0,45766,45928,0,1 F,0,45928,66361,1 F,0,66361,66523,1,0
Sprite,Foreground,Centre,"SB\fm.png",320,240 M,0,14631,,189.8666,156.8 S,0,14631,,0.7120001 F,0,14631,14793,0,1 F,0,14793,24847,1 F,0,24847,25009,1,0 F,0,25009,35388,0 F,0,35388,35550,0,1 F,0,35550,45604,1 F,0,45604,45766,1,0 F,0,45766,66523,0 F,0,66523,66685,0,1 F,0,66685,87280,1 F,0,87280,87442,1,0
//Storyboard Sound Samples

[TimingPoints]
-936,324.324324324324,4,2,1,30,1,0
4253,-100,4,2,1,40,0,0
14631,-100,4,2,1,50,0,0
25009,-100,4,2,1,40,0,0
34415,-100,4,2,1,50,0,0
44307,-100,4,2,1,70,0,0
45766,-100,4,2,1,70,0,1
65550,-100,4,2,1,70,0,0
66523,-100,4,2,1,70,0,1
82091,-100,4,2,1,80,0,0
82739,-100,4,2,1,38,0,0
83063,-100,4,2,1,42,0,0
83388,-100,4,2,1,46,0,0
83712,-100,4,2,1,50,0,0
84036,-100,4,2,1,54,0,0
84685,-100,4,2,1,62,0,0
85009,-100,4,2,1,66,0,0
85334,-100,4,2,1,70,0,0
85658,-100,4,2,1,74,0,0
85982,-100,4,2,1,78,0,0
86307,-100,4,2,1,82,0,0
86631,-100,4,2,1,86,0,0
86955,-100,4,2,1,90,0,0
89388,-100,4,2,1,5,0,0

[Colours]
Combo1 : 0,128,0
Combo2 : 248,209,92
Combo3 : 191,191,0
Combo4 : 172,86,0

[HitObjects]
470,89,4253,6,0,B|382:57|398:121|310:89,1,160,2|2,0:0|0:0,0:0:0:0:
246,35,5226,1,2,0:0:0:0:
176,88,5550,2,0,P|155:142|216:223,1,160,2|2,0:0|0:0,0:0:0:0:
286,180,6523,1,2,0:0:0:0:
370,205,6847,6,0,P|400:261|354:346,1,160,2|2,0:0|0:0,0:0:0:0:
312,268,7820,1,2,0:0:0:0:
286,180,8145,2,0,L|206:188,1,80,2|2,0:0|0:0,0:0:0:0:
132,235,8793,2,0,P|124:274|140:314,1,80,2|2,0:0|0:0,0:0:0:0:
217,351,9442,6,0,P|291:332|349:383,1,160,2|2,0:0|0:0,0:0:0:0:
436,367,10415,1,2,0:0:0:0:
497,303,10739,2,0,P|504:243|486:187,1,120,2|2,0:0|0:0,0:0:0:0:
419,130,11550,1,2,0:0:0:0:
340,169,11874,6,0,P|260:161|185:134,1,160,2|2,0:0|0:0,0:0:0:0:
134,62,12847,2,0,L|56:80,1,80,2|2,0:0|0:0,0:0:0:0:
330,379,14631,6,0,B|319:292|365:310|351:210,1,160,4|0,1:0|1:0,0:0:0:0:
337,136,15604,1,8,0:0:0:0:
363,52,15928,2,0,B|276:41|294:87|194:73,1,160,0|0,1:0|1:0,0:0:0:0:
131,119,16901,1,8,0:0:0:0:
69,56,17226,6,0,P|142:31|207:73,1,160
209,161,18199,1,8,0:0:0:0:
136,211,18523,2,0,L|123:290,1,80,0|8,1:0|0:0,0:0:0:0:
203,329,19172,2,0,L|215:249,1,80,0|8,1:0|0:0,0:0:0:0:
209,161,19820,6,0,P|279:193|297:274,1,160,0|0,1:0|1:0,0:0:0:0:
296,356,20793,1,8,0:0:0:0:
384,358,21118,2,0,P|453:326|463:279,1,120,0|0,1:0|1:0,0:0:0:0:
466,200,21928,1,0,0:0:0:0:
489,114,22253,6,0,P|440:98|330:118,1,160
250,139,23226,1,0,1:0:0:0:
261,226,23550,2,0,L|266:357,1,120,0|8,0:0|0:0,0:0:0:0:
353,340,24361,2,0,L|438:334,1,80,4|8,1:2|0:0,0:0:0:0:
439,247,25009,6,0,P|444:209|459:167,1,80,4|0,0:0|0:0,0:0:0:0:
413,93,25658,2,0,P|355:78|303:105,1,120,2|0,0:0|0:0,0:0:0:0:
241,167,26469,2,0,P|183:181|131:154,1,120,0|0,0:0|1:0,0:0:0:0:
84,80,27280,1,0,0:0:0:0:
44,158,27604,6,0,L|61:277,1,120,0|0,0:0|0:0,0:0:0:0:
148,285,28415,2,0,L|135:366,2,80,0|0|0,0:0|0:0|0:0,0:0:0:0:
165,198,29388,1,0,0:0:0:0:
327,49,30199,6,0,P|364:35|404:30,1,80,2|0,0:0|0:0,0:0:0:0:
483,67,30847,2,0,L|460:186,1,120,0|2,0:0|0:0,0:0:0:0:
375,207,31658,2,0,L|398:326,1,120,0|0,0:0|0:0,0:0:0:0:
327,377,32469,1,0,0:0:0:0:
281,301,32793,6,0,P|228:274|171:289,1,120,2|2,0:0|0:0,0:0:0:0:
112,355,33604,1,0,0:0:0:0:
40,303,33928,2,0,L|17:185,1,120,2|4,0:0|0:0,0:0:0:0:
256,72,35388,6,0,L|256:156,1,80,4|0,0:0|0:0,0:0:0:0:
216,230,36036,2,0,P|196:292|218:348,1,120,8|0,0:0|0:0,0:0:0:0:
301,341,36847,2,0,P|318:284|298:229,1,120,0|8,0:0|0:0,0:0:0:0:
256,152,37658,1,0,0:0:0:0:
211,76,37982,6,0,L|76:67,1,120,2|0,0:0|0:0,0:0:0:0:
18,117,38793,1,0,0:0:0:0:
56,196,39118,2,0,L|41:327,1,120,0|0,0:0|0:0,0:0:0:0:
111,369,39928,2,0,P|141:373|193:360,1,80,8|0,0:0|1:0,0:0:0:0:
264,315,40577,5,0,1:0:0:0:
381,183,41226,2,0,P|397:135|383:23,2,160,4|0|8,0:0|1:0|0:0,0:0:0:0:
264,315,43172,6,0,B|211:318|182:352|182:352|150:293|89:293|89:293|47:270|53:222,1,280,0|4,0:0|0:0,0:0:0:0:
131,130,44793,2,0,L|212:171,2,80,2|2|2,0:0|0:0|0:0,0:0:0:0:
89,50,45766,6,0,P|150:42|200:71,2,120,6|0|8,0:0|0:0|0:0,0:0:0:0:
13,96,47063,2,0,P|17:135|27:174,1,80,0|8,0:0|0:0,0:0:0:0:
83,242,47712,2,0,P|122:246|161:256,1,80,0|8,1:0|0:0,0:0:0:0:
238,213,48361,6,0,P|297:205|354:185,2,120,0|0|8,1:0|0:0|0:0,0:0:0:0:
161,168,49658,1,0,0:0:0:0:
86,121,49982,2,0,P|45:124|-7:136,2,80,8|0|8,0:0|1:0|0:0,0:0:0:0:
161,168,50955,6,0,L|148:289,2,120,0|0|8,1:0|0:0|0:0,0:0:0:0:
219,101,52253,2,0,L|297:88,1,80,0|8,0:0|0:0,0:0:0:0:
359,150,52901,2,0,L|346:228,1,80,0|8,1:0|1:2,0:0:0:0:
354,316,53550,6,0,B|396:308|396:308|420:279|420:279|458:268,1,120,0|0,1:0|0:0,0:0:0:0:
476,182,54361,1,0,1:0:0:0:
493,95,54685,2,0,L|416:76,1,80,4|4,0:0|0:0,0:0:0:0:
341,27,55334,2,0,P|301:30|262:39,1,80,4|4,0:0|0:0,0:0:0:0:
159,124,56145,6,0,P|145:181|170:234,1,120,4|0,0:0|0:0,0:0:0:0:
251,270,56955,1,0,1:0:0:0:
327,225,57280,2,0,L|460:248,1,120,0|8,1:0|0:0,0:0:0:0:
444,157,58091,2,0,L|359:143,1,80,0|8,1:0|0:0,0:0:0:0:
300,84,58739,6,0,L|181:104,1,120,0|0,1:0|0:0,0:0:0:0:
102,66,59550,1,0,1:0:0:0:
45,132,59874,2,0,P|31:189|56:242,1,120,0|8,1:0|0:0,0:0:0:0:
142,225,60685,2,0,P|181:231|219:242,1,80,0|8,1:0|0:0,0:0:0:0:
289,295,61334,6,0,P|348:292|404:269,1,120,0|0,1:0|0:0,0:0:0:0:
447,192,62145,1,0,1:0:0:0:
382,132,62469,2,0,P|322:133|267:156,1,120,0|8,1:0|0:0,0:0:0:0:
179,162,63280,2,0,P|190:123|195:84,1,80,0|8,1:0|0:0,0:0:0:0:
127,29,63928,6,0,B|66:22|66:22|13:49,1,120,4|4,0:0|0:0,0:0:0:0:
31,134,64739,1,4,0:0:0:0:
12,219,65063,2,0,L|135:236,1,120,4|2,0:0|0:0,0:0:0:0:
123,323,65874,1,2,0:0:0:0:
189,382,66199,1,2,0:0:0:0:
261,335,66523,6,0,P|317:349|389:335,2,120,4|0|8,1:2|0:0|0:0,0:0:0:0:
198,272,67820,2,0,P|192:211|202:181,1,80,0|8,0:0|0:0,0:0:0:0:
261,133,68469,2,0,P|322:127|352:137,1,80,0|8,1:0|0:0,0:0:0:0:
362,216,69118,6,0,L|355:345,2,120,0|0|8,1:0|0:0|0:0,0:0:0:0:
426,155,70415,1,0,0:0:0:0:
404,69,70739,2,0,L|487:57,2,80,8|0|8,0:0|1:0|0:0,0:0:0:0:
319,93,71712,6,0,P|263:79|191:93,2,120,0|0|8,1:0|0:0|0:0,0:0:0:0:
382,156,73009,2,0,P|388:217|378:247,1,80,0|8,0:0|0:0,0:0:0:0:
319,295,73658,2,0,P|258:301|228:291,1,80,0|8,1:0|1:2,0:0:0:0:
159,261,74307,6,0,P|103:275|31:261,1,120,0|0,1:1|0:0,0:0:0:0:
13,182,75118,1,0,1:0:0:0:
61,108,75442,2,0,L|152:91,1,80,4|4,0:0|0:0,0:0:0:0:
220,57,76091,2,0,L|311:74,1,80,4|4,0:0|0:0,0:0:0:0:
427,42,76901,6,0,L|418:165,1,120,4|0,1:2|0:0,0:0:0:0:
455,241,77712,1,0,1:0:0:0:
406,314,78036,2,0,P|344:329|298:285,1,120,0|8,1:0|0:0,0:0:0:0:
278,212,78847,2,0,L|288:127,1,80,0|8,1:0|0:0,0:0:0:0:
324,52,79496,6,0,P|286:67|195:61,1,120,4|4,0:0|0:0,0:0:0:0:
123,38,80307,1,4,0:0:0:0:
50,87,80631,2,0,L|59:206,1,120,4|0,0:0|0:0,0:0:0:0:
59,294,81442,2,0,P|97:286|129:255,1,80,0|0,3:0|3:0,0:0:0:0:
143,172,82091,5,4,2:0:0:0:
266,297,82739,2,0,L|443:312,2,160,0|0|0,2:0|2:0|2:0,0:0:0:0:
97,349,84685,6,0,B|109:297|109:297|100:250|100:250|112:191,1,160,0|0,2:0|2:0,0:0:0:0:
160,118,85658,1,0,2:0:0:0:
231,169,85982,2,0,P|307:188|389:165,1,160,0|0,2:0|2:0,0:0:0:0:
500,34,87280,5,4,2:0:0:0:
256,192,87442,12,0,89388,0:0:0:0:
