osu file format v14

[General]
AudioFilename: audio.mp3
AudioLeadIn: 0
PreviewTime: 44793
Countdown: 0
SampleSet: Soft
StackLeniency: 0.5
Mode: 0
LetterboxInBreaks: 0
WidescreenStoryboard: 0

[Editor]
DistanceSpacing: 0.8
BeatDivisor: 4
GridSize: 4
TimelineZoom: 2.2

[Metadata]
Title:Asuiro (TV size)
TitleUnicode:アスイロ(TV size)
Artist:Rie Murakawa
ArtistUnicode:村川梨衣
Creator:Firis Mistlud
Version:1112's Another
Source:エスカ&ロジーのアトリエ
Tags:黄昏の空の錬金術士 Escha & Logy no Atelier: Tasogare no Sora no Renkinjutsushi A15 Alchemists of the Dusk Sky opening KuranteMelodii krt Suzuki_1112 LowComboFC LCFC Moecho Moeri Pata-mon Asuka_-
BeatmapID:1313461
BeatmapSetID:596487

[Difficulty]
HPDrainRate:6
CircleSize:4
OverallDifficulty:8
ApproachRate:9.2
SliderMultiplier:1.8
SliderTickRate:1

[Events]
//Background and Video events
0,0,"Konachan.com - 204391 sample.jpg",0,0
Video,0,"AtelierOPmov.avi"
//Break Periods
//Storyboard Layer 0 (Background)
//Storyboard Layer 1 (Fail)
//Storyboard Layer 2 (Pass)
//Storyboard Layer 3 (Foreground)
//Storyboard Sound Samples

[TimingPoints]
-936,324.324324324324,4,2,1,30,1,0
199,-133.333333333333,4,2,1,30,0,0
4253,-100,4,2,1,40,0,0
14631,-100,4,2,1,50,0,0
25009,-100,4,2,1,40,0,0
29550,-100,4,2,1,50,0,0
30361,-100,4,2,1,40,0,0
34415,-100,4,2,1,50,0,0
41874,-90.9090909090909,4,2,1,50,0,0
42523,-83.3333333333333,4,2,1,50,0,0
43172,-133.333333333333,4,2,1,50,0,0
44307,-133.333333333333,4,2,1,70,0,0
44793,-100,4,2,1,70,0,0
44874,-100,4,2,1,26,0,0
44955,-100,4,2,1,30,0,0
45036,-100,4,2,1,34,0,0
45118,-100,4,2,1,38,0,0
45199,-100,4,2,1,42,0,0
45280,-100,4,2,1,46,0,0
45361,-100,4,2,1,50,0,0
45442,-100,4,2,1,54,0,0
45523,-100,4,2,1,58,0,0
45604,-100,4,2,1,62,0,0
45685,-100,4,2,1,66,0,0
45766,-76.9230769230769,4,2,1,70,0,1
55658,-133.333333333333,4,2,1,70,0,1
56145,-76.9230769230769,4,2,1,70,0,1
63928,-76.9230769230769,4,2,1,70,0,0
66523,-76.9230769230769,4,2,1,70,0,1
76415,-133.333333333333,4,2,1,70,0,1
76901,-76.9230769230769,4,2,1,70,0,1
82091,-100,4,2,1,70,0,0
82253,-100,4,2,1,32,0,0
82415,-100,4,2,1,34,0,0
82577,-100,4,2,1,36,0,0
82739,-100,4,2,1,38,0,0
82901,-100,4,2,1,40,0,0
83063,-100,4,2,1,42,0,0
83226,-100,4,2,1,44,0,0
83388,-100,4,2,1,46,0,0
83550,-100,4,2,1,48,0,0
83712,-100,4,2,1,50,0,0
83874,-100,4,2,1,52,0,0
84036,-100,4,2,1,54,0,0
84199,-100,4,2,1,56,0,0
84361,-100,4,2,1,58,0,0
84523,-100,4,2,1,60,0,0
84685,-90.9090909090909,4,2,1,62,0,0
84847,-90.9090909090909,4,2,1,64,0,0
85009,-90.9090909090909,4,2,1,66,0,0
85172,-90.9090909090909,4,2,1,68,0,0
85334,-90.9090909090909,4,2,1,70,0,0
85496,-90.9090909090909,4,2,1,72,0,0
85658,-90.9090909090909,4,2,1,74,0,0
85820,-90.9090909090909,4,2,1,76,0,0
85982,-83.3333333333333,4,2,1,78,0,0
86145,-83.3333333333333,4,2,1,80,0,0
86307,-83.3333333333333,4,2,1,82,0,0
86469,-83.3333333333333,4,2,1,84,0,0
86550,-76.9230769230769,4,2,1,84,0,0
86631,-76.9230769230769,4,2,1,86,0,0
86793,-76.9230769230769,4,2,1,88,0,0
86955,-76.9230769230769,4,2,1,90,0,0
89388,-76.9230769230769,4,2,1,5,0,0

[Colours]
Combo1 : 0,128,0
Combo2 : 248,209,92
Combo3 : 191,191,0
Combo4 : 172,86,0

[HitObjects]
67,55,361,6,0,P|61:95|79:136,1,67.5000025749208,2|0,0:0|0:0,0:0:0:0:
126,187,685,1,2,0:0:0:0:
211,167,847,2,0,L|308:153,1,67.5000025749208,2|0,0:0|0:0,0:0:0:0:
337,259,1172,1,0,0:0:0:0:
246,248,1334,1,2,0:0:0:0:
154,342,1496,6,0,L|309:319,1,135.000005149842,2|0,0:0|0:0,0:0:0:0:
378,362,1982,1,2,0:0:0:0:
424,277,2145,1,2,0:0:0:0:
308,328,2469,5,0,0:0:0:0:
378,362,2631,1,0,0:0:0:0:
421,298,2793,1,0,0:0:0:0:
461,69,4253,6,0,P|479:137|448:181,1,90,2|0,0:0|0:0,0:0:0:0:
410,252,4577,1,2,0:0:0:0:
231,232,4739,2,0,L|428:254,1,180,0|0,0:3|0:0,0:0:0:0:
336,366,5226,2,0,P|312:302|326:263,1,90,2|0,0:0|0:0,0:0:0:0:
409,212,5550,6,0,L|212:234,1,180,2|0,0:0|0:0,0:0:0:0:
165,135,6036,2,0,L|362:113,1,180,2|0,0:0|0:0,0:0:0:0:
351,21,6523,2,0,L|231:32,1,90,2|0,0:0|0:0,0:0:0:0:
165,135,6847,6,0,B|155:188|155:188|169:258|169:258|154:342,1,180,2|2,0:0|0:0,0:0:0:0:
281,363,7334,2,0,B|291:310|291:310|277:240|277:240|292:156,1,180,2|2,0:0|0:0,0:0:0:0:
452,244,7820,2,0,P|396:248|344:288,1,90,2|0,0:0|0:0,0:0:0:0:
281,363,8145,5,2,0:0:0:0:
368,62,8469,1,2,0:0:0:0:
200,138,8631,2,0,L|110:146,1,90,2|0,0:0|0:0,0:0:0:0:
331,195,8955,1,0,0:0:0:0:
177,43,9118,2,0,L|266:34,1,90,2|0,0:0|0:0,0:0:0:0:
166,232,9442,6,0,P|169:286|142:328,1,90,2|0,0:0|0:0,0:0:0:0:
76,357,9766,1,2,0:0:0:0:
255,345,9928,2,0,L|69:357,1,180,2|0,0:0|0:0,0:0:0:0:
10,188,10415,2,0,P|4:232|13:276,1,90,2|0,0:0|0:0,0:0:0:0:
106,214,10739,6,0,L|97:34,1,180,2|2,0:0|0:0,0:0:0:0:
190,23,11226,2,0,L|198:202,1,180,2|0,0:0|0:0,0:0:0:0:
310,140,11712,1,2,0:0:0:0:
300,287,11874,1,0,0:0:0:0:
431,210,12036,6,0,P|344:214|300:288,1,180,2|2,0:0|0:0,0:0:0:0:
495,357,12523,1,0,0:0:0:0:
503,240,12685,1,2,0:0:0:0:
390,297,12847,2,0,L|267:285,1,90,0|2,0:0|0:0,0:0:0:0:
220,341,13172,6,0,B|166:360|166:360|14:340,1,180,2|0,0:3|0:0,0:0:0:0:
35,202,13658,2,0,L|154:188,2,90,0|2|0,0:0|0:0|0:0,0:0:0:0:
34,56,14145,1,0,1:0:0:0:
38,82,14226,1,0,1:0:0:0:
43,107,14307,1,0,1:0:0:0:
254,219,14469,1,0,1:0:0:0:
259,189,14550,1,0,1:0:0:0:
263,161,14631,6,0,P|207:129|124:193,1,180,4|8,1:0|0:0,0:0:0:0:
211,293,15118,1,0,0:0:0:0:
211,293,15199,1,0,0:0:0:0:
211,293,15280,5,0,1:0:0:0:
397,263,15442,1,0,1:0:0:0:
317,338,15604,1,8,0:0:0:0:
344,158,15766,1,0,0:0:0:0:
211,293,15928,6,0,B|108:277|141:367|16:326,1,180,0|8,1:0|0:0,0:0:0:0:
59,166,16415,1,0,0:0:0:0:
194,217,16577,1,0,1:0:0:0:
51,250,16739,1,0,1:0:0:0:
200,137,16901,2,0,P|256:120|306:143,1,90,8|0,0:0|0:0,0:0:0:0:
480,222,17226,6,0,B|421:210|421:210|372:222|372:222|293:203,1,180,0|8,1:0|0:0,0:0:0:0:
376,103,17712,1,0,0:0:0:0:
438,308,17874,1,0,1:0:0:0:
231,266,18036,2,0,P|211:224|221:161,2,90,0|8|0,1:0|0:0|0:0,0:0:0:0:
98,356,18523,5,0,1:0:0:0:
88,183,18685,1,0,0:0:0:0:
1,338,18847,1,8,0:0:0:0:
152,282,19009,1,0,0:0:0:0:
0,242,19172,1,0,1:0:0:0:
162,206,19334,1,0,1:0:0:0:
3,142,19496,1,8,0:0:0:0:
162,206,19658,1,0,0:0:0:0:
156,43,19820,6,0,B|122:124|122:124|177:237,1,180,0|8,1:0|0:0,0:0:0:0:
298,198,20307,1,0,0:0:0:0:
298,198,20388,1,0,0:0:0:0:
298,198,20469,1,0,1:0:0:0:
159,284,20631,1,0,1:0:0:0:
234,113,20793,2,0,P|290:92|336:105,1,90,8|0,0:0|0:0,0:0:0:0:
476,222,21118,6,0,L|276:195,1,180,0|8,1:0|0:0,0:0:0:0:
367,299,21604,1,0,0:0:0:0:
413,128,21766,1,0,1:0:0:0:
297,197,21928,1,0,1:0:0:0:
499,133,22091,2,0,P|490:81|448:50,1,90,8|0,0:0|0:0,0:0:0:0:
268,111,22415,6,0,B|184:136|184:136|75:106,1,180,0|8,1:0|0:0,0:0:0:0:
185,4,22901,1,0,0:0:0:0:
17,90,23063,2,0,L|26:188,1,90,0|0,1:0|1:0,0:0:0:0:
105,336,23388,1,8,0:0:0:0:
181,203,23550,2,0,L|124:204,1,45,0|0,0:0|0:0,0:0:0:0:
25,179,23712,6,0,L|34:277,1,90,0|0,1:0|0:0,0:0:0:0:
202,364,24036,2,0,L|193:274,1,90,8|0,0:0|0:0,0:0:0:0:
172,79,24361,2,0,L|177:139,1,45,4|0,1:2|0:0,0:0:0:0:
281,232,24523,2,0,P|325:187|431:217,1,180,0|0,1:0|0:0,0:0:0:0:
428,213,24928,1,0,0:0:0:0:
428,213,25009,5,4,0:0:0:0:
508,297,25172,1,0,0:0:0:0:
358,271,25334,1,0,0:0:0:0:
480,370,25496,1,0,0:0:0:0:
285,347,25658,5,2,0:0:0:0:
432,300,25820,1,0,0:0:0:0:
274,263,25982,1,0,0:0:0:0:
480,370,26145,1,0,0:0:0:0:
406,77,26469,5,0,0:0:0:0:
427,161,26631,1,0,0:0:0:0:
453,245,26793,1,0,0:0:0:0:
345,141,26955,1,0,1:0:0:0:
511,185,27117,5,0,0:0:0:0:
288,197,27280,1,0,0:0:0:0:
490,96,27442,1,0,0:0:0:0:
263,118,27604,6,0,P|221:119|170:163,1,90,0|0,0:0|0:0,0:0:0:0:
145,259,27928,1,0,0:0:0:0:
284,369,28091,2,0,L|242:175,1,180,0|0,0:0|0:0,0:0:0:0:
98,146,28577,1,0,0:0:0:0:
245,193,28739,6,0,B|195:178|155:206|155:206|145:161|89:143,1,180,0|0,0:0|0:0,0:0:0:0:
60,229,29226,1,0,0:0:0:0:
99,146,29388,1,0,0:0:0:0:
31,23,29550,6,0,P|85:57|208:26,1,180,2|0,0:0|0:0,0:0:0:0:
194,37,30199,5,2,0:0:0:0:
253,121,30361,1,0,0:0:0:0:
316,37,30523,1,0,0:0:0:0:
160,113,30685,1,2,0:0:0:0:
341,129,30847,5,0,0:0:0:0:
112,47,31009,1,0,0:0:0:0:
288,196,31172,1,0,0:0:0:0:
316,37,31334,1,2,0:0:0:0:
457,340,31658,5,0,0:0:0:0:
442,261,31820,1,0,0:0:0:0:
428,181,31982,1,2,0:0:0:0:
376,314,32144,1,0,0:0:0:0:
505,203,32307,5,0,0:0:0:0:
376,314,32469,1,0,0:0:0:0:
428,181,32631,1,0,0:0:0:0:
457,340,32793,6,0,P|408:338|370:304,1,90,2|0,0:0|0:0,0:0:0:0:
315,216,33118,1,0,0:0:0:0:
400,259,33280,2,0,P|367:294|229:254,1,180,2|0,0:0|0:0,0:0:0:0:
209,186,33766,1,0,0:0:0:0:
296,36,33928,6,0,L|318:246,1,180,2|0,0:0|1:0,0:0:0:0:
401,133,34415,1,4,0:0:0:0:
209,186,34577,2,0,P|171:180|136:188,1,45,0|0,0:0|0:0,0:0:0:0:
70,128,34739,6,0,L|83:249,1,90,2|8,0:3|3:0,0:0:0:0:
161,352,35063,2,0,L|171:253,1,90,8|0,3:0|3:0,0:0:0:0:
209,186,35307,1,0,3:0:0:0:
209,186,35388,6,0,P|278:158|326:174,1,90,4|0,0:0|0:0,0:0:0:0:
312,337,35712,1,0,0:0:0:0:
359,127,35874,1,0,0:0:0:0:
209,186,36036,1,8,0:0:0:0:
384,218,36199,2,0,B|415:230|415:230|501:206,1,90,0|0,0:0|0:0,0:0:0:0:
359,127,36523,6,0,L|165:109,1,180
100,9,37009,1,0,0:0:0:0:
179,110,37172,1,0,0:0:0:0:
16,59,37334,2,0,L|32:170,1,90,8|0,0:0|0:0,0:0:0:0:
164,302,37658,2,0,L|144:190,1,90
4,252,37982,6,0,P|73:277|151:182,1,180,2|0,0:0|0:0,0:0:0:0:
273,214,38469,2,0,L|393:196,1,90,0|8,0:0|0:0,0:0:0:0:
170,101,38793,2,0,L|57:113,1,90
273,214,39118,6,0,B|361:180|371:264|478:214,1,180
392,124,39604,1,0,0:0:0:0:
392,124,39928,2,0,L|392:319,1,180,8|0,0:0|1:0,0:0:0:0:
253,376,40415,1,0,0:0:0:0:
253,376,40496,1,0,0:0:0:0:
253,376,40577,6,0,L|243:251,2,90,0|0|8,1:0|0:0|0:0,0:0:0:0:
67,365,41226,6,0,P|89:254|254:224,1,270,4|8,1:2|0:0,0:0:0:0:
306,65,41874,6,0,P|347:94|205:186,1,297.000009063721,0|0,1:0|0:0,0:0:0:0:
10,89,42523,6,0,B|62:33|126:36|126:36|178:84|246:95|346:48,1,323.999990112305,8|0,0:0|0:0,0:0:0:0:
437,18,43172,6,0,P|404:78|423:152,1,135.000005149842,2|0,0:0|0:0,0:0:0:0:
456,217,43658,1,0,1:0:0:0:
347,204,43820,1,4,0:0:0:0:
507,131,43982,1,0,0:0:0:0:
384,300,44145,1,0,0:0:0:0:
322,107,44307,6,0,L|179:122,1,135.000005149842,4|4,0:0|0:0,0:0:0:0:
106,134,44712,1,0,0:0:0:0:
106,134,44793,6,0,P|100:198|123:242,1,90,6|0,0:0|0:0,0:0:0:0:
179,311,45036,1,0,0:0:0:0:
219,326,45118,5,2,0:0:0:0:
262,328,45199,1,0,0:0:0:0:
303,315,45280,1,0,0:0:0:0:
337,288,45361,1,0,0:0:0:0:
366,256,45442,1,2,0:0:0:0:
404,237,45523,1,0,0:0:0:0:
447,234,45604,1,0,0:0:0:0:
487,249,45685,1,0,0:0:0:0:
510,274,45766,6,0,P|445:279|353:118,1,233.999989288331,6|8,0:0|0:0,0:0:0:0:
222,32,46253,2,0,P|186:40|144:79,1,58.4999973220826
105,121,46415,5,0,1:0:0:0:
208,246,46577,1,0,1:0:0:0:
110,335,46739,1,8,0:0:0:0:
10,254,46901,6,0,P|56:211|213:253,1,233.999989288331,0|0,1:0|0:0,0:0:0:0:
336,337,47388,2,0,L|476:322,1,116.999994644165,8|0,0:0|0:0,0:0:0:0:
494,158,47712,1,0,1:0:0:0:
336,337,47874,1,0,1:0:0:0:
494,158,48036,2,0,L|377:170,1,116.999994644165,8|0,0:0|0:0,0:0:0:0:
141,78,48361,6,0,B|103:75|76:50|76:50|145:112|98:221,1,233.999989288331,0|8,1:0|0:0,0:0:0:0:
76,359,48847,1,0,0:0:0:0:
281,271,49009,1,0,1:0:0:0:
216,367,49172,1,0,1:0:0:0:
220,157,49334,1,8,0:0:0:0:
400,248,49496,1,0,1:0:0:0:
220,157,49658,6,0,P|254:62|315:38,1,116.999994644165,0|0,0:0|0:0,0:0:0:0:
411,158,49982,1,8,0:0:0:0:
302,279,50145,1,0,0:0:0:0:
302,279,50226,1,0,0:0:0:0:
302,279,50307,6,0,L|144:304,1,116.999994644165,0|0,1:0|1:3,0:0:0:0:
263,55,50631,2,0,L|378:36,1,116.999994644165,8|0,0:0|0:0,0:0:0:0:
86,158,50955,6,0,B|109:111|165:107|165:107|194:161|250:178|322:153,1,233.999989288331,0|8,1:0|0:0,0:0:0:0:
458,117,51442,1,0,0:0:0:0:
458,117,51523,1,0,0:0:0:0:
458,117,51604,5,0,1:0:0:0:
406,330,51766,1,0,1:0:0:0:
278,163,51928,1,8,0:0:0:0:
495,222,52091,6,0,P|430:222|362:69,1,233.999989288331,0|0,1:0|0:0,0:0:0:0:
512,33,52577,1,8,0:0:0:0:
495,222,52739,1,0,0:0:0:0:
234,300,52901,6,0,L|20:273,1,175.499991966248,0|0,1:0|0:0,0:0:0:0:
0,168,53226,2,0,L|214:195,1,175.499991966248,8|0,1:2|0:0,0:0:0:0:
195,372,53550,6,0,P|124:292|216:177,1,233.999989288331,0|8,1:0|0:0,0:0:0:0:
400,264,54036,1,0,0:0:0:0:
400,264,54118,1,0,0:0:0:0:
400,264,54199,2,0,L|227:262,1,116.999994644165,0|0,1:0|1:0,0:0:0:0:
316,65,54523,1,8,0:0:0:0:
475,174,54685,6,0,B|496:243|449:285|449:285|348:241,1,175.499991966248,4|0,0:0|0:0,0:0:0:0:
283,262,55009,2,0,B|322:201|384:210|384:210|415:316,1,175.499991966248,4|0,0:0|0:0,0:0:0:0:
446,371,55334,2,0,B|374:358|358:297|358:297|443:227,1,175.499991966248,4|0,0:0|0:0,0:0:0:0:
394,103,55658,6,0,B|410:145|410:145|392:174|392:174|406:209|398:270,1,168.750006437302,4|0,0:0|0:0,0:0:0:0:
281,262,56145,6,0,L|37:268,1,233.999989288331,4|8,0:0|0:0,0:0:0:0:
129,130,56631,1,0,0:0:0:0:
129,130,56712,1,0,0:0:0:0:
129,130,56793,5,0,1:0:0:0:
221,341,56955,1,0,1:0:0:0:
262,175,57118,1,8,0:0:0:0:
48,268,57280,2,0,P|64:319|230:333,1,233.999989288331,0|0,1:0|0:0,0:0:0:0:
366,184,57766,2,0,P|357:122|311:82,1,116.999994644165,8|0,0:0|0:0,0:0:0:0:
181,171,58091,5,0,1:0:0:0:
344,313,58253,1,0,0:0:0:0:
366,184,58415,1,8,0:0:0:0:
122,238,58577,1,0,0:0:0:0:
436,250,58739,6,0,B|486:292|486:292|454:70,1,233.999989288331,0|8,1:0|0:0,0:0:0:0:
251,70,59226,1,0,0:0:0:0:
251,70,59307,1,0,0:0:0:0:
251,70,59388,1,0,1:0:0:0:
286,259,59550,1,0,1:0:0:0:
461,125,59712,1,8,0:0:0:0:
192,131,59874,6,0,B|8:121|8:121|77:175,1,233.999989288331,0|0,1:0|0:0,0:0:0:0:
182,339,60361,2,0,P|199:256|174:191,1,116.999994644165,8|0,0:0|0:0,0:0:0:0:
113,42,60685,5,0,1:0:0:0:
388,203,61009,1,8,0:0:0:0:
388,203,61334,6,0,P|360:255|469:375,1,233.999989288331,0|8,1:0|0:0,0:0:0:0:
480,164,61820,1,0,0:0:0:0:
274,254,61982,1,0,1:0:0:0:
320,54,62145,2,0,P|331:117|307:180,1,116.999994644165,0|8,1:0|0:0,0:0:0:0:
91,160,62469,6,0,B|150:161|150:161|187:176|187:176|228:157|228:157|279:189|352:152,1,233.999989288331,0|0,1:0|0:0,0:0:0:0:
421,13,62955,2,0,P|338:32|305:91,1,116.999994644165,8|0,0:0|0:0,0:0:0:0:
486,226,63280,2,0,P|455:146|392:121,1,116.999994644165,0|0,1:0|1:0,0:0:0:0:
282,298,63604,2,0,P|365:281|400:224,1,116.999994644165,8|0,0:0|0:0,0:0:0:0:
177,196,63928,6,0,B|101:238|8:202|8:202|51:284,1,233.999989288331,4|0,0:0|0:0,0:0:0:0:
282,298,64415,2,0,L|265:112,1,175.499991966248,4|0,0:0|0:0,0:0:0:0:
355,18,64739,2,0,L|370:192,1,175.499991966248,4|0,0:0|0:0,0:0:0:0:
394,313,65063,6,0,B|262:255|306:382|167:320,1,233.999989288331,4|0,0:0|0:0,0:0:0:0:
79,175,65550,5,2,0:0:0:0:
75,156,65631,1,0,0:0:0:0:
70,136,65712,1,0,0:0:0:0:
67,117,65793,1,0,0:0:0:0:
65,100,65874,5,2,0:0:0:0:
105,77,65955,1,0,0:0:0:0:
151,78,66036,1,0,0:0:0:0:
189,105,66118,1,0,0:0:0:0:
219,140,66199,1,2,0:0:0:0:
250,174,66280,1,0,0:0:0:0:
295,184,66361,1,0,0:0:0:0:
341,182,66442,1,0,0:0:0:0:
381,171,66523,6,0,B|342:167|306:208|306:208|363:241|371:296|336:360,1,233.999989288331,4|8,1:2|0:0,0:0:0:0:
67,241,67009,1,0,0:0:0:0:
67,241,67091,1,0,0:0:0:0:
67,241,67172,5,0,1:0:0:0:
192,352,67334,1,0,1:0:0:0:
189,105,67496,1,8,0:0:0:0:
14,314,67658,6,0,P|103:319|121:168,1,233.999989288331,0|0,1:0|0:0,0:0:0:0:
86,32,68145,1,8,0:0:0:0:
291,185,68307,1,0,0:0:0:0:
115,133,68469,2,0,L|-22:152,1,116.999994644165,0|0,1:0|1:0,0:0:0:0:
291,185,68793,2,0,L|406:168,1,116.999994644165,8|0,0:0|0:0,0:0:0:0:
266,81,69118,6,0,B|253:121|250:155|291:185|291:185|253:229|252:260|274:318,1,233.999989288331,0|8,1:0|0:0,0:0:0:0:
389,384,69604,1,0,0:0:0:0:
389,384,69685,1,0,0:0:0:0:
389,384,69766,5,0,1:0:0:0:
406,168,69928,1,0,1:0:0:0:
265,293,70091,1,8,0:0:0:0:
481,215,70253,6,0,P|477:114|342:105,1,233.999989288331,0|0,1:0|0:0,0:0:0:0:
211,197,70739,1,8,0:0:0:0:
376,290,70901,1,0,0:0:0:0:
363,88,71063,1,0,1:0:0:0:
118,200,71226,2,0,P|133:255|182:285,1,116.999994644165,0|8,1:0|0:0,0:0:0:0:
429,214,71550,1,0,0:0:0:0:
363,88,71712,6,0,L|158:100,1,175.499991966248,0|0,1:0|0:0,0:0:0:0:
187,98,72036,1,8,0:0:0:0:
182,285,72199,1,0,0:0:0:0:
358,233,72361,5,0,1:0:0:0:
118,201,72523,1,0,1:0:0:0:
298,333,72685,1,8,0:0:0:0:
473,173,72847,6,0,B|343:125|387:235|250:192,1,233.999989288331,0|0,1:0|0:0,0:0:0:0:
420,314,73334,1,8,0:0:0:0:
301,97,73496,1,0,0:0:0:0:
301,97,73577,1,0,0:0:0:0:
301,97,73658,2,0,L|115:106,1,175.499991966248,0|0,1:0|0:0,0:0:0:0:
76,201,73982,2,0,L|275:191,1,175.499991966248,8|0,1:2|0:0,0:0:0:0:
340,92,74307,6,0,B|295:72|295:72|221:145|119:102,1,233.999989288331,0|8,1:1|0:0,0:0:0:0:
37,295,74793,1,0,0:0:0:0:
251,192,74955,1,0,1:0:0:0:
125,105,75118,1,0,1:0:0:0:
221,281,75280,1,0,0:0:0:0:
393,123,75442,6,0,B|343:101|343:101|296:143|317:212,1,175.499991966248,4|0,0:0|0:0,0:0:0:0:
393,123,75766,2,0,B|434:89|434:89|418:28|346:15,1,175.499991966248,4|0,0:0|0:0,0:0:0:0:
393,123,76091,2,0,B|408:175|408:175|470:184|509:123,1,175.499991966248,4|0,0:0|0:0,0:0:0:0:
393,123,76415,6,0,B|385:176|399:211|399:211|381:240|381:240|397:282,1,168.750006437302,4|0,0:0|0:0,0:0:0:0:
442,366,76901,6,0,B|365:340|365:340|178:371,1,233.999989288331,4|8,1:2|0:0,0:0:0:0:
43,280,77388,1,0,0:0:0:0:
43,280,77469,1,0,0:0:0:0:
43,280,77550,5,0,1:0:0:0:
162,149,77712,1,0,1:0:0:0:
116,352,77874,1,8,0:0:0:0:
92,99,78036,6,0,P|146:68|245:200,1,233.999989288331,0|0,1:0|0:0,0:0:0:0:
43,280,78523,1,8,0:0:0:0:
162,149,78685,1,0,0:0:0:0:
116,352,78847,1,0,1:0:0:0:
31,150,79009,1,0,0:0:0:0:
215,251,79172,2,0,L|345:227,1,116.999994644165,8|0,0:0|0:0,0:0:0:0:
439,102,79496,6,0,B|358:86|307:147|307:147|333:191|329:244,1,233.999989288331,4|8,0:0|0:0,0:0:0:0:
116,352,79982,6,0,B|89:293|117:225|117:225|122:285,1,175.499991966248,4|0,0:0|0:0,0:0:0:0:
219,168,80307,2,0,B|246:227|218:295|218:295|214:250,1,175.499991966248,4|0,0:0|0:0,0:0:0:0:
207,72,80631,6,0,B|312:44|273:118|381:90,1,175.499991966248,4|0,0:0|0:0,0:0:0:0:
397,86,80955,2,0,L|392:27,2,38.9999982147218,0|0|0,1:0|0:0|0:0,0:0:0:0:
425,80,81118,6,0,L|418:224,1,116.999994644165,8|2,0:0|0:0,0:0:0:0:
350,352,81442,1,0,3:0:0:0:
331,190,81604,1,0,3:0:0:0:
446,304,81766,1,0,3:0:0:0:
277,270,81928,1,0,3:0:0:0:
420,197,82091,6,0,L|301:187,1,90,4|0,2:0|2:0,0:0:0:0:
187,262,82415,2,0,L|312:272,1,90,0|0,2:0|2:0,0:0:0:0:
420,197,82739,2,0,P|431:150|414:109,1,90,2|0,2:0|2:0,0:0:0:0:
276,269,83063,2,0,P|261:310|272:353,1,90,0|0,2:0|2:0,0:0:0:0:
416,112,83388,6,0,L|298:102,1,90,2|0,2:0|2:0,0:0:0:0:
272,353,83712,2,0,L|361:360,1,90,0|0,2:0|2:0,0:0:0:0:
496,260,84036,1,2,2:0:0:0:
416,112,84199,1,0,2:0:0:0:
417,310,84361,1,0,2:0:0:0:
511,107,84523,1,0,2:0:0:0:
206,110,84685,6,0,L|62:88,1,99.0000030212403,2|0,2:0|2:0,0:0:0:0:
171,270,85009,2,0,L|268:284,1,99.0000030212403,0|0,2:0|2:0,0:0:0:0:
206,110,85334,2,0,P|220:52|210:10,1,99.0000030212403,0|0,2:0|2:0,0:0:0:0:
171,270,85658,2,0,P|163:318|176:365,1,99.0000030212403,2|0,2:0|2:0,0:0:0:0:
371,151,85982,6,0,L|378:5,1,107.999996704102,2|0,2:0|2:0,0:0:0:0:
174,162,86307,2,0,L|169:302,1,107.999996704102,0|2,2:0|2:0,0:0:0:0:
243,338,86550,1,0,0:0:0:0:
243,338,86631,6,0,L|375:297,1,116.999994644165,2|0,2:0|2:0,0:0:0:0:
126,105,86955,2,0,L|14:139,1,116.999994644165,2|0,2:0|0:0,0:0:0:0:
243,338,87280,5,4,2:0:0:0:
256,192,87361,12,0,89388,0:0:0:0:
