osu file format v14

[General]
AudioFilename: audio.mp3
AudioLeadIn: 0
PreviewTime: 44793
Countdown: 0
SampleSet: Soft
StackLeniency: 0.7
Mode: 0
LetterboxInBreaks: 0
WidescreenStoryboard: 0

[Editor]
Bookmarks: 58415
DistanceSpacing: 0.2
BeatDivisor: 4
GridSize: 4
TimelineZoom: 3.999999

[Metadata]
Title:Asuiro (TV size)
TitleUnicode:アスイロ(TV size)
Artist:Rie Murakawa
ArtistUnicode:村川梨衣
Creator:Firis Mistlud
Version:Existence
Source:エスカ&ロジーのアトリエ
Tags:黄昏の空の錬金術士 Escha & Logy no Atelier: Tasogare no Sora no Renkinjutsushi A15 Alchemists of the Dusk Sky opening KuranteMelodii krt Suzuki_1112 LowComboFC LCFC Moecho Moeri Pata-mon Asuka_-
BeatmapID:1324208
BeatmapSetID:596487

[Difficulty]
HPDrainRate:6
CircleSize:4.5
OverallDifficulty:8.5
ApproachRate:9.3
SliderMultiplier:1.9
SliderTickRate:1

[Events]
//Background and Video events
Video,0,"AtelierOPmov.avi"
0,0,"Konachan.com - 204391 sample.jpg",0,0
//Break Periods
//Storyboard Layer 0 (Background)
//Storyboard Layer 1 (Fail)
//Storyboard Layer 2 (Pass)
//Storyboard Layer 3 (Foreground)
//Storyboard Sound Samples

[TimingPoints]
-936,324.324324324324,4,2,1,30,1,0
-936,-200,4,2,1,30,0,0
4253,-125,4,2,1,40,0,0
13820,-83.3333333333333,4,2,1,40,0,0
14631,-90.9090909090909,4,2,1,50,0,0
25009,-133.333333333333,4,2,1,40,0,0
29550,-111.111111111111,4,2,1,50,0,0
30361,-133.333333333333,4,2,1,40,0,0
34415,-80,4,2,1,50,0,0
35226,-100,4,2,1,50,0,0
40577,-125,4,2,1,50,0,0
41226,-142.857142857143,4,2,1,50,0,0
41874,-100,4,2,1,50,0,0
42523,-125,4,2,1,50,0,0
43172,-111.111111111111,4,2,1,50,0,0
43820,-83.3333333333333,4,2,1,50,0,0
44307,-57.1428571428571,4,2,1,70,0,0
44793,-66.6666666666667,4,2,1,70,0,0
44874,-66.6666666666667,4,2,1,26,0,0
44955,-66.6666666666667,4,2,1,30,0,0
45036,-66.6666666666667,4,2,1,34,0,0
45118,-66.6666666666667,4,2,1,38,0,0
45199,-66.6666666666667,4,2,1,42,0,0
45280,-66.6666666666667,4,2,1,46,0,0
45361,-66.6666666666667,4,2,1,50,0,0
45442,-66.6666666666667,4,2,1,54,0,0
45523,-66.6666666666667,4,2,1,58,0,0
45604,-66.6666666666667,4,2,1,62,0,0
45685,-66.6666666666667,4,2,1,66,0,0
45766,-83.3333333333333,4,2,1,70,0,1
54685,-76.9230769230769,4,2,1,70,0,1
55658,-125,4,2,1,70,0,1
56145,-83.3333333333333,4,2,1,70,0,1
63928,-66.6666666666667,4,2,1,70,0,1
65550,-66.6666666666667,4,2,1,70,0,0
66523,-83.3333333333333,4,2,1,70,0,1
75442,-71.4285714285714,4,2,1,70,0,1
76415,-111.111111111111,4,2,1,70,0,1
76901,-83.3333333333333,4,2,1,70,0,1
79496,-66.6666666666667,4,2,1,70,0,1
80631,-83.3333333333333,4,2,1,70,0,1
82091,-76.9230769230769,4,2,1,70,0,0
82253,-76.9230769230769,4,2,1,32,0,0
82415,-76.9230769230769,4,2,1,34,0,0
82577,-76.9230769230769,4,2,1,36,0,0
82739,-76.9230769230769,4,2,1,38,0,0
82901,-76.9230769230769,4,2,1,40,0,0
83063,-76.9230769230769,4,2,1,42,0,0
83226,-76.9230769230769,4,2,1,44,0,0
83388,-76.9230769230769,4,2,1,46,0,0
83550,-76.9230769230769,4,2,1,48,0,0
83712,-76.9230769230769,4,2,1,50,0,0
83874,-76.9230769230769,4,2,1,52,0,0
84036,-76.9230769230769,4,2,1,54,0,0
84199,-76.9230769230769,4,2,1,56,0,0
84361,-76.9230769230769,4,2,1,58,0,0
84523,-76.9230769230769,4,2,1,60,0,0
84685,-76.9230769230769,4,2,1,62,0,0
84847,-76.9230769230769,4,2,1,64,0,0
85009,-76.9230769230769,4,2,1,66,0,0
85172,-76.9230769230769,4,2,1,68,0,0
85334,-76.9230769230769,4,2,1,70,0,0
85496,-76.9230769230769,4,2,1,72,0,0
85658,-76.9230769230769,4,2,1,74,0,0
85820,-76.9230769230769,4,2,1,76,0,0
85982,-76.9230769230769,4,2,1,78,0,0
86145,-76.9230769230769,4,2,1,80,0,0
86307,-76.9230769230769,4,2,1,82,0,0
86469,-76.9230769230769,4,2,1,84,0,0
86631,-76.9230769230769,4,2,1,86,0,0
86793,-76.9230769230769,4,2,1,88,0,0
86955,-76.9230769230769,4,2,1,90,0,0
89388,-76.9230769230769,4,2,1,5,0,0

[Colours]
Combo1 : 0,128,0
Combo2 : 248,209,92
Combo3 : 191,191,0
Combo4 : 172,86,0

[HitObjects]
55,287,361,6,0,P|39:252|38:224,1,47.5,2|0,0:0|0:0,0:0:0:0:
106,154,685,1,2,0:0:0:0:
149,259,847,2,0,L|264:249,1,95,2|0,0:0|0:0,0:0:0:0:
357,267,1334,1,2,0:0:0:0:
287,356,1496,6,0,L|172:346,1,95,2|0,0:0|0:0,0:0:0:0:
80,373,1982,1,2,0:0:0:0:
80,373,2145,1,2,0:0:0:0:
271,177,4253,6,0,L|255:16,1,152,2|2,0:0|0:0,0:0:0:0:
399,83,4739,1,0,0:3:0:0:
320,232,4901,2,0,P|232:240|199:168,1,152,2|2,0:0|0:0,0:0:0:0:
326,88,5388,1,0,0:0:0:0:
406,228,5550,6,0,L|395:334,1,76,2|0,0:0|0:0,0:0:0:0:
250,265,5874,1,2,0:0:0:0:
367,157,6036,2,0,P|422:151|467:169,1,76,0|2,0:0|0:0,0:0:0:0:
326,265,6361,2,0,P|271:271|226:252,1,76,0|2,0:0|0:0,0:0:0:0:
104,180,6685,1,0,0:0:0:0:
43,316,6847,6,0,P|83:276|196:275,1,152,2|2,0:0|0:0,0:0:0:0:
319,340,7334,2,0,B|334:303|334:303|320:238,1,76,0|2,0:0|0:0,0:0:0:0:
182,195,7658,2,0,B|167:231|167:231|182:296,1,76,0|2,0:0|0:0,0:0:0:0:
304,178,7982,1,0,0:0:0:0:
220,115,8145,6,0,L|234:23,1,76,2|0,0:0|0:0,0:0:0:0:
390,150,8469,1,2,0:0:0:0:
271,255,8631,2,0,P|228:210|220:174,1,76,0|2,0:0|0:0,0:0:0:0:
232,40,8955,1,0,0:0:0:0:
304,178,9118,1,2,0:0:0:0:
144,169,9280,1,0,0:0:0:0:
216,311,9442,6,0,P|298:330|350:255,1,152,2|2,0:0|0:0,0:0:0:0:
336,105,9928,1,0,0:0:0:0:
201,224,10091,2,0,P|119:243|67:168,1,152,2|2,0:0|0:0,0:0:0:0:
85,34,10577,1,0,0:0:0:0:
219,153,10739,6,0,L|303:165,1,76,2|0,0:0|0:0,0:0:0:0:
432,82,11063,1,2,0:0:0:0:
281,18,11226,2,0,B|261:56|261:56|271:108,1,76,0|2,0:0|0:0,0:0:0:0:
373,219,11550,2,0,B|393:181|393:181|383:129,1,76,0|2,0:0|0:0,0:0:0:0:
243,253,11874,1,0,0:0:0:0:
349,321,12036,6,0,B|307:311|272:326|272:326|236:341|191:315,1,152,2|2,0:0|0:0,0:0:0:0:
104,234,12523,2,0,L|94:148,1,76,0|2,0:0|0:0,0:0:0:0:
252,177,12847,2,0,L|242:257,1,76,0|2,0:0|0:0,0:0:0:0:
84,348,13172,1,2,0:3:0:0:
84,348,13658,5,0,0:0:0:0:
188,279,13820,2,0,P|265:269|345:339,1,170.999994781494,2|0,0:0|0:0,0:0:0:0:
410,357,14145,1,0,1:0:0:0:
408,368,14226,1,0,1:0:0:0:
406,379,14307,1,0,1:0:0:0:
459,298,14469,5,0,1:0:0:0:
455,258,14550,1,0,1:0:0:0:
450,218,14631,2,0,B|466:71|466:71|382:125,1,209.000006378174,4|8,1:0|0:0,0:0:0:0:
251,206,15118,1,0,0:0:0:0:
251,206,15199,1,0,0:0:0:0:
251,206,15280,1,0,1:0:0:0:
92,119,15442,1,0,1:0:0:0:
246,25,15604,2,0,P|255:71|227:136,1,104.500003189087,8|0,0:0|0:0,0:0:0:0:
108,273,15928,6,0,B|213:228|207:326|318:262,1,209.000006378174,0|8,1:0|0:0,0:0:0:0:
416,130,16415,1,0,0:0:0:0:
251,206,16577,1,0,1:0:0:0:
416,281,16739,1,0,1:0:0:0:
338,114,16901,2,0,P|343:167|383:206,1,104.500003189087,8|0,0:0|0:0,0:0:0:0:
500,37,17226,6,0,B|451:54|419:23|419:23|384:39|384:39|330:12|281:45,1,209.000006378174,0|8,1:0|0:0,0:0:0:0:
219,201,17712,2,0,L|102:186,1,104.500003189087,0|0,0:0|1:0,0:0:0:0:
202,27,18036,1,0,1:0:0:0:
338,114,18199,2,0,L|323:230,1,104.500003189087,8|0,0:0|0:0,0:0:0:0:
168,358,18523,6,0,P|135:303|143:259,1,104.500003189087,0|0,1:0|0:0,0:0:0:0:
191,108,18847,2,0,P|224:163|216:207,1,104.500003189087,8|0,0:0|0:0,0:0:0:0:
55,219,19172,2,0,P|110:186|154:194,1,104.500003189087,0|0,1:0|0:0,0:0:0:0:
305,242,19496,2,0,P|250:275|206:267,1,104.500003189087,8|0,0:0|0:0,0:0:0:0:
309,163,19820,6,0,B|367:167|382:225|382:225|449:222|462:151,1,209.000006378174,0|8,1:0|0:0,0:0:0:0:
366,43,20307,1,0,0:0:0:0:
366,43,20388,1,0,0:0:0:0:
366,43,20469,1,0,1:0:0:0:
305,242,20631,1,0,1:0:0:0:
425,112,20793,2,0,L|304:117,1,104.500003189087,8|0,0:0|0:0,0:0:0:0:
226,238,21118,6,0,P|289:318|389:244,1,209.000006378174,0|8,1:0|0:0,0:0:0:0:
320,116,21604,1,0,0:0:0:0:
151,201,21766,1,0,1:0:0:0:
325,191,21928,1,0,1:0:0:0:
230,46,22091,2,0,L|109:51,1,104.500003189087,8|0,0:0|0:0,0:0:0:0:
75,226,22415,6,0,P|137:278|231:194,1,209.000006378174,0|8,1:0|0:0,0:0:0:0:
201,137,22901,1,0,0:0:0:0:
314,274,23063,1,0,1:0:0:0:
151,201,23226,1,0,1:0:0:0:
325,191,23388,2,0,L|433:184,1,104.500003189087,8|0,0:0|0:0,0:0:0:0:
396,44,23712,6,0,P|344:41|285:103,1,104.500003189087,0|0,1:0|0:0,0:0:0:0:
253,200,24036,2,0,B|271:303|271:303|311:341,1,156.750004783631,8|0,0:0|0:0,0:0:0:0:
335,269,24361,2,0,L|314:158,1,104.500003189087
188,98,24685,1,8,0:0:0:0:
59,165,24847,2,0,L|66:223,1,52.2500015945435
208,296,25009,1,4,0:0:0:0:
79,232,25172,5,0,0:0:0:0:
68,372,25334,1,0,0:0:0:0:
92,251,25496,1,0,0:0:0:0:
138,334,25658,5,2,0:0:0:0:
0,272,25820,1,0,0:0:0:0:
208,296,25982,5,0,0:0:0:0:
34,320,26145,1,0,0:0:0:0:
341,318,26469,5,0,0:0:0:0:
512,272,26631,1,0,0:0:0:0:
306,299,26793,1,0,0:0:0:0:
437,379,26955,5,0,1:0:0:0:
413,258,27118,1,0,0:0:0:0:
402,360,27280,5,0,0:0:0:0:
426,239,27442,1,0,0:0:0:0:
367,341,27604,5,0,0:0:0:0:
439,220,27766,1,0,0:0:0:0:
472,326,27928,5,0,0:0:0:0:
426,201,28091,1,0,0:0:0:0:
413,182,28415,5,0,0:0:0:0:
402,360,28577,1,0,0:0:0:0:
481,219,28739,6,0,L|306:205,1,142.500005435944
271,280,29226,5,0,0:0:0:0:
413,258,29388,1,0,0:0:0:0:
295,135,29550,6,0,B|261:165|257:206|257:206|169:242|99:175|99:175|166:198|206:163,1,341.999989562989,2|2,0:0|0:0,0:0:0:0:
99,15,30361,5,0,0:0:0:0:
108,142,30523,1,0,0:0:0:0:
133,34,30685,1,2,0:0:0:0:
25,125,30847,5,0,0:0:0:0:
183,100,31009,1,0,0:0:0:0:
50,87,31172,5,0,0:0:0:0:
208,112,31334,1,2,0:0:0:0:
487,125,31658,5,0,0:0:0:0:
329,100,31820,1,0,0:0:0:0:
462,87,31982,1,2,0:0:0:0:
381,170,32145,5,0,0:0:0:0:
389,27,32307,1,0,0:0:0:0:
409,191,32469,5,0,0:0:0:0:
401,48,32631,1,0,0:0:0:0:
496,187,32793,5,2,0:0:0:0:
308,175,32955,1,0,0:0:0:0:
471,149,33118,5,0,0:0:0:0:
283,187,33280,1,2,0:0:0:0:
258,199,33604,5,0,0:0:0:0:
415,208,33766,1,0,0:0:0:0:
339,119,33928,6,0,L|351:270,1,142.500005435944,2|0,0:0|1:0,0:0:0:0:
461,313,34415,6,0,B|412:352|354:305|354:305|302:267|239:303,1,237.5,4|0,0:0|0:0,0:0:0:0:
106,349,34901,1,0,3:0:0:0:
126,275,35063,1,0,3:0:0:0:
145,201,35226,2,0,L|152:253,1,47.5,0|0,3:0|3:0,3:0:0:0:
255,378,35388,5,4,0:0:0:0:
317,277,35550,5,0,0:0:0:0:
167,315,35712,1,0,0:0:0:0:
334,309,35874,1,0,0:0:0:0:
212,214,36036,5,8,0:0:0:0:
255,378,36199,1,0,0:0:0:0:
385,240,36361,5,0,0:0:0:0:
242,303,36523,1,0,0:0:0:0:
242,303,36847,5,0,0:0:0:0:
182,133,37009,1,0,0:0:0:0:
167,315,37171,1,0,0:0:0:0:
301,187,37333,5,8,0:0:0:0:
137,230,37496,1,0,0:0:0:0:
280,232,37658,5,0,0:0:0:0:
116,189,37821,1,0,0:0:0:0:
235,68,37982,6,0,L|431:57,1,190,2|0,0:0|0:0,0:0:0:0:
500,130,38469,1,0,0:0:0:0:
386,245,38631,1,8,0:0:0:0:
332,93,38793,1,0,0:0:0:0:
332,93,39118,6,0,B|383:112|433:85|433:85|408:121|432:187,1,190
496,224,39604,2,0,P|425:202|308:233,1,190,0|8,0:0|0:0,0:0:0:0:
213,329,40091,1,0,1:0:0:0:
213,329,40253,2,0,P|226:286|231:230,1,95,0|0,1:0|0:0,0:0:0:0:
137,169,40577,6,0,P|146:243|120:314,1,152,0|8,1:0|0:0,0:0:0:0:
67,112,41226,6,0,P|141:127|84:82,1,199.499993911743,4|8,0:0|0:0,0:0:0:0:
18,200,41874,6,0,L|210:183,1,190,0|0,1:0|0:0,0:0:0:0:
377,110,42523,6,0,B|327:157|266:127|266:127|306:173|274:231,1,228,8|0,0:0|0:0,0:0:0:0:
344,275,43172,6,0,P|365:151|309:39,1,256.499992172241,0|0,0:0|1:0,0:0:0:0:
154,109,43820,5,4,0:0:0:0:
154,109,43982,2,0,L|289:130,1,113.999996520996
155,242,44307,6,0,B|103:198|103:198|293:228,1,249.375002378225,4|0,0:0|0:0,0:0:0:0:
361,200,44631,2,0,B|364:245|364:245|331:317,1,83.1250007927418,4|0,0:0|0:0,0:0:0:0:
160,350,44793,5,6,0:0:0:0:
145,348,44874,1,0,0:0:0:0:
126,344,44955,1,0,0:0:0:0:
102,338,45036,1,0,0:0:0:0:
80,319,45118,1,2,0:0:0:0:
60,291,45199,1,0,0:0:0:0:
48,254,45280,1,0,0:0:0:0:
52,211,45361,1,0,0:0:0:0:
77,165,45442,1,2,0:0:0:0:
127,139,45523,1,0,0:0:0:0:
188,139,45604,1,0,0:0:0:0:
243,175,45685,1,0,0:0:0:0:
263,243,45766,6,0,B|378:268|378:268|481:199,1,227.999993041992,6|8,0:0|0:0,0:0:0:0:
289,105,46253,1,0,0:0:0:0:
289,105,46334,1,0,0:0:0:0:
289,105,46415,1,0,1:0:0:0:
401,292,46577,1,0,1:0:0:0:
507,101,46739,1,8,0:0:0:0:
483,313,46901,6,0,P|391:372|321:272,1,227.999993041992,0|0,1:0|0:0,0:0:0:0:
394,98,47388,1,8,0:0:0:0:
401,292,47550,1,0,0:0:0:0:
401,292,47631,1,0,0:0:0:0:
401,292,47712,1,0,1:0:0:0:
216,218,47874,1,0,1:0:0:0:
288,104,48036,2,0,L|295:223,1,113.999996520996,8|0,0:0|0:0,0:0:0:0:
113,336,48361,6,0,L|103:101,1,227.999993041992,0|8,1:0|0:0,0:0:0:0:
295,218,48847,1,0,0:0:0:0:
295,218,48928,1,0,0:0:0:0:
295,218,49009,1,0,1:0:0:0:
83,205,49172,1,0,1:0:0:0:
202,29,49334,1,8,0:0:0:0:
229,265,49496,6,0,P|309:296|358:173,1,227.999993041992,0|0,1:0|0:0,0:0:0:0:
189,145,49982,1,8,0:0:0:0:
368,38,50145,1,0,0:0:0:0:
368,38,50226,1,0,0:0:0:0:
368,38,50307,1,0,1:0:0:0:
295,218,50469,1,0,1:3:0:0:
175,64,50631,2,0,P|117:101|134:206,1,170.999994781494,8|0,0:0|0:0,0:0:0:0:
215,228,50955,6,0,B|131:209|47:270|47:270|113:273,1,227.999993041992,0|8,1:0|0:0,0:0:0:0:
295,218,51442,1,0,0:0:0:0:
295,218,51523,1,0,0:0:0:0:
295,218,51604,1,0,1:0:0:0:
175,64,51766,1,0,1:0:0:0:
21,184,51928,1,8,0:0:0:0:
209,139,52091,6,0,B|287:129|287:129|351:154|351:154|450:141,1,227.999993041992,0|0,1:0|0:0,0:0:0:0:
267,7,52577,1,8,0:0:0:0:
295,218,52739,1,0,0:0:0:0:
295,218,52820,1,0,0:0:0:0:
295,218,52901,2,0,P|370:268|430:203,1,170.999994781494,0|0,1:0|0:0,0:0:0:0:
430,143,53226,2,0,P|355:93|295:158,1,170.999994781494,8|0,1:2|0:0,0:0:0:0:
295,218,53550,6,0,B|240:256|240:256|36:212,1,227.999993041992,0|8,1:0|0:0,0:0:0:0:
18,38,54036,1,0,0:0:0:0:
18,38,54118,1,0,0:0:0:0:
18,38,54199,1,0,1:0:0:0:
203,64,54361,2,0,P|227:126|224:185,1,113.999996520996,0|8,1:0|0:0,0:0:0:0:
207,376,54685,6,0,B|182:242|182:242|224:266,1,185.249991519928,4|0,0:0|0:0,0:0:0:0:
328,229,55009,2,0,B|224:316|224:316|225:267,1,185.249991519928,4|0,0:0|0:0,0:0:0:0:
140,197,55334,2,0,B|268:243|268:243|224:266,1,185.249991519928,4|0,0:0|0:0,0:0:0:0:
308,310,55658,6,0,P|389:351|469:305,1,190,4|0,0:0|0:0,0:0:0:0:
468,305,56145,6,0,B|478:152|478:152|425:204,1,227.999993041992,4|8,0:0|0:0,0:0:0:0:
280,353,56631,1,0,0:0:0:0:
280,353,56712,1,0,0:0:0:0:
280,353,56793,1,0,1:0:0:0:
89,303,56955,2,0,P|76:231|92:175,1,113.999996520996,0|8,1:0|0:0,0:0:0:0:
260,138,57280,6,0,B|176:143|176:143|110:108|110:108|11:109,1,227.999993041992,0|0,1:0|0:0,0:0:0:0:
186,234,57766,2,0,L|300:225,1,113.999996520996,8|0,0:0|0:0,0:0:0:0:
300,225,58009,1,0,0:0:0:0:
300,225,58091,2,0,B|351:177|351:177|330:43,1,170.999994781494,0|0,1:0|0:0,0:0:0:0:
446,41,58415,2,0,B|402:5|402:5|423:139,1,170.999994781494,8|0,0:0|0:0,0:0:0:0:
490,183,58739,6,0,B|382:147|382:147|299:225,1,227.999993041992,0|8,1:0|0:0,0:0:0:0:
147,372,59226,1,0,0:0:0:0:
147,372,59307,1,0,0:0:0:0:
147,372,59388,1,0,1:0:0:0:
349,297,59550,1,0,1:0:0:0:
184,160,59712,1,8,0:0:0:0:
39,318,59874,6,0,B|-26:297|-26:297|176:273,1,227.999993041992,0|0,1:0|0:0,0:0:0:0:
301,158,60361,2,0,B|313:109|313:109|301:15,1,113.999996520996,8|0,0:0|0:0,0:0:0:0:
304,45,60604,1,0,0:0:0:0:
304,45,60685,2,0,L|124:31,1,170.999994781494,0|0,1:0|0:0,0:0:0:0:
13,145,61009,2,0,L|183:159,1,170.999994781494,8|0,0:0|0:0,0:0:0:0:
245,107,61334,6,0,B|292:180|292:180|247:325,1,227.999993041992,0|8,1:0|0:0,0:0:0:0:
39,318,61820,1,0,0:0:0:0:
39,318,61901,1,0,0:0:0:0:
39,318,61982,1,0,1:0:0:0:
183,159,62145,1,0,1:0:0:0:
342,303,62307,1,8,0:0:0:0:
456,193,62469,6,0,B|384:216|384:216|308:187|308:187|237:212,1,227.999993041992,0|0,1:0|0:0,0:0:0:0:
102,378,62955,2,0,L|91:257,1,113.999996520996,8|0,0:0|0:0,0:0:0:0:
91,264,63199,1,0,0:0:0:0:
91,264,63280,1,0,1:0:0:0:
201,84,63442,1,0,1:0:0:0:
301,269,63604,2,0,P|217:289|177:262,1,113.999996520996,8|0,0:0|0:0,0:0:0:0:
0,163,63928,6,0,B|101:158|101:158|173:181|173:181|322:170,1,285.000010871888,4|0,0:0|0:0,0:0:0:0:
410,350,64415,2,0,B|402:298|451:271|451:271|369:271|364:211,1,213.750008153916,4|0,0:0|0:0,0:0:0:0:
147,211,64739,2,0,B|143:271|61:271|61:271|110:298|101:350,1,213.750008153916,4|0,0:0|0:0,0:0:0:0:
256,351,65063,6,0,B|332:278|288:174|217:173|217:173|242:263,1,285.000010871888,4|0,0:0|0:0,0:0:0:0:
256,351,65550,1,2,0:0:0:0:
271,349,65631,1,0,0:0:0:0:
290,345,65712,1,0,0:0:0:0:
314,339,65793,1,0,0:0:0:0:
336,320,65875,1,2,0:0:0:0:
356,292,65956,1,0,0:0:0:0:
368,255,66037,1,0,0:0:0:0:
364,212,66118,1,0,0:0:0:0:
339,166,66199,1,2,0:0:0:0:
289,140,66280,1,0,0:0:0:0:
228,140,66361,1,0,0:0:0:0:
173,176,66442,1,0,0:0:0:0:
153,244,66523,6,0,P|56:243|58:111,1,227.999993041992,4|8,1:2|0:0,0:0:0:0:
241,56,67009,1,0,0:0:0:0:
241,56,67091,1,0,0:0:0:0:
241,56,67172,1,0,1:0:0:0:
316,260,67334,2,0,P|381:270|458:251,1,113.999996520996,0|8,1:0|0:0,0:0:0:0:
512,75,67658,6,0,B|397:55|397:55|287:125,1,227.999993041992,0|0,1:0|0:0,0:0:0:0:
168,280,68145,2,0,L|174:149,1,113.999996520996,8|0,0:0|0:0,0:0:0:0:
173,166,68388,1,0,0:0:0:0:
173,166,68469,1,0,1:0:0:0:
377,178,68631,1,0,1:0:0:0:
264,348,68793,2,0,L|270:217,1,113.999996520996,8|0,0:0|0:0,0:0:0:0:
427,98,69118,6,0,B|390:73|303:61|316:169|203:93,1,227.999993041992,0|8,1:0|0:0,0:0:0:0:
26,17,69604,1,0,0:0:0:0:
26,17,69685,1,0,0:0:0:0:
26,17,69766,1,0,1:0:0:0:
48,219,69928,1,0,1:0:0:0:
132,23,70091,1,8,0:0:0:0:
48,219,70253,6,0,B|84:194|171:182|159:290|272:214,1,227.999993041992,0|0,1:0|0:0,0:0:0:0:
308,18,70739,2,0,P|289:83|316:138,1,113.999996520996,8|0,0:0|0:0,0:0:0:0:
304,124,70982,1,0,0:0:0:0:
304,124,71063,1,0,1:0:0:0:
405,305,71226,1,0,1:0:0:0:
512,128,71388,2,0,P|433:112|379:194,1,170.999994781494,8|0,0:0|0:0,0:0:0:0:
458,189,71712,6,0,B|383:184|383:184|304:203|304:203|202:193,1,227.999993041992,0|8,1:0|0:0,0:0:0:0:
21,166,72199,1,0,0:0:0:0:
21,166,72280,1,0,0:0:0:0:
21,166,72361,1,0,1:0:0:0:
153,0,72523,2,0,P|172:65|145:120,1,113.999996520996,0|8,1:0|0:0,0:0:0:0:
17,260,72847,6,0,B|65:261|97:223|97:223|171:177|238:255,1,227.999993041992,0|0,1:0|0:0,0:0:0:0:
397,355,73334,2,0,L|267:356,1,113.999996520996,8|0,0:0|0:0,0:0:0:0:
283,355,73577,1,0,0:0:0:0:
283,355,73658,2,0,P|262:284|357:188,1,170.999994781494,0|0,1:0|0:0,0:0:0:0:
365,149,73982,2,0,P|313:203|182:168,1,170.999994781494,8|0,1:2|0:0,0:0:0:0:
141,172,74307,6,0,P|213:189|230:333,1,227.999993041992,0|8,1:1|0:0,0:0:0:0:
36,257,74793,1,0,0:0:0:0:
36,257,74874,1,0,0:0:0:0:
36,257,74955,1,0,1:0:0:0:
113,58,75118,2,0,L|239:68,1,113.999996520996,0|8,1:0|0:0,0:0:0:0:
469,30,75442,6,0,B|423:178|423:178|387:138,1,199.499993911743,4|0,0:0|0:0,0:0:0:0:
266,65,75766,2,0,B|417:30|417:30|400:82,1,199.499993911743,4|0,0:0|0:0,0:0:0:0:
398,224,76091,2,0,B|292:110|292:110|345:98,1,199.499993911743,4|0,0:0|0:0,0:0:0:0:
466,178,76415,6,0,L|454:361,1,170.999994781494,4|0,0:0|0:0,0:0:0:0:
459,356,76820,1,0,0:0:0:0:
465,365,76901,6,0,B|381:355|381:355|321:327|321:327|206:311,1,227.999993041992,4|8,1:2|0:0,0:0:0:0:
36,368,77388,1,0,0:0:0:0:
36,368,77469,1,0,0:0:0:0:
36,368,77550,1,0,1:0:0:0:
82,165,77712,2,0,P|110:232|106:279,1,113.999996520996,0|8,1:0|0:0,0:0:0:0:
13,68,78036,6,0,B|94:77|94:77|151:113|151:113|259:124,1,227.999993041992,0|0,1:0|0:0,0:0:0:0:
431,42,78523,2,0,L|312:74,1,113.999996520996,8|0,0:0|0:0,0:0:0:0:
320,71,78766,1,0,0:0:0:0:
320,71,78847,2,0,B|290:192|290:192|325:269,1,170.999994781494,0|0,1:0|0:0,0:0:0:0:
370,334,79172,2,0,B|400:213|400:213|365:136,1,170.999994781494,8|0,0:0|0:0,0:0:0:0:
229,121,79496,6,0,B|214:193|214:193|240:262|240:262|219:348,1,213.750008153916,4|0,0:0|0:0,0:0:0:0:
224,326,79820,1,8,0:0:0:0:
229,121,79982,2,0,B|154:118|104:75|104:75|147:115|153:144,1,213.750008153916,4|0,0:0|0:0,0:0:0:0:
271,232,80307,2,0,B|346:235|396:278|396:278|353:238|347:209,1,213.750008153916,4|0,0:0|0:0,0:0:0:0:
156,247,80631,6,0,B|214:258|270:232|270:232|239:251|226:277,1,170.999994781494,4|0,0:0|0:0,0:0:0:0:
205,288,80955,2,0,L|165:282,3,37.9999988403321
310,303,81280,1,0,3:0:0:0:
415,318,81442,1,0,3:0:0:0:
310,333,81604,1,0,3:0:0:0:
295,228,81766,1,0,3:0:0:0:
400,213,81928,1,0,3:0:0:0:
156,247,82091,5,4,2:0:0:0:
296,346,82253,1,0,2:0:0:0:
312,173,82415,1,0,2:0:0:0:
197,336,82577,1,0,2:0:0:0:
355,264,82739,1,0,2:0:0:0:
211,163,82901,1,0,2:0:0:0:
99,327,83063,1,0,2:0:0:0:
255,255,83226,1,0,2:0:0:0:
113,154,83388,5,0,2:0:0:0:
197,336,83550,1,0,2:0:0:0:
312,173,83712,1,0,2:0:0:0:
156,247,83874,1,0,2:0:0:0:
354,263,84036,1,0,2:0:0:0:
271,84,84198,1,0,2:0:0:0:
255,255,84361,1,0,2:0:0:0:
369,90,84523,1,0,2:0:0:0:
170,74,84685,5,0,2:0:0:0:
255,255,84847,1,0,2:0:0:0:
271,84,85009,1,0,2:0:0:0:
156,246,85172,1,0,2:0:0:0:
312,173,85334,1,0,2:0:0:0:
113,154,85496,1,0,2:0:0:0:
197,336,85658,1,0,2:0:0:0:
355,264,85820,1,0,2:0:0:0:
211,163,85982,5,0,2:0:0:0:
295,346,86145,1,0,2:0:0:0:
369,90,86307,1,0,2:0:0:0:
111,153,86469,1,0,2:0:0:0:
405,239,86631,1,0,2:0:0:0:
221,47,86793,1,0,2:0:0:0:
146,302,86955,1,0,2:0:0:0:
458,155,87118,1,0,0:0:0:0:
458,155,87199,1,0,0:0:0:0:
458,155,87280,5,4,2:0:0:0:
256,192,87442,12,0,89388,0:0:0:0:
