osu file format v14

[General]
AudioFilename: audio.mp3
AudioLeadIn: 0
PreviewTime: -1
Countdown: 1
SampleSet: Normal
StackLeniency: 0.7
Mode: 0
LetterboxInBreaks: 0
WidescreenStoryboard: 0

[Editor]
DistanceSpacing: 1
BeatDivisor: 4
GridSize: 8
TimelineZoom: 2.3

[Metadata]
Title:Let It Roll
TitleUnicode:Let It Roll
Artist:Rido & Counterstrike
ArtistUnicode:Rido & Counterstrike
Creator:TheSoku16
Version:dick
Source:
Tags:
BeatmapID:1438661
BeatmapSetID:680393

[Difficulty]
HPDrainRate:7
CircleSize:4.2
OverallDifficulty:8.6
ApproachRate:9.1
SliderMultiplier:1.4
SliderTickRate:1

[Events]
//Background and Video events
//Break Periods
//Storyboard Layer 0 (Background)
//Storyboard Layer 1 (Fail)
//Storyboard Layer 2 (Pass)
//Storyboard Layer 3 (Foreground)
//Storyboard Sound Samples

[TimingPoints]
23952.1017838972,348.837209302326,4,1,0,100,1,0
43486,-133.333333333333,4,1,0,100,0,0
63719,-100,4,1,0,100,0,0
64417,-133.333333333333,4,1,0,100,0,0
67207,-50,4,1,0,100,0,0
67731,-100,4,1,0,100,0,0
69649,-200,4,1,0,100,0,0
69998,-50,4,1,0,100,0,0
70521,-100,4,1,0,100,0,0
72789,-50,4,1,0,100,0,0
73138,-100,4,1,0,100,0,0
75928,-50,4,1,0,100,0,0
78370,-50,4,1,0,100,0,0
78719,-100,4,1,0,100,0,0
81161,-50,4,1,0,100,0,0
81510,-100,4,1,0,100,0,0
83952,-50,4,1,0,100,0,0
84300,-100,4,1,0,100,0,0
87091,-50,4,1,0,100,0,0
88661,-100,4,1,0,100,0,0
89533,-50,4,1,0,100,0,0
90231,-100,4,1,0,100,0,0
90405,-50,4,1,0,100,0,0
91626,500,4,1,0,100,1,0
91626,-66.6666666666667,4,1,0,100,0,0
92376,-50,4,1,0,100,0,0

[HitObjects]
112,96,43835,6,0,L|80:48,1,52.5000020027161
216,88,44184,2,0,L|216:32,1,52.5000020027161
304,112,44533,2,0,L|336:56,1,52.5000020027161
400,256,44882,1,0,0:0:0:0:
240,336,45231,5,0,0:0:0:0:
320,256,45405,2,0,L|384:232,1,52.5000020027161
208,224,45754,1,0,0:0:0:0:
336,160,45928,1,0,0:0:0:0:
176,48,46277,6,0,P|144:64|128:80,2,52.5
328,64,46800,1,0,0:0:0:0:
328,64,46975,2,0,P|368:88|384:112,1,52.5000020027161
368,240,47324,1,0,0:0:0:0:
168,296,47673,6,0,P|128:312|96:312,2,52.5000020027161
352,208,48196,1,0,0:0:0:0:
352,208,48370,2,0,P|392:192|424:192,2,52.5000020027161
136,144,49068,6,0,P|104:144|64:152,2,52.5000020027161
336,96,49591,1,0,0:0:0:0:
336,96,49766,2,0,P|368:88|408:96,1,52.5000020027161
184,176,50114,2,0,P|144:176|120:184,1,52.5000020027161
272,328,50463,2,0,P|312:328|344:336,1,52.5000020027161
393,197,50812,1,0,0:0:0:0:
392,184,50899,1,0,0:0:0:0:
392,171,50986,1,0,0:0:0:0:
392,159,51073,1,0,0:0:0:0:
392,146,51160,1,0,0:0:0:0:
216,64,51335,5,0,0:0:0:0:
216,64,51510,2,0,P|168:64|152:72,1,52.5000020027161
88,192,51859,2,0,P|48:200|24:216,2,52.5000020027161
216,304,52382,1,0,0:0:0:0:
216,304,52556,2,0,P|240:328|264:336,1,52.5000020027161
160,168,52905,1,0,0:0:0:0:
368,312,53254,6,0,P|328:328|304:328,2,52.5000020027161
384,176,53777,1,0,0:0:0:0:
384,176,53952,2,0,P|424:168|448:176,1,52.5000020027161
264,312,54300,1,0,0:0:0:0:
320,64,54649,2,0,P|368:60|392:68,1,52.5000020027161
160,96,54998,1,0,0:0:0:0:
160,96,55173,1,0,0:0:0:0:
368,168,55347,2,0,P|408:168|440:184,1,52.5000020027161
128,208,55696,2,0,P|84:212|64:220,1,52.5000020027161
352,280,56045,2,0,P|400:284|420:296,1,52.5000020027161
128,308,56393,5,0,0:0:0:0:
288,256,56568,1,0,0:0:0:0:
288,256,56655,1,0,0:0:0:0:
288,256,56742,1,0,0:0:0:0:
128,160,56917,1,0,0:0:0:0:
368,208,57091,1,0,0:0:0:0:
380,193,57178,1,0,0:0:0:0:
389,176,57265,1,0,0:0:0:0:
393,157,57352,1,0,0:0:0:0:
393,137,57439,1,0,0:0:0:0:
264,64,57614,5,0,0:0:0:0:
108,72,57789,2,0,P|104:120|116:144,3,52.5000020027161
136,264,58486,1,0,0:0:0:0:
244,156,58661,1,0,0:0:0:0:
244,136,58748,1,0,0:0:0:0:
244,104,58835,1,0,0:0:0:0:
412,72,59010,1,0,0:0:0:0:
392,208,59184,5,0,0:0:0:0:
389,234,59271,1,0,0:0:0:0:
379,258,59358,1,0,0:0:0:0:
363,278,59445,1,0,0:0:0:0:
341,293,59532,1,0,0:0:0:0:
132,208,59707,5,0,0:0:0:0:
200,296,59882,1,0,0:0:0:0:
240,176,60056,1,0,0:0:0:0:
116,304,60231,1,0,0:0:0:0:
176,112,60405,5,0,0:0:0:0:
272,304,60580,5,0,0:0:0:0:
272,304,60667,1,0,0:0:0:0:
272,304,60754,1,0,0:0:0:0:
104,156,60928,1,0,0:0:0:0:
312,168,61102,1,0,0:0:0:0:
96,272,61277,1,0,0:0:0:0:
232,80,61451,1,0,0:0:0:0:
208,332,61626,1,0,0:0:0:0:
332,172,61800,1,0,0:0:0:0:
120,120,61975,5,0,0:0:0:0:
120,120,62062,1,0,0:0:0:0:
120,120,62149,1,0,0:0:0:0:
252,224,62324,1,0,0:0:0:0:
252,224,62498,1,0,0:0:0:0:
368,120,62673,5,0,0:0:0:0:
368,120,62760,1,0,0:0:0:0:
368,120,62847,1,0,0:0:0:0:
252,284,63021,1,0,0:0:0:0:
252,284,63196,1,0,0:0:0:0:
160,56,63370,5,0,0:0:0:0:
168,60,63457,1,0,0:0:0:0:
168,60,63545,1,0,0:0:0:0:
320,196,63719,2,0,L|344:212,4,17.5
120,188,64068,2,0,L|104:200,4,17.5
220,300,64417,5,0,0:0:0:0:
244,310,64504,1,0,0:0:0:0:
269,316,64591,1,0,0:0:0:0:
295,318,64678,1,0,0:0:0:0:
321,317,64765,1,0,0:0:0:0:
348,315,64853,1,0,0:0:0:0:
380,288,64940,5,0,0:0:0:0:
380,260,65027,1,0,0:0:0:0:
380,235,65114,1,0,0:0:0:0:
380,209,65201,1,0,0:0:0:0:
380,183,65288,1,0,0:0:0:0:
380,156,65376,1,0,0:0:0:0:
380,130,65463,1,0,0:0:0:0:
96,64,65812,5,0,0:0:0:0:
252,140,67207,6,0,B|300:152|316:192|312:240|264:260|216:252|192:208|192:156|256:144,1,280
320,96,67731,6,0,L|352:48,1,35
240,240,67905,2,0,L|272:192,1,35
384,208,68080,2,0,L|416:160,1,35
304,352,68254,2,0,L|336:304,1,35
339,66,68428,6,0,L|307:114,1,35
259,210,68603,2,0,L|227:258,1,35
403,178,68777,2,0,L|371:226,1,35
323,322,68952,2,0,L|291:370,1,35
176,288,69126,6,0,L|128:304,1,35
144,160,69300,2,0,L|96:160,1,35
176,48,69475,1,0,0:0:0:0:
176,48,69562,1,0,0:0:0:0:
176,48,69649,2,0,L|144:16,1,35
336,160,69998,6,0,B|348:112|388:96|436:100|456:148|448:196|404:220|352:220|340:156,1,280
96,96,70521,6,0,L|48:96,1,35
256,288,70696,2,0,L|304:288,1,35
256,96,70870,2,0,L|256:48,1,35
96,288,71045,2,0,L|96:352,1,35
96,96,71219,6,0,L|48:96,1,35
256,288,71394,2,0,L|304:288,1,35
256,96,71568,2,0,L|256:48,1,35
96,288,71743,2,0,L|96:352,1,35
96,96,71917,6,0,L|48:96,1,35
256,288,72092,2,0,L|304:288,1,35
256,96,72266,2,0,L|256:48,1,35
384,160,72440,1,0,0:0:0:0:
390,185,72527,1,0,0:0:0:0:
396,210,72614,1,0,0:0:0:0:
403,236,72701,1,0,0:0:0:0:
407,257,72789,6,0,B|455:269|471:309|467:357|419:377|371:369|347:325|347:273|411:261,1,280
128,320,73312,6,0,L|64:320,1,35
352,256,73486,2,0,L|416:256,1,35
128,192,73661,2,6,L|64:192,1,35
352,128,73835,2,0,L|416:128,1,35
128,64,74010,2,0,L|64:64,1,35
352,32,74184,6,0,L|288:32,1,35
128,96,74359,2,0,L|192:96,1,35
352,160,74533,2,0,L|288:160,1,35
128,224,74707,2,0,L|192:224,1,35
352,288,74882,2,0,L|288:288,1,35
128,352,75056,2,0,L|192:352,1,35
352,352,75231,5,0,0:0:0:0:
384,352,75318,1,0,0:0:0:0:
416,352,75405,1,0,0:0:0:0:
416,320,75492,1,0,0:0:0:0:
416,288,75580,1,0,0:0:0:0:
32,96,75928,6,0,B|40:184|96:184|128:64|200:56|224:160,1,280
352,224,76452,6,0,L|392:304,2,70
352,192,76713,1,0,0:0:0:0:
352,160,76800,1,0,0:0:0:0:
352,128,76888,1,0,0:0:0:0:
352,96,76975,1,0,0:0:0:0:
96,128,77149,1,0,0:0:0:0:
96,160,77236,1,0,0:0:0:0:
96,192,77324,1,0,0:0:0:0:
160,320,77498,1,0,0:0:0:0:
256,192,77673,1,0,0:0:0:0:
256,160,77760,1,0,0:0:0:0:
256,128,77847,1,0,0:0:0:0:
416,256,78021,5,0,0:0:0:0:
416,64,78196,5,0,0:0:0:0:
224,160,78370,6,0,B|212:208|172:224|124:220|104:172|112:124|156:100|208:100|220:164,1,280
160,288,78893,6,0,L|192:256,1,35
256,64,79068,2,0,L|256:128,1,35
352,288,79242,2,0,L|320:256,1,35
128,128,79417,2,0,L|160:160,1,35
384,128,79591,2,0,L|352:160,1,35
160,288,79766,6,0,L|128:320,1,35
256,64,79941,2,0,L|256:0,1,35
352,288,80115,2,0,L|384:320,1,35
128,128,80290,2,0,L|96:96,1,35
384,128,80464,2,0,L|416:96,1,35
160,288,80638,6,0,L|192:256,1,35
256,64,80812,1,0,0:0:0:0:
282,41,80899,1,0,0:0:0:0:
315,32,80986,1,0,0:0:0:0:
350,37,81073,1,0,0:0:0:0:
382,59,81161,2,0,B|430:71|446:111|442:159|394:179|346:171|322:127|322:75|386:63,1,280
246,238,81684,6,0,L|271:273,1,35
163,193,81859,2,0,L|111:205,1,35
244,150,82033,2,0,L|274:105,1,35
243,307,82207,6,0,L|231:253,1,35
107,146,82382,2,0,L|167:171,1,35
314,158,82556,2,0,L|257:187,1,35
128,268,82731,6,0,L|91:298,1,35
209,83,82905,2,0,L|208:36,1,35
288,254,83080,2,0,L|321:288,1,35
109,135,83254,2,0,L|72:114,1,35
267,49,83428,2,0,L|268:10,1,35
399,124,83603,1,0,0:0:0:0:
398,158,83690,1,0,0:0:0:0:
391,192,83777,1,0,0:0:0:0:
375,224,83864,1,0,0:0:0:0:
352,256,83952,6,0,B|340:304|300:320|252:316|232:268|240:220|284:196|336:196|348:260,1,280
95,194,84475,6,0,L|53:204,1,35
288,130,84649,2,0,L|345:137,1,35
94,98,84824,2,0,L|59:73,1,35
286,258,84998,2,0,L|312:301,1,35
192,68,85173,6,0,L|192:29,1,35
190,292,85347,2,0,L|169:336,1,35
286,99,85521,2,0,L|323:70,1,35
96,258,85696,2,0,L|36:278,1,35
315,195,85870,6,0,L|364:199,1,35
65,161,86045,2,0,L|18:142,1,35
218,289,86219,2,0,L|215:336,1,35
224,64,86393,2,0,L|175:56,1,35
368,208,86568,5,0,0:0:0:0:
368,208,86655,1,0,0:0:0:0:
368,208,86742,1,0,0:0:0:0:
88,104,87091,6,0,B|112:48|120:40|128:32|136:24|144:32|152:40|160:48|168:56|176:64|184:72|184:112|184:144|184:152|184:160|200:176|232:176|240:152|200:64,2,280
114,250,87963,1,0,0:0:0:0:
256,320,88138,1,0,0:0:0:0:
256,320,88225,1,0,0:0:0:0:
256,320,88312,2,0,B|331:320|350:303|351:273|292:243,1,140
149,160,88661,2,0,L|116:129,1,35
236,77,88835,2,0,L|218:28,1,35
359,76,89010,2,0,L|378:25,1,35
400,172,89184,5,0,0:0:0:0:
399,215,89271,1,0,0:0:0:0:
393,258,89358,1,0,0:0:0:0:
365,290,89445,1,0,0:0:0:0:
331,310,89533,6,0,P|243:339|193:321,1,140
115,185,89882,2,0,B|141:138|154:115|166:93|167:91|168:89|170:87|171:86|171:85|172:87|173:88|173:90|173:90|173:92|173:95|174:98|175:101|175:103|175:105|177:112|177:113|177:118|180:127|182:137|189:184|170:242,1,210
159,253,90231,2,0,L|98:247,1,35
115,185,90405,2,0,B|141:138|154:115|166:93|167:91|168:89|170:87|171:86|171:85|172:87|173:88|173:90|173:90|173:92|173:95|174:98|175:101|175:103|175:105|177:112|177:113|177:118|180:127|182:137|189:184|175:254,1,280
304,288,90928,2,0,P|368:288|352:208,1,140
272,144,91190,1,0,0:0:0:0:
272,144,91277,2,0,P|304:80|384:96,1,140
432,192,91626,2,0,L|464:256,1,52.5000020027161
368,304,91876,2,0,L|336:240,1,52.5000020027161
208,240,92126,5,0,0:0:0:0:
208,240,92251,1,0,0:0:0:0:
208,240,92376,2,0,P|147:217|152:136,1,140
