osu file format v14

[General]
AudioFilename: audio.mp3
AudioLeadIn: 0
PreviewTime: 47524
Countdown: 1
SampleSet: Normal
StackLeniency: 0.7
Mode: 1
LetterboxInBreaks: 0
WidescreenStoryboard: 0

[Editor]
Bookmarks: 3909,18678,26063,33447,40832,48217
DistanceSpacing: 1.1
BeatDivisor: 8
GridSize: 32
TimelineZoom: 2.1

[Metadata]
Title:THE END IS NIGH - Retro Turkish March (Mozart 1783)
TitleUnicode:THE END IS NIGH - Retro Turkish March (Mozart 1783)
Artist:Ridiculon
ArtistUnicode:Ridiculon
Creator:ghm12
Version:Inner Oni
Source:The End Is Nigh
Tags:wolfgang amadeus rondo alla turca 8bit
BeatmapID:1361877
BeatmapSetID:642393

[Difficulty]
HPDrainRate:6
CircleSize:2
OverallDifficulty:6
ApproachRate:5
SliderMultiplier:1.4
SliderTickRate:1

[Events]
//Background and Video events
0,0,"bg.jpg",0,-100
//Break Periods
//Storyboard Layer 0 (Background)
//Storyboard Layer 1 (Fail)
//Storyboard Layer 2 (Pass)
//Storyboard Layer 3 (Foreground)
//Storyboard Sound Samples

[TimingPoints]
217,461.538461538462,4,1,0,50,1,0
48217,-100,4,1,0,50,0,1
62986,-100,4,1,0,50,0,0
107293,-100,4,1,0,50,0,1
121140,-100,4,1,0,50,0,0

[HitObjects]
256,192,217,5,0,0:0:0:0:
256,192,447,1,8,0:0:0:0:
256,192,678,1,8,0:0:0:0:
256,192,909,1,8,0:0:0:0:
256,192,1024,1,8,0:0:0:0:
256,192,1140,1,0,0:0:0:0:
256,192,1370,1,8,0:0:0:0:
256,192,1601,1,8,0:0:0:0:
256,192,1832,1,8,0:0:0:0:
256,192,1947,1,8,0:0:0:0:
256,192,2063,1,0,0:0:0:0:
256,192,2293,1,8,0:0:0:0:
256,192,2524,1,8,0:0:0:0:
256,192,2755,1,8,0:0:0:0:
256,192,2870,1,8,0:0:0:0:
256,192,2986,1,0,0:0:0:0:
256,192,3217,1,8,0:0:0:0:
256,192,3447,1,8,0:0:0:0:
256,192,3563,1,8,0:0:0:0:
256,192,3678,1,0,0:0:0:0:
256,192,3793,1,0,0:0:0:0:
256,192,3909,1,8,0:0:0:0:
256,192,4140,1,0,0:0:0:0:
256,192,4370,1,8,0:0:0:0:
256,192,4486,1,8,0:0:0:0:
256,192,4601,1,0,0:0:0:0:
256,192,4717,1,0,0:0:0:0:
256,192,4832,1,8,0:0:0:0:
256,192,5063,1,0,0:0:0:0:
256,192,5293,1,8,0:0:0:0:
256,192,5409,1,8,0:0:0:0:
256,192,5524,1,0,0:0:0:0:
256,192,5640,1,0,0:0:0:0:
256,192,5755,1,8,0:0:0:0:
256,192,5870,1,8,0:0:0:0:
256,192,5986,1,8,0:0:0:0:
256,192,6101,1,0,0:0:0:0:
256,192,6217,1,8,0:0:0:0:
256,192,6332,1,8,0:0:0:0:
256,192,6447,1,0,0:0:0:0:
256,192,6563,1,0,0:0:0:0:
256,192,6678,1,8,0:0:0:0:
256,192,7140,1,0,0:0:0:0:
256,192,7370,1,8,0:0:0:0:
256,192,7543,1,0,0:0:0:0:
256,192,7601,1,8,0:0:0:0:
256,192,7832,1,8,0:0:0:0:
256,192,8063,1,0,0:0:0:0:
256,192,8293,1,8,0:0:0:0:
256,192,8467,1,0,0:0:0:0:
256,192,8524,1,8,0:0:0:0:
256,192,8755,1,8,0:0:0:0:
256,192,8986,1,0,0:0:0:0:
256,192,9217,1,8,0:0:0:0:
256,192,9390,1,0,0:0:0:0:
256,192,9447,1,8,0:0:0:0:
256,192,9678,1,0,0:0:0:0:
256,192,9909,1,8,0:0:0:0:
256,192,10140,1,8,0:0:0:0:
256,192,10370,1,0,0:0:0:0:
256,192,10601,1,8,0:0:0:0:
256,192,10832,1,8,0:0:0:0:
256,192,10947,1,8,0:0:0:0:
256,192,11063,1,0,0:0:0:0:
256,192,11178,1,0,0:0:0:0:
256,192,11293,1,8,0:0:0:0:
256,192,11524,1,0,0:0:0:0:
256,192,11755,1,8,0:0:0:0:
256,192,11870,1,8,0:0:0:0:
256,192,11986,1,0,0:0:0:0:
256,192,12101,1,0,0:0:0:0:
256,192,12217,1,8,0:0:0:0:
256,192,12447,1,0,0:0:0:0:
256,192,12678,1,8,0:0:0:0:
256,192,12793,1,8,0:0:0:0:
256,192,12909,1,0,0:0:0:0:
256,192,13024,1,0,0:0:0:0:
256,192,13140,1,8,0:0:0:0:
256,192,13255,1,8,0:0:0:0:
256,192,13370,1,8,0:0:0:0:
256,192,13486,1,0,0:0:0:0:
256,192,13601,1,8,0:0:0:0:
256,192,13717,1,8,0:0:0:0:
256,192,13832,1,0,0:0:0:0:
256,192,13947,1,0,0:0:0:0:
256,192,14063,1,8,0:0:0:0:
256,192,14524,1,0,0:0:0:0:
256,192,14755,1,8,0:0:0:0:
256,192,14928,1,0,0:0:0:0:
256,192,14986,1,8,0:0:0:0:
256,192,15217,1,8,0:0:0:0:
256,192,15447,1,0,0:0:0:0:
256,192,15678,1,8,0:0:0:0:
256,192,15851,1,0,0:0:0:0:
256,192,15909,1,8,0:0:0:0:
256,192,16140,1,8,0:0:0:0:
256,192,16370,1,0,0:0:0:0:
256,192,16601,1,8,0:0:0:0:
256,192,16774,1,0,0:0:0:0:
256,192,16832,1,8,0:0:0:0:
256,192,17063,1,0,0:0:0:0:
256,192,17293,1,8,0:0:0:0:
256,192,17524,1,8,0:0:0:0:
256,192,17755,1,0,0:0:0:0:
256,192,18217,1,0,0:0:0:0:
256,192,18447,1,8,0:0:0:0:
256,192,18678,1,8,0:0:0:0:
256,192,18909,1,0,0:0:0:0:
256,192,19140,1,8,0:0:0:0:
256,192,19255,1,0,0:0:0:0:
256,192,19370,1,8,0:0:0:0:
256,192,19486,1,8,0:0:0:0:
256,192,19601,1,0,0:0:0:0:
256,192,20063,1,8,0:0:0:0:
256,192,20293,1,0,0:0:0:0:
256,192,20524,1,8,0:0:0:0:
256,192,20755,1,0,0:0:0:0:
256,192,20986,1,8,0:0:0:0:
256,192,21101,1,0,0:0:0:0:
256,192,21217,1,8,0:0:0:0:
256,192,21332,1,8,0:0:0:0:
256,192,21447,1,0,0:0:0:0:
256,192,21678,1,8,0:0:0:0:
256,192,21793,1,8,0:0:0:0:
256,192,21909,1,0,0:0:0:0:
256,192,22140,1,0,0:0:0:0:
256,192,22370,1,8,0:0:0:0:
256,192,22601,1,8,0:0:0:0:
256,192,22832,1,0,0:0:0:0:
256,192,22947,1,0,0:0:0:0:
256,192,23063,1,8,0:0:0:0:
256,192,23178,1,8,0:0:0:0:
256,192,23293,1,0,0:0:0:0:
256,192,23755,1,8,0:0:0:0:
256,192,23986,1,0,0:0:0:0:
256,192,24217,1,8,0:0:0:0:
256,192,24447,1,8,0:0:0:0:
256,192,24678,1,0,0:0:0:0:
256,192,24793,1,0,0:0:0:0:
256,192,24909,1,8,0:0:0:0:
256,192,25024,1,8,0:0:0:0:
256,192,25140,1,0,0:0:0:0:
256,192,25370,1,0,0:0:0:0:
256,192,25601,1,8,0:0:0:0:
256,192,25717,1,8,0:0:0:0:
256,192,25832,1,0,0:0:0:0:
256,192,25947,1,0,0:0:0:0:
256,192,26063,1,8,0:0:0:0:
256,192,26293,1,0,0:0:0:0:
256,192,26524,1,8,0:0:0:0:
256,192,26640,1,8,0:0:0:0:
256,192,26755,1,0,0:0:0:0:
256,192,26870,1,0,0:0:0:0:
256,192,26986,1,8,0:0:0:0:
256,192,27217,1,0,0:0:0:0:
256,192,27447,1,8,0:0:0:0:
256,192,27563,1,8,0:0:0:0:
256,192,27678,1,0,0:0:0:0:
256,192,27793,1,0,0:0:0:0:
256,192,27909,1,8,0:0:0:0:
256,192,28024,1,8,0:0:0:0:
256,192,28140,1,8,0:0:0:0:
256,192,28255,1,0,0:0:0:0:
256,192,28370,1,8,0:0:0:0:
256,192,28486,1,8,0:0:0:0:
256,192,28601,1,0,0:0:0:0:
256,192,28717,1,0,0:0:0:0:
256,192,28832,1,8,0:0:0:0:
256,192,29293,1,0,0:0:0:0:
256,192,29524,1,8,0:0:0:0:
256,192,29755,1,8,0:0:0:0:
256,192,29986,1,0,0:0:0:0:
256,192,30217,1,8,0:0:0:0:
256,192,30447,1,0,0:0:0:0:
256,192,30678,1,8,0:0:0:0:
256,192,30909,1,8,0:0:0:0:
256,192,31140,1,0,0:0:0:0:
256,192,31370,1,8,0:0:0:0:
256,192,31601,1,0,0:0:0:0:
256,192,32063,1,8,0:0:0:0:
256,192,32120,1,0,0:0:0:0:
256,192,32178,1,8,0:0:0:0:
256,192,32236,1,0,0:0:0:0:
256,192,32293,1,8,0:0:0:0:
256,192,32351,1,0,0:0:0:0:
256,192,32409,1,8,0:0:0:0:
256,192,32467,1,0,0:0:0:0:
256,192,32524,1,8,0:0:0:0:
256,192,32755,1,0,0:0:0:0:
256,192,32986,1,8,0:0:0:0:
256,192,33101,1,8,0:0:0:0:
256,192,33217,1,0,0:0:0:0:
256,192,33447,1,8,0:0:0:0:
256,192,33678,1,0,0:0:0:0:
256,192,33909,1,8,0:0:0:0:
256,192,34024,1,0,0:0:0:0:
256,192,34140,1,8,0:0:0:0:
256,192,34255,1,8,0:0:0:0:
256,192,34370,1,0,0:0:0:0:
256,192,34601,1,0,0:0:0:0:
256,192,34717,1,0,0:0:0:0:
256,192,34832,1,8,0:0:0:0:
256,192,35063,1,0,0:0:0:0:
256,192,35293,1,8,0:0:0:0:
256,192,35524,1,0,0:0:0:0:
256,192,35755,1,8,0:0:0:0:
256,192,35870,1,0,0:0:0:0:
256,192,35986,1,8,0:0:0:0:
256,192,36101,1,8,0:0:0:0:
256,192,36217,1,0,0:0:0:0:
256,192,36447,1,0,0:0:0:0:
256,192,36678,1,8,0:0:0:0:
256,192,36793,1,8,0:0:0:0:
256,192,36909,1,0,0:0:0:0:
256,192,37140,1,8,0:0:0:0:
256,192,37370,1,8,0:0:0:0:
256,192,37601,1,0,0:0:0:0:
256,192,37717,1,0,0:0:0:0:
256,192,37832,1,8,0:0:0:0:
256,192,37947,1,8,0:0:0:0:
256,192,38063,1,0,0:0:0:0:
256,192,38293,1,0,0:0:0:0:
256,192,38524,1,8,0:0:0:0:
256,192,38640,1,8,0:0:0:0:
256,192,38755,1,0,0:0:0:0:
256,192,38986,1,8,0:0:0:0:
256,192,39217,1,8,0:0:0:0:
256,192,39447,1,0,0:0:0:0:
256,192,39563,1,0,0:0:0:0:
256,192,39678,1,8,0:0:0:0:
256,192,39793,1,8,0:0:0:0:
256,192,39909,1,0,0:0:0:0:
256,192,40140,1,0,0:0:0:0:
256,192,40370,1,8,0:0:0:0:
256,192,40486,1,8,0:0:0:0:
256,192,40601,1,0,0:0:0:0:
256,192,40717,1,0,0:0:0:0:
256,192,40832,1,8,0:0:0:0:
256,192,41063,1,0,0:0:0:0:
256,192,41293,1,8,0:0:0:0:
256,192,41409,1,8,0:0:0:0:
256,192,41524,1,0,0:0:0:0:
256,192,41640,1,0,0:0:0:0:
256,192,41755,1,8,0:0:0:0:
256,192,41986,1,0,0:0:0:0:
256,192,42217,1,8,0:0:0:0:
256,192,42332,1,8,0:0:0:0:
256,192,42447,1,0,0:0:0:0:
256,192,42563,1,0,0:0:0:0:
256,192,42678,1,8,0:0:0:0:
256,192,42793,1,8,0:0:0:0:
256,192,42909,1,8,0:0:0:0:
256,192,43024,1,0,0:0:0:0:
256,192,43140,1,8,0:0:0:0:
256,192,43255,1,8,0:0:0:0:
256,192,43370,1,0,0:0:0:0:
256,192,43486,1,0,0:0:0:0:
256,192,43601,1,8,0:0:0:0:
256,192,44063,1,0,0:0:0:0:
256,192,44293,1,8,0:0:0:0:
256,192,44524,1,8,0:0:0:0:
256,192,44755,1,0,0:0:0:0:
256,192,44986,1,8,0:0:0:0:
256,192,45217,1,0,0:0:0:0:
256,192,45447,1,8,0:0:0:0:
256,192,45678,1,8,0:0:0:0:
256,192,45909,1,0,0:0:0:0:
256,192,46140,1,8,0:0:0:0:
256,192,46370,1,0,0:0:0:0:
256,192,46601,1,0,0:0:0:0:
256,192,46832,1,8,0:0:0:0:
256,192,46890,1,0,0:0:0:0:
256,192,46947,1,8,0:0:0:0:
256,192,47005,1,0,0:0:0:0:
256,192,47063,1,8,0:0:0:0:
256,192,47120,1,0,0:0:0:0:
256,192,47178,1,8,0:0:0:0:
256,192,47236,1,0,0:0:0:0:
256,192,47293,1,8,0:0:0:0:
256,192,47524,1,0,0:0:0:0:
256,192,47755,1,8,0:0:0:0:
256,192,47870,1,8,0:0:0:0:
256,192,47986,1,0,0:0:0:0:
256,192,48101,1,0,0:0:0:0:
256,192,48217,1,8,0:0:0:0:
256,192,48447,1,0,0:0:0:0:
256,192,48678,1,8,0:0:0:0:
256,192,48793,1,8,0:0:0:0:
256,192,48909,1,0,0:0:0:0:
256,192,49024,1,0,0:0:0:0:
256,192,49140,1,8,0:0:0:0:
256,192,49370,1,0,0:0:0:0:
256,192,49601,1,8,0:0:0:0:
256,192,49832,1,8,0:0:0:0:
256,192,49947,1,8,0:0:0:0:
256,192,50063,1,0,0:0:0:0:
256,192,50293,1,8,0:0:0:0:
256,192,50409,1,0,0:0:0:0:
256,192,50524,1,8,0:0:0:0:
256,192,50755,1,0,0:0:0:0:
256,192,50870,1,0,0:0:0:0:
256,192,50986,1,8,0:0:0:0:
256,192,51217,1,0,0:0:0:0:
256,192,51447,1,8,0:0:0:0:
256,192,51678,1,8,0:0:0:0:
256,192,51793,1,8,0:0:0:0:
256,192,51909,1,0,0:0:0:0:
256,192,52140,1,0,0:0:0:0:
256,192,52370,1,8,0:0:0:0:
256,192,52601,1,8,0:0:0:0:
256,192,52717,1,8,0:0:0:0:
256,192,52832,1,0,0:0:0:0:
256,192,53063,1,8,0:0:0:0:
256,192,53293,1,8,0:0:0:0:
256,192,53524,1,8,0:0:0:0:
256,192,53640,1,8,0:0:0:0:
256,192,53755,1,0,0:0:0:0:
256,192,53986,1,8,0:0:0:0:
256,192,54101,1,0,0:0:0:0:
256,192,54217,1,8,0:0:0:0:
256,192,54447,1,0,0:0:0:0:
256,192,54678,1,8,0:0:0:0:
256,192,54909,1,0,0:0:0:0:
256,192,55024,1,8,0:0:0:0:
256,192,55140,1,8,0:0:0:0:
256,192,55255,1,0,0:0:0:0:
256,192,55370,1,8,0:0:0:0:
256,192,55486,1,8,0:0:0:0:
256,192,55601,1,0,0:0:0:0:
256,192,55832,1,0,0:0:0:0:
256,192,56063,1,8,0:0:0:0:
256,192,56178,1,8,0:0:0:0:
256,192,56293,1,0,0:0:0:0:
256,192,56409,1,0,0:0:0:0:
256,192,56524,1,8,0:0:0:0:
256,192,56755,1,0,0:0:0:0:
256,192,56986,1,8,0:0:0:0:
256,192,57217,1,8,0:0:0:0:
256,192,57332,1,8,0:0:0:0:
256,192,57447,1,0,0:0:0:0:
256,192,57678,1,8,0:0:0:0:
256,192,57793,1,0,0:0:0:0:
256,192,57909,1,8,0:0:0:0:
256,192,58140,1,0,0:0:0:0:
256,192,58255,1,0,0:0:0:0:
256,192,58370,1,8,0:0:0:0:
256,192,58601,1,0,0:0:0:0:
256,192,58832,1,8,0:0:0:0:
256,192,59063,1,8,0:0:0:0:
256,192,59178,1,8,0:0:0:0:
256,192,59293,1,0,0:0:0:0:
256,192,59524,1,0,0:0:0:0:
256,192,59755,1,8,0:0:0:0:
256,192,59986,1,8,0:0:0:0:
256,192,60101,1,8,0:0:0:0:
256,192,60217,1,0,0:0:0:0:
256,192,60447,1,8,0:0:0:0:
256,192,60563,1,0,0:0:0:0:
256,192,60678,1,8,0:0:0:0:
256,192,60909,1,8,0:0:0:0:
256,192,61024,1,8,0:0:0:0:
256,192,61140,1,0,0:0:0:0:
256,192,61370,1,8,0:0:0:0:
256,192,61486,1,0,0:0:0:0:
256,192,61601,1,8,0:0:0:0:
256,192,61832,1,0,0:0:0:0:
256,192,61947,1,0,0:0:0:0:
256,192,62063,1,8,0:0:0:0:
256,192,62293,1,8,0:0:0:0:
256,192,62524,1,8,0:0:0:0:
256,192,62640,1,0,0:0:0:0:
256,192,62755,1,8,0:0:0:0:
256,192,62870,1,8,0:0:0:0:
256,192,62986,1,0,0:0:0:0:
256,192,63102,1,8,0:0:0:0:
256,192,63217,1,8,0:0:0:0:
256,192,63332,1,0,0:0:0:0:
256,192,63448,1,8,0:0:0:0:
256,192,63562,1,0,0:0:0:0:
256,192,63677,1,8,0:0:0:0:
256,192,63793,1,8,0:0:0:0:
256,192,63909,1,0,0:0:0:0:
256,192,64024,1,0,0:0:0:0:
256,192,64139,1,8,0:0:0:0:
256,192,64255,1,0,0:0:0:0:
256,192,64370,1,8,0:0:0:0:
256,192,64485,1,8,0:0:0:0:
256,192,64600,1,8,0:0:0:0:
256,192,64716,1,0,0:0:0:0:
256,192,64832,1,8,0:0:0:0:
256,192,64947,1,0,0:0:0:0:
256,192,65062,1,8,0:0:0:0:
256,192,65178,1,8,0:0:0:0:
256,192,65293,1,8,0:0:0:0:
256,192,65408,1,0,0:0:0:0:
256,192,65523,1,8,0:0:0:0:
256,192,65639,1,0,0:0:0:0:
256,192,65755,1,8,0:0:0:0:
256,192,65870,1,0,0:0:0:0:
256,192,65986,1,8,0:0:0:0:
256,192,66101,1,8,0:0:0:0:
256,192,66217,1,8,0:0:0:0:
256,192,66332,1,0,0:0:0:0:
256,192,66447,1,8,0:0:0:0:
256,192,66563,1,8,0:0:0:0:
256,192,66678,1,0,0:0:0:0:
256,192,66793,1,8,0:0:0:0:
256,192,66908,1,8,0:0:0:0:
256,192,67024,1,0,0:0:0:0:
256,192,67140,1,8,0:0:0:0:
256,192,67255,1,0,0:0:0:0:
256,192,67370,1,8,0:0:0:0:
256,192,67486,1,8,0:0:0:0:
256,192,67601,1,0,0:0:0:0:
256,192,67716,1,8,0:0:0:0:
256,192,67831,1,8,0:0:0:0:
256,192,67947,1,0,0:0:0:0:
256,192,68063,1,8,0:0:0:0:
256,192,68178,1,0,0:0:0:0:
256,192,68293,1,8,0:0:0:0:
256,192,68409,1,8,0:0:0:0:
256,192,68524,1,0,0:0:0:0:
256,192,68639,1,0,0:0:0:0:
256,192,68754,1,8,0:0:0:0:
256,192,68870,1,0,0:0:0:0:
256,192,68986,1,8,0:0:0:0:
256,192,69101,1,8,0:0:0:0:
256,192,69216,1,0,0:0:0:0:
256,192,69332,1,0,0:0:0:0:
256,192,69447,1,8,0:0:0:0:
256,192,69678,1,0,0:0:0:0:
256,192,69909,1,8,0:0:0:0:
256,192,70024,1,0,0:0:0:0:
256,192,70139,1,8,0:0:0:0:
256,192,70255,1,8,0:0:0:0:
256,192,70370,1,0,0:0:0:0:
256,192,70485,1,8,0:0:0:0:
256,192,70600,1,8,0:0:0:0:
256,192,70716,1,0,0:0:0:0:
256,192,70832,1,8,0:0:0:0:
256,192,70947,1,0,0:0:0:0:
256,192,71062,1,8,0:0:0:0:
256,192,71178,1,8,0:0:0:0:
256,192,71293,1,0,0:0:0:0:
256,192,71408,1,0,0:0:0:0:
256,192,71523,1,8,0:0:0:0:
256,192,71639,1,0,0:0:0:0:
256,192,71755,1,8,0:0:0:0:
256,192,71870,1,8,0:0:0:0:
256,192,71985,1,8,0:0:0:0:
256,192,72101,1,0,0:0:0:0:
256,192,72217,1,8,0:0:0:0:
256,192,72332,1,0,0:0:0:0:
256,192,72447,1,8,0:0:0:0:
256,192,72563,1,8,0:0:0:0:
256,192,72678,1,8,0:0:0:0:
256,192,72793,1,0,0:0:0:0:
256,192,72908,1,8,0:0:0:0:
256,192,73024,1,0,0:0:0:0:
256,192,73140,1,8,0:0:0:0:
256,192,73255,1,0,0:0:0:0:
256,192,73370,1,8,0:0:0:0:
256,192,73486,1,8,0:0:0:0:
256,192,73601,1,8,0:0:0:0:
256,192,73716,1,0,0:0:0:0:
256,192,73831,1,8,0:0:0:0:
256,192,73947,1,8,0:0:0:0:
256,192,74063,1,0,0:0:0:0:
256,192,74178,1,8,0:0:0:0:
256,192,74293,1,8,0:0:0:0:
256,192,74409,1,0,0:0:0:0:
256,192,74524,1,8,0:0:0:0:
256,192,74639,1,0,0:0:0:0:
256,192,74754,1,8,0:0:0:0:
256,192,74870,1,8,0:0:0:0:
256,192,74986,1,0,0:0:0:0:
256,192,75101,1,8,0:0:0:0:
256,192,75216,1,8,0:0:0:0:
256,192,75332,1,0,0:0:0:0:
256,192,75447,1,8,0:0:0:0:
256,192,75562,1,0,0:0:0:0:
256,192,75677,1,8,0:0:0:0:
256,192,75793,1,8,0:0:0:0:
256,192,75909,1,0,0:0:0:0:
256,192,76024,1,0,0:0:0:0:
256,192,76139,1,8,0:0:0:0:
256,192,76255,1,0,0:0:0:0:
256,192,76370,1,8,0:0:0:0:
256,192,76485,1,8,0:0:0:0:
256,192,76600,1,0,0:0:0:0:
256,192,76716,1,0,0:0:0:0:
256,192,76832,1,8,0:0:0:0:
256,192,77063,1,0,0:0:0:0:
256,192,77293,1,8,0:0:0:0:
256,192,77408,1,0,0:0:0:0:
256,192,77523,1,8,0:0:0:0:
256,192,77639,1,8,0:0:0:0:
256,192,77755,1,0,0:0:0:0:
256,192,77870,1,8,0:0:0:0:
256,192,77985,1,8,0:0:0:0:
256,192,78101,1,0,0:0:0:0:
256,192,78217,1,8,0:0:0:0:
256,192,78332,1,0,0:0:0:0:
256,192,78447,1,8,0:0:0:0:
256,192,78563,1,8,0:0:0:0:
256,192,78678,1,8,0:0:0:0:
256,192,78793,1,0,0:0:0:0:
256,192,78908,1,8,0:0:0:0:
256,192,79024,1,0,0:0:0:0:
256,192,79140,1,8,0:0:0:0:
256,192,79255,1,8,0:0:0:0:
256,192,79370,1,0,0:0:0:0:
256,192,79486,1,8,0:0:0:0:
256,192,79601,1,0,0:0:0:0:
256,192,79716,1,8,0:0:0:0:
256,192,79832,1,8,0:0:0:0:
256,192,79947,1,0,0:0:0:0:
256,192,80063,1,8,0:0:0:0:
256,192,80178,1,0,0:0:0:0:
256,192,80293,1,8,0:0:0:0:
256,192,80409,1,8,0:0:0:0:
256,192,80524,1,8,0:0:0:0:
256,192,80639,1,0,0:0:0:0:
256,192,80754,1,8,0:0:0:0:
256,192,80870,1,0,0:0:0:0:
256,192,80986,1,8,0:0:0:0:
256,192,81101,1,0,0:0:0:0:
256,192,81216,1,8,0:0:0:0:
256,192,81332,1,8,0:0:0:0:
256,192,81447,1,0,0:0:0:0:
256,192,81562,1,8,0:0:0:0:
256,192,81677,1,8,0:0:0:0:
256,192,81793,1,0,0:0:0:0:
256,192,81909,1,8,0:0:0:0:
256,192,82024,1,0,0:0:0:0:
256,192,82139,1,8,0:0:0:0:
256,192,82255,1,8,0:0:0:0:
256,192,82370,1,8,0:0:0:0:
256,192,82485,1,0,0:0:0:0:
256,192,82600,1,8,0:0:0:0:
256,192,82716,1,0,0:0:0:0:
256,192,82832,1,8,0:0:0:0:
256,192,82947,1,8,0:0:0:0:
256,192,83062,1,0,0:0:0:0:
256,192,83178,1,0,0:0:0:0:
256,192,83293,1,8,0:0:0:0:
256,192,83408,1,8,0:0:0:0:
256,192,83523,1,0,0:0:0:0:
256,192,83639,1,8,0:0:0:0:
256,192,83755,1,0,0:0:0:0:
256,192,83870,1,8,0:0:0:0:
256,192,83985,1,0,0:0:0:0:
256,192,84101,1,0,0:0:0:0:
256,192,84217,1,8,0:0:0:0:
256,192,84332,1,8,0:0:0:0:
256,192,84447,1,8,0:0:0:0:
256,192,84563,1,0,0:0:0:0:
256,192,84678,1,8,0:0:0:0:
256,192,84793,1,0,0:0:0:0:
256,192,84908,1,8,0:0:0:0:
256,192,85024,1,8,0:0:0:0:
256,192,85140,1,0,0:0:0:0:
256,192,85255,1,8,0:0:0:0:
256,192,85370,1,8,0:0:0:0:
256,192,85486,1,0,0:0:0:0:
256,192,85601,1,8,0:0:0:0:
256,192,85716,1,0,0:0:0:0:
256,192,85831,1,8,0:0:0:0:
256,192,85947,1,8,0:0:0:0:
256,192,86063,1,8,0:0:0:0:
256,192,86178,1,0,0:0:0:0:
256,192,86293,1,8,0:0:0:0:
256,192,86409,1,8,0:0:0:0:
256,192,86524,1,0,0:0:0:0:
256,192,86639,1,8,0:0:0:0:
256,192,86754,1,8,0:0:0:0:
256,192,86870,1,0,0:0:0:0:
256,192,86986,1,8,0:0:0:0:
256,192,87101,1,0,0:0:0:0:
256,192,87216,1,8,0:0:0:0:
256,192,87332,1,8,0:0:0:0:
256,192,87447,1,8,0:0:0:0:
256,192,87562,1,0,0:0:0:0:
256,192,87677,1,8,0:0:0:0:
256,192,87793,1,0,0:0:0:0:
256,192,87909,1,8,0:0:0:0:
256,192,88024,1,0,0:0:0:0:
256,192,88139,1,8,0:0:0:0:
256,192,88255,1,8,0:0:0:0:
256,192,88370,1,8,0:0:0:0:
256,192,88485,1,0,0:0:0:0:
256,192,88600,1,8,0:0:0:0:
256,192,88716,1,0,0:0:0:0:
256,192,88832,1,8,0:0:0:0:
256,192,88947,1,0,0:0:0:0:
256,192,89062,1,8,0:0:0:0:
256,192,89178,1,0,0:0:0:0:
256,192,89293,1,8,0:0:0:0:
256,192,89408,1,0,0:0:0:0:
256,192,89523,1,8,0:0:0:0:
256,192,89639,1,0,0:0:0:0:
256,192,89755,1,8,0:0:0:0:
256,192,89870,1,0,0:0:0:0:
256,192,89985,1,8,0:0:0:0:
256,192,90101,1,8,0:0:0:0:
256,192,90217,1,0,0:0:0:0:
256,192,90332,1,0,0:0:0:0:
256,192,90447,1,8,0:0:0:0:
256,192,90563,1,0,0:0:0:0:
256,192,90678,1,8,0:0:0:0:
256,192,90793,1,8,0:0:0:0:
256,192,90908,1,8,0:0:0:0:
256,192,91024,1,0,0:0:0:0:
256,192,91140,1,8,0:0:0:0:
256,192,91255,1,8,0:0:0:0:
256,192,91370,1,0,0:0:0:0:
256,192,91486,1,0,0:0:0:0:
256,192,91601,1,8,0:0:0:0:
256,192,91832,1,8,0:0:0:0:
256,192,91947,1,0,0:0:0:0:
256,192,92063,1,8,0:0:0:0:
256,192,92178,1,0,0:0:0:0:
256,192,92293,1,8,0:0:0:0:
256,192,92409,1,8,0:0:0:0:
256,192,92525,1,0,0:0:0:0:
256,192,92640,1,8,0:0:0:0:
256,192,92755,1,8,0:0:0:0:
256,192,92871,1,0,0:0:0:0:
256,192,92987,1,8,0:0:0:0:
256,192,93102,1,0,0:0:0:0:
256,192,93217,1,8,0:0:0:0:
256,192,93333,1,8,0:0:0:0:
256,192,93448,1,8,0:0:0:0:
256,192,93563,1,0,0:0:0:0:
256,192,93678,1,8,0:0:0:0:
256,192,93794,1,0,0:0:0:0:
256,192,93910,1,8,0:0:0:0:
256,192,94025,1,8,0:0:0:0:
256,192,94140,1,0,0:0:0:0:
256,192,94256,1,8,0:0:0:0:
256,192,94371,1,0,0:0:0:0:
256,192,94486,1,8,0:0:0:0:
256,192,94602,1,8,0:0:0:0:
256,192,94717,1,0,0:0:0:0:
256,192,94833,1,8,0:0:0:0:
256,192,94948,1,0,0:0:0:0:
256,192,95063,1,8,0:0:0:0:
256,192,95179,1,8,0:0:0:0:
256,192,95294,1,8,0:0:0:0:
256,192,95409,1,0,0:0:0:0:
256,192,95524,1,8,0:0:0:0:
256,192,95640,1,0,0:0:0:0:
256,192,95756,1,8,0:0:0:0:
256,192,95871,1,0,0:0:0:0:
256,192,95986,1,8,0:0:0:0:
256,192,96102,1,8,0:0:0:0:
256,192,96217,1,0,0:0:0:0:
256,192,96332,1,8,0:0:0:0:
256,192,96447,1,8,0:0:0:0:
256,192,96563,1,0,0:0:0:0:
256,192,96679,1,8,0:0:0:0:
256,192,96794,1,0,0:0:0:0:
256,192,96909,1,8,0:0:0:0:
256,192,97025,1,8,0:0:0:0:
256,192,97140,1,8,0:0:0:0:
256,192,97255,1,0,0:0:0:0:
256,192,97370,1,8,0:0:0:0:
256,192,97486,1,0,0:0:0:0:
256,192,97602,1,8,0:0:0:0:
256,192,97717,1,8,0:0:0:0:
256,192,97832,1,0,0:0:0:0:
256,192,97948,1,0,0:0:0:0:
256,192,98063,1,8,0:0:0:0:
256,192,98178,1,8,0:0:0:0:
256,192,98293,1,0,0:0:0:0:
256,192,98409,1,8,0:0:0:0:
256,192,98525,1,0,0:0:0:0:
256,192,98640,1,8,0:0:0:0:
256,192,98755,1,0,0:0:0:0:
256,192,98871,1,0,0:0:0:0:
256,192,98987,1,8,0:0:0:0:
256,192,99102,1,8,0:0:0:0:
256,192,99217,1,8,0:0:0:0:
256,192,99333,1,0,0:0:0:0:
256,192,99448,1,8,0:0:0:0:
256,192,99563,1,0,0:0:0:0:
256,192,99678,1,8,0:0:0:0:
256,192,99794,1,8,0:0:0:0:
256,192,99910,1,0,0:0:0:0:
256,192,100025,1,8,0:0:0:0:
256,192,100140,1,8,0:0:0:0:
256,192,100256,1,0,0:0:0:0:
256,192,100371,1,8,0:0:0:0:
256,192,100486,1,0,0:0:0:0:
256,192,100601,1,8,0:0:0:0:
256,192,100717,1,8,0:0:0:0:
256,192,100833,1,8,0:0:0:0:
256,192,100948,1,0,0:0:0:0:
256,192,101063,1,8,0:0:0:0:
256,192,101179,1,8,0:0:0:0:
256,192,101294,1,0,0:0:0:0:
256,192,101409,1,8,0:0:0:0:
256,192,101524,1,8,0:0:0:0:
256,192,101640,1,0,0:0:0:0:
256,192,101756,1,8,0:0:0:0:
256,192,101871,1,0,0:0:0:0:
256,192,101986,1,8,0:0:0:0:
256,192,102102,1,8,0:0:0:0:
256,192,102217,1,8,0:0:0:0:
256,192,102332,1,0,0:0:0:0:
256,192,102447,1,8,0:0:0:0:
256,192,102563,1,0,0:0:0:0:
256,192,102679,1,8,0:0:0:0:
256,192,102794,1,0,0:0:0:0:
256,192,102909,1,8,0:0:0:0:
256,192,103025,1,8,0:0:0:0:
256,192,103140,1,8,0:0:0:0:
256,192,103255,1,0,0:0:0:0:
256,192,103370,1,8,0:0:0:0:
256,192,103486,1,0,0:0:0:0:
256,192,103602,1,8,0:0:0:0:
256,192,103717,1,0,0:0:0:0:
256,192,103832,1,8,0:0:0:0:
256,192,103948,1,0,0:0:0:0:
256,192,104063,1,8,0:0:0:0:
256,192,104178,1,0,0:0:0:0:
256,192,104293,1,8,0:0:0:0:
256,192,104409,1,0,0:0:0:0:
256,192,104525,1,8,0:0:0:0:
256,192,104640,1,0,0:0:0:0:
256,192,104755,1,8,0:0:0:0:
256,192,104871,1,8,0:0:0:0:
256,192,104987,1,0,0:0:0:0:
256,192,105102,1,0,0:0:0:0:
256,192,105217,1,8,0:0:0:0:
256,192,105333,1,0,0:0:0:0:
256,192,105448,1,8,0:0:0:0:
256,192,105563,1,8,0:0:0:0:
256,192,105678,1,8,0:0:0:0:
256,192,105794,1,0,0:0:0:0:
256,192,105910,1,8,0:0:0:0:
256,192,106025,1,8,0:0:0:0:
256,192,106140,1,0,0:0:0:0:
256,192,106256,1,0,0:0:0:0:
256,192,106371,1,8,0:0:0:0:
256,192,106601,1,0,0:0:0:0:
256,192,106832,1,8,0:0:0:0:
256,192,107063,1,8,0:0:0:0:
256,192,107178,1,8,0:0:0:0:
256,192,107293,1,0,0:0:0:0:
256,192,107755,1,8,0:0:0:0:
256,192,107986,1,8,0:0:0:0:
256,192,108101,1,8,0:0:0:0:
256,192,108217,1,0,0:0:0:0:
256,192,108447,1,0,0:0:0:0:
256,192,108678,1,8,0:0:0:0:
256,192,108793,1,0,0:0:0:0:
256,192,108909,1,8,0:0:0:0:
256,192,109024,1,8,0:0:0:0:
256,192,109140,1,0,0:0:0:0:
256,192,109370,1,8,0:0:0:0:
256,192,109486,1,8,0:0:0:0:
256,192,109601,1,0,0:0:0:0:
256,192,109832,1,8,0:0:0:0:
256,192,109947,1,8,0:0:0:0:
256,192,110063,1,0,0:0:0:0:
256,192,110293,1,8,0:0:0:0:
256,192,110524,1,8,0:0:0:0:
256,192,110640,1,0,0:0:0:0:
256,192,110755,1,8,0:0:0:0:
256,192,110870,1,8,0:0:0:0:
256,192,110986,1,0,0:0:0:0:
256,192,111447,1,8,0:0:0:0:
256,192,111678,1,8,0:0:0:0:
256,192,111793,1,8,0:0:0:0:
256,192,111909,1,0,0:0:0:0:
256,192,112140,1,0,0:0:0:0:
256,192,112370,1,8,0:0:0:0:
256,192,112486,1,0,0:0:0:0:
256,192,112601,1,8,0:0:0:0:
256,192,112717,1,8,0:0:0:0:
256,192,112832,1,0,0:0:0:0:
256,192,113063,1,8,0:0:0:0:
256,192,113178,1,8,0:0:0:0:
256,192,113293,1,0,0:0:0:0:
256,192,113524,1,8,0:0:0:0:
256,192,113755,1,0,0:0:0:0:
256,192,113986,1,8,0:0:0:0:
256,192,114101,1,0,0:0:0:0:
256,192,114217,1,8,0:0:0:0:
256,192,114447,1,8,0:0:0:0:
256,192,114563,1,8,0:0:0:0:
256,192,114678,1,0,0:0:0:0:
256,192,115140,1,8,0:0:0:0:
256,192,115370,1,8,0:0:0:0:
256,192,115486,1,8,0:0:0:0:
256,192,115601,1,0,0:0:0:0:
256,192,115832,1,0,0:0:0:0:
256,192,116063,1,8,0:0:0:0:
256,192,116178,1,0,0:0:0:0:
256,192,116293,1,8,0:0:0:0:
256,192,116409,1,8,0:0:0:0:
256,192,116524,1,0,0:0:0:0:
256,192,116755,1,8,0:0:0:0:
256,192,116870,1,8,0:0:0:0:
256,192,116986,1,0,0:0:0:0:
256,192,117217,1,8,0:0:0:0:
256,192,117332,1,8,0:0:0:0:
256,192,117447,1,0,0:0:0:0:
256,192,117678,1,8,0:0:0:0:
256,192,117909,1,8,0:0:0:0:
256,192,118140,1,8,0:0:0:0:
256,192,118255,1,8,0:0:0:0:
256,192,118370,1,0,0:0:0:0:
256,192,118601,1,0,0:0:0:0:
256,192,118832,1,8,0:0:0:0:
256,192,119063,1,8,0:0:0:0:
256,192,119178,1,8,0:0:0:0:
256,192,119293,1,0,0:0:0:0:
256,192,119524,1,0,0:0:0:0:
256,192,119755,1,8,0:0:0:0:
256,192,119986,1,8,0:0:0:0:
256,192,120101,1,8,0:0:0:0:
256,192,120217,1,0,0:0:0:0:
256,192,120447,1,8,0:0:0:0:
256,192,120563,1,0,0:0:0:0:
256,192,120678,1,8,0:0:0:0:
256,192,120909,1,0,0:0:0:0:
256,192,121140,1,8,0:0:0:0:
