osu file format v14

[General]
AudioFilename: audio.mp3
AudioLeadIn: 0
PreviewTime: 67269
Countdown: 0
SampleSet: Normal
StackLeniency: 0.7
Mode: 3
LetterboxInBreaks: 0
SpecialStyle: 0
WidescreenStoryboard: 1

[Editor]
Bookmarks: 11076
DistanceSpacing: 1.8
BeatDivisor: 4
GridSize: 16
TimelineZoom: 1

[Metadata]
Title:Genesis 13:37 (Retro Beats)
TitleUnicode:Genesis 13:37 (Retro Beats)
Artist:Ridiculon
ArtistUnicode:Ridiculon
Creator:- Ly0572 -
Version:Normal
Source:
Tags:
BeatmapID:1738122
BeatmapSetID:829618

[Difficulty]
HPDrainRate:5
CircleSize:5
OverallDifficulty:5
ApproachRate:5
SliderMultiplier:1.4
SliderTickRate:1

[Events]
//Background and Video events
0,0,"BOI BG hd.jpg",0,0
//Break Periods
//Storyboard Layer 0 (Background)
//Storyboard Layer 1 (Fail)
//Storyboard Layer 2 (Pass)
//Storyboard Layer 3 (Foreground)
//Storyboard Sound Samples

[TimingPoints]
0,461.538461538462,4,1,0,0,1,0

[HitObjects]
460,192,0,5,0,0:0:0:0:
51,192,0,1,0,0:0:0:0:
358,192,230,1,0,0:0:0:0:
256,192,461,1,0,0:0:0:0:
51,192,461,1,0,0:0:0:0:
460,192,692,1,0,0:0:0:0:
358,192,923,1,0,0:0:0:0:
153,192,923,1,0,0:0:0:0:
460,192,1153,1,0,0:0:0:0:
256,192,1153,1,0,0:0:0:0:
51,192,1384,1,0,0:0:0:0:
358,192,1384,1,0,0:0:0:0:
460,192,1615,1,0,0:0:0:0:
460,192,1846,1,0,0:0:0:0:
256,192,1846,1,0,0:0:0:0:
460,192,2076,1,0,0:0:0:0:
256,192,2307,1,0,0:0:0:0:
51,192,2307,1,0,0:0:0:0:
460,192,2538,1,0,0:0:0:0:
460,192,2769,1,0,0:0:0:0:
358,192,2769,1,0,0:0:0:0:
460,192,3000,1,0,0:0:0:0:
256,192,3000,1,0,0:0:0:0:
256,192,3230,1,0,0:0:0:0:
51,192,3230,1,0,0:0:0:0:
460,192,3461,1,0,0:0:0:0:
460,192,3692,1,0,0:0:0:0:
358,192,3692,1,0,0:0:0:0:
460,192,3923,1,0,0:0:0:0:
256,192,4153,1,0,0:0:0:0:
51,192,4153,1,0,0:0:0:0:
460,192,4384,1,0,0:0:0:0:
460,192,4615,1,0,0:0:0:0:
358,192,4615,1,0,0:0:0:0:
460,192,4846,1,0,0:0:0:0:
358,192,4846,1,0,0:0:0:0:
256,192,5076,1,0,0:0:0:0:
51,192,5076,1,0,0:0:0:0:
460,192,5307,1,0,0:0:0:0:
460,192,5538,1,0,0:0:0:0:
358,192,5538,1,0,0:0:0:0:
460,192,5769,1,0,0:0:0:0:
51,192,6000,1,0,0:0:0:0:
256,192,6000,1,0,0:0:0:0:
460,192,6230,1,0,0:0:0:0:
460,192,6461,1,0,0:0:0:0:
460,192,6692,1,0,0:0:0:0:
51,192,6923,1,0,0:0:0:0:
256,192,6923,1,0,0:0:0:0:
460,192,7153,1,0,0:0:0:0:
460,192,7384,1,0,0:0:0:0:
460,192,7615,1,0,0:0:0:0:
51,192,7846,1,0,0:0:0:0:
256,192,7846,1,0,0:0:0:0:
460,192,8076,1,0,0:0:0:0:
460,192,8307,1,0,0:0:0:0:
460,192,8538,1,0,0:0:0:0:
51,192,8769,1,0,0:0:0:0:
256,192,8769,1,0,0:0:0:0:
460,192,9000,1,0,0:0:0:0:
460,192,9230,1,0,0:0:0:0:
460,192,9461,1,0,0:0:0:0:
51,192,9692,1,0,0:0:0:0:
256,192,9692,1,0,0:0:0:0:
460,192,9923,1,0,0:0:0:0:
460,192,10153,1,0,0:0:0:0:
460,192,10384,1,0,0:0:0:0:
51,192,10615,1,0,0:0:0:0:
256,192,10615,1,0,0:0:0:0:
460,192,10846,1,0,0:0:0:0:
460,192,11076,1,0,0:0:0:0:
460,192,11307,1,0,0:0:0:0:
256,192,11538,1,0,0:0:0:0:
51,192,11538,1,0,0:0:0:0:
460,192,11769,1,0,0:0:0:0:
460,192,12000,1,0,0:0:0:0:
460,192,12230,1,0,0:0:0:0:
256,192,12461,1,0,0:0:0:0:
51,192,12461,1,0,0:0:0:0:
460,192,12692,1,0,0:0:0:0:
460,192,12923,1,0,0:0:0:0:
460,192,13153,1,0,0:0:0:0:
256,192,13384,1,0,0:0:0:0:
51,192,13384,1,0,0:0:0:0:
460,192,13615,1,0,0:0:0:0:
460,192,13846,1,0,0:0:0:0:
460,192,14076,1,0,0:0:0:0:
256,192,14307,1,0,0:0:0:0:
51,192,14307,1,0,0:0:0:0:
460,192,14538,1,0,0:0:0:0:
460,192,14769,1,0,0:0:0:0:
460,192,15000,1,0,0:0:0:0:
256,192,15230,1,0,0:0:0:0:
51,192,15230,1,0,0:0:0:0:
460,192,15461,1,0,0:0:0:0:
460,192,15692,128,0,16384:0:0:0:0:
256,192,15923,1,0,0:0:0:0:
153,192,15923,1,0,0:0:0:0:
51,192,16153,1,0,0:0:0:0:
153,192,16153,1,0,0:0:0:0:
256,192,16615,128,0,19153:0:0:0:0:
153,192,16615,1,0,0:0:0:0:
51,192,16846,1,0,0:0:0:0:
153,192,17076,1,0,0:0:0:0:
460,192,17076,1,0,0:0:0:0:
51,192,17307,1,0,0:0:0:0:
460,192,17538,1,0,0:0:0:0:
153,192,17769,1,0,0:0:0:0:
51,192,17769,1,0,0:0:0:0:
460,192,18000,1,0,0:0:0:0:
51,192,18000,1,0,0:0:0:0:
153,192,18230,1,0,0:0:0:0:
460,192,18461,1,0,0:0:0:0:
51,192,18692,1,0,0:0:0:0:
153,192,18923,1,0,0:0:0:0:
460,192,18923,1,0,0:0:0:0:
460,192,19153,1,0,0:0:0:0:
51,192,19384,128,0,20076:0:0:0:0:
153,192,19384,1,0,0:0:0:0:
256,192,19615,1,0,0:0:0:0:
460,192,19846,1,0,0:0:0:0:
256,192,19846,1,0,0:0:0:0:
153,192,20076,128,0,20307:0:0:0:0:
256,192,20307,128,0,22615:0:0:0:0:
460,192,20538,1,0,0:0:0:0:
51,192,20769,1,0,0:0:0:0:
153,192,20769,1,0,0:0:0:0:
460,192,21000,1,0,0:0:0:0:
153,192,21230,1,0,0:0:0:0:
51,192,21230,1,0,0:0:0:0:
460,192,21461,1,0,0:0:0:0:
153,192,21692,1,0,0:0:0:0:
51,192,21692,1,0,0:0:0:0:
460,192,21692,1,0,0:0:0:0:
153,192,22153,1,0,0:0:0:0:
51,192,22153,1,0,0:0:0:0:
460,192,22615,1,0,0:0:0:0:
153,192,22615,1,0,0:0:0:0:
51,192,22615,1,0,0:0:0:0:
460,192,23076,128,0,24000:0:0:0:0:
153,192,23307,1,0,0:0:0:0:
51,192,23307,1,0,0:0:0:0:
256,192,23538,1,0,0:0:0:0:
51,192,23538,1,0,0:0:0:0:
153,192,23769,1,0,0:0:0:0:
256,192,24000,1,0,0:0:0:0:
51,192,24230,1,0,0:0:0:0:
153,192,24461,1,0,0:0:0:0:
460,192,24461,1,0,0:0:0:0:
256,192,24461,1,0,0:0:0:0:
51,192,24692,1,0,0:0:0:0:
256,192,24923,128,0,25846:0:0:0:0:
153,192,24923,1,0,0:0:0:0:
460,192,25153,1,0,0:0:0:0:
51,192,25153,1,0,0:0:0:0:
153,192,25384,1,0,0:0:0:0:
51,192,25384,1,0,0:0:0:0:
460,192,25615,1,0,0:0:0:0:
153,192,25846,128,0,29538:0:0:0:0:
51,192,26076,1,0,0:0:0:0:
256,192,26307,1,0,0:0:0:0:
460,192,26307,1,0,0:0:0:0:
51,192,26538,1,0,0:0:0:0:
460,192,26769,1,0,0:0:0:0:
256,192,27000,1,0,0:0:0:0:
51,192,27000,1,0,0:0:0:0:
460,192,27230,1,0,0:0:0:0:
51,192,27230,1,0,0:0:0:0:
256,192,27461,1,0,0:0:0:0:
460,192,27692,1,0,0:0:0:0:
51,192,27923,1,0,0:0:0:0:
460,192,28153,1,0,0:0:0:0:
256,192,28153,1,0,0:0:0:0:
51,192,28384,1,0,0:0:0:0:
256,192,28615,1,0,0:0:0:0:
51,192,28846,1,0,0:0:0:0:
460,192,28846,1,0,0:0:0:0:
256,192,29076,1,0,0:0:0:0:
51,192,29076,1,0,0:0:0:0:
460,192,29307,1,0,0:0:0:0:
51,192,29538,128,0,32307:0:0:0:0:
256,192,29769,1,0,0:0:0:0:
153,192,30000,1,0,0:0:0:0:
460,192,30000,1,0,0:0:0:0:
256,192,32307,128,0,32769:0:0:0:0:
460,192,32769,128,0,33230:0:0:0:0:
153,192,33230,128,0,36000:0:0:0:0:
358,192,36000,128,0,36923:0:0:0:0:
51,192,36923,128,0,37846:0:0:0:0:
153,192,37846,128,0,38538:0:0:0:0:
460,192,38538,128,0,38769:0:0:0:0:
256,192,38769,128,0,41307:0:0:0:0:
358,192,41538,128,0,42230:0:0:0:0:
51,192,42230,128,0,42461:0:0:0:0:
256,192,42461,128,0,44769:0:0:0:0:
51,192,45230,128,0,45923:0:0:0:0:
153,192,45923,128,0,46153:0:0:0:0:
358,192,46153,128,0,48692:0:0:0:0:
460,192,48923,128,0,49615:0:0:0:0:
358,192,49615,128,0,49846:0:0:0:0:
153,192,49846,128,0,52384:0:0:0:0:
256,192,54461,128,0,55384:0:0:0:0:
460,192,55384,128,0,58153:0:0:0:0:
153,192,58153,128,0,59076:0:0:0:0:
358,192,59076,128,0,62769:0:0:0:0:
153,192,62769,128,0,66923:0:0:0:0:
51,192,67384,128,0,68076:0:0:0:0:
153,192,68076,128,0,68307:0:0:0:0:
256,192,68307,128,0,70846:0:0:0:0:
460,192,71076,128,0,71769:0:0:0:0:
358,192,71769,128,0,72000:0:0:0:0:
256,192,72000,128,0,74307:0:0:0:0:
51,192,74769,128,0,75692:0:0:0:0:
153,192,75692,128,0,76615:0:0:0:0:
256,192,76615,128,0,77538:0:0:0:0:
358,192,77538,128,0,81230:0:0:0:0:
460,192,81230,128,0,84000:0:0:0:0:
256,192,84000,128,0,84461:0:0:0:0:
51,192,84461,128,0,84923:0:0:0:0:
358,192,84923,128,0,87692:0:0:0:0:
153,192,87692,128,0,88615:0:0:0:0:
460,192,88615,128,0,89538:0:0:0:0:
358,192,89538,128,0,90230:0:0:0:0:
51,192,90230,128,0,90461:0:0:0:0:
256,192,90461,128,0,93000:0:0:0:0:
153,192,93230,128,0,93923:0:0:0:0:
460,192,93923,128,0,94153:0:0:0:0:
256,192,94153,128,0,96461:0:0:0:0:
460,192,96923,128,0,97615:0:0:0:0:
358,192,97615,128,0,97846:0:0:0:0:
153,192,97846,128,0,100384:0:0:0:0:
51,192,100615,128,0,101307:0:0:0:0:
153,192,101307,128,0,101538:0:0:0:0:
358,192,101538,128,0,104076:0:0:0:0:
