osu file format v14

[General]
AudioFilename: audio.mp3
AudioLeadIn: 0
PreviewTime: 31593
Countdown: 0
SampleSet: Soft
StackLeniency: 0.7
Mode: 0
LetterboxInBreaks: 0
WidescreenStoryboard: 0

[Editor]
Bookmarks: 10753,52313,73159,114732,145961,166770,187585,197985,208384,249945,260371
DistanceSpacing: 1.1
BeatDivisor: 6
GridSize: 4
TimelineZoom: 3.400004

[Metadata]
Title:Leave Them All Behind (Radio Edit)
TitleUnicode:Leave Them All Behind (Radio Edit)
Artist:Ride
ArtistUnicode:Ride
Creator:Mismagius
Version:Extra
Source:
Tags:shoegaze Going Blank Again alternative rock english dream pop dreampop squirrelpascals
BeatmapID:2559936
BeatmapSetID:1231430

[Difficulty]
HPDrainRate:5
CircleSize:4.6
OverallDifficulty:8.5
ApproachRate:9
SliderMultiplier:3.39999990463257
SliderTickRate:1

[Events]
//Background and Video events
0,0,"band-bw-portrait.jpg",0,0
//Break Periods
//Storyboard Layer 0 (Background)
//Storyboard Layer 1 (Fail)
//Storyboard Layer 2 (Pass)
//Storyboard Layer 3 (Foreground)
//Storyboard Layer 4 (Overlay)
//Storyboard Sound Samples

[TimingPoints]
8169,648.648648648649,4,2,0,90,1,0
8817,-142.857142857143,4,2,0,90,0,0
9466,638.297872340426,4,2,0,90,1,0
9466,-250,4,2,0,90,0,0
9944,-100,4,2,0,90,0,0
10423,722.891566265061,4,2,0,90,1,0
10423,-1000,4,2,0,90,0,0
10784,670.391061452515,4,2,0,90,1,0
11455,652.173913043479,4,2,0,90,1,0
13411,645.161290322581,4,2,0,90,1,0
15991,674.157303370787,4,2,0,90,1,0
16665,649.82184051206,4,2,0,90,1,0
18614,631.578947368421,4,2,0,90,1,0
19245,646.900269541779,4,2,0,90,1,0
19891,634.920634920635,4,2,0,90,1,0
21160,659.340659340659,4,2,0,90,1,0
23797,652.173913043478,4,2,0,90,1,0
26404,659.34065934066,4,2,0,90,1,0
28382,645.161290322581,4,2,0,90,1,0
29027,641.711229946524,4,2,0,90,1,0
31593,657.534246575342,4,2,0,90,1,0
34223,640,4,2,0,90,1,0
36783,671.892497200448,4,2,0,90,1,0
37455,652.173913043478,4,2,0,90,1,0
39411,666.666666666667,4,2,0,90,1,0
40077,641.711229946524,4,2,0,90,1,0
41362,625,4,2,0,90,1,0
41987,652.173913043479,4,2,0,90,1,0
44594,655.737704918033,4,2,0,90,1,0
46564,638.297872340426,4,2,0,90,1,0
47202,650.406504065041,4,2,0,90,1,0
49803,640,4,2,0,90,1,0
51883,659.340659340659,4,2,0,90,1,0
52363,681.818181818182,4,2,0,90,1,0
53044,652.173913043478,4,2,0,90,1,0
53044,-76.9230769230769,4,2,0,90,0,0
53696,-142.857142857143,4,2,0,90,0,0
54022,-100,4,2,0,90,0,0
54348,-76.9230769230769,4,2,0,90,0,0
55000,652.173913043478,4,2,0,90,1,0
55652,641.711229946524,4,2,0,90,1,0
56614,-142.857142857143,4,2,0,90,0,0
56935,655.737704918033,4,2,0,90,1,0
57590,674.157303370786,4,2,0,90,1,0
58266,645.161290322581,4,2,0,90,1,0
59878,-142.857142857143,4,2,0,90,0,0
60201,659.340659340659,4,2,0,90,1,0
60201,-76.9230769230769,4,2,0,90,0,0
60860,636.604774535809,4,2,0,90,1,0
60860,-76.9230769230769,4,2,0,90,0,0
62451,-142.857142857143,4,2,0,90,0,0
62770,650.406504065041,4,2,0,90,1,0
62770,-100,4,2,0,90,0,0
63420,-76.9230769230769,4,2,0,90,0,0
64070,666.666666666667,4,2,0,90,1,0
64070,-142.857142857143,4,2,0,90,0,0
64403,-100,4,2,0,90,0,0
64736,-76.9230769230769,4,2,0,90,0,0
65070,631.578947368421,4,2,0,90,1,0
65385,661.157024793389,4,2,0,90,1,0
65385,-76.9230769230769,4,2,0,90,0,0
66048,652.173913043479,4,2,0,90,1,0
66048,-76.9230769230769,4,2,0,90,0,0
68000,661.157024793389,4,2,0,90,1,0
68661,653.950953678475,4,2,0,90,1,0
69641,-142.857142857143,4,2,0,90,0,0
69968,-76.9230769230769,4,2,0,90,0,0
70622,645.161290322581,4,2,0,90,1,0
70622,-76.9230769230769,4,2,0,90,0,0
71912,612.244897959184,4,2,0,90,1,0
72524,645.161290322581,4,2,0,90,1,0
73184,664.084117321527,4,2,0,90,1,0
73848,648.648648648649,4,2,0,90,1,0
75793,648.648648648649,4,2,0,90,1,0
77090,638.297872340426,4,2,0,90,1,0
78366,695.652173913044,4,2,0,90,1,0
79061,645.855758880517,4,2,0,90,1,0
80999,662.983425414365,4,2,0,90,1,0
82324,641.711229946525,4,2,0,90,1,0
83607,653.950953678475,4,2,0,90,1,0
86222,646.900269541779,4,2,0,90,1,0
89456,648.648648648649,4,2,0,90,1,0
91401,645.161290322581,4,2,0,90,1,0
93984,670.391061452514,4,2,0,90,1,0
94654,652.173913043478,4,2,0,90,1,0
96610,652.173913043478,4,2,0,90,1,0
97914,620.15503875969,4,2,0,90,1,0
98534,645.161290322581,4,2,0,90,1,0
99179,664.819944598339,4,2,0,90,1,0
101172,645.161290322581,4,2,0,90,1,0
101817,641.711229946524,4,2,0,90,1,0
103421,659.34065934066,4,2,0,90,1,0
104411,655.737704918034,4,2,0,90,1,0
106378,631.578947368422,4,2,0,90,1,0
107009,679.886685552409,4,2,0,90,1,0
107689,636.60477453581,4,2,0,90,1,0
108962,645.161290322581,4,2,0,90,1,0
109628,648.648648648649,4,2,0,90,1,0
113519,631.578947368421,4,2,0,90,1,0
114782,674.157303370787,4,2,0,90,1,0
115456,648.648648648649,4,2,0,90,1,0
117401,648.648648648649,4,2,0,90,1,0
119347,612.244897959184,4,2,0,90,1,0
119982,661.88637617209,4,2,0,90,1,0
122629,636.604774535809,4,2,0,90,1,0
124540,665.557404326123,4,2,0,90,1,0
125206,666.666666666667,4,2,0,90,1,0
125872,645.161290322581,4,2,0,90,1,0
127807,655.737704918033,4,2,0,90,1,0
129118,615.384615384616,4,2,0,90,1,0
130041,679.886685552408,4,2,0,90,1,0
130381,653.950953678474,4,2,0,90,1,0
133650,646.551724137931,4,2,0,90,1,0
134942,638.297872340426,4,2,0,90,1,0
135580,679.886685552408,4,2,0,90,1,0
136259,652.173913043478,4,2,0,90,1,0
138215,643.43163538874,4,2,0,90,1,0
140788,666.666666666666,4,2,0,90,1,0
142121,640.683395621997,4,2,0,90,1,0
143403,645.161290322581,4,2,0,90,1,0
145983,689.655172413793,4,2,0,90,1,0
146672,653.950953678474,4,2,0,90,1,0
148624,652.173913043478,4,2,0,90,1,0
149934,631.578947368421,4,2,0,90,1,0
151197,652.173913043478,4,2,0,90,1,0
151849,645.161290322581,4,2,0,90,1,0
153784,681.818181818182,4,2,0,90,1,0
154465,638.297872340426,4,2,0,90,1,0
156385,659.34065934066,4,2,0,90,1,0
157044,647.598488936859,4,2,0,90,1,0
158986,647.598488936859,4,2,0,90,1,0
160281,646.900269541779,4,2,0,90,1,0
161576,677.966101694915,4,2,0,90,1,0
162253,652.173913043478,4,2,0,90,1,0
164209,652.173913043478,4,2,0,90,1,0
166820,655.737704918033,4,2,0,90,1,0
168459,655.737704918033,4,2,0,90,1,0
169114,621.761658031088,4,2,0,90,1,0
169425,645.161290322581,4,2,0,90,1,0
172012,653.950953678474,4,2,0,90,1,0
172665,666.666666666667,4,2,0,90,1,0
173998,625,4,2,0,90,1,0
174623,638.297872340425,4,2,0,90,1,0
175899,661.157024793388,4,2,0,90,1,0
177221,655.737704918033,4,2,0,90,1,0
179845,641.711229946524,4,2,0,90,1,0
182411,653.950953678474,4,2,0,90,1,0
186335,631.578947368421,4,2,0,90,1,0
187598,666.666666666666,4,2,0,70,1,0
187598,-166.666666666667,4,2,0,70,0,0
188264,650.40650406504,4,2,0,70,1,0
188264,-166.666666666667,4,2,0,70,0,0
190235,650.406504065041,4,2,0,70,1,0
190235,-166.666666666667,4,2,0,70,0,0
192836,648.648648648649,4,2,0,70,1,0
192836,-166.666666666667,4,2,0,70,0,0
194781,632.911392405063,4,2,0,70,1,0
194939,-166.666666666667,4,2,0,70,0,0
195413,638.297872340425,4,2,0,70,1,0
195413,-166.666666666667,4,2,0,70,0,0
195732,662.983425414365,4,2,0,70,1,0
195732,-166.666666666667,4,2,0,70,0,0
196726,648.648648648649,4,2,0,70,1,0
196726,-166.666666666667,4,2,0,70,0,0
198023,653.950953678474,4,2,0,70,1,0
198023,-133.333333333333,4,2,0,70,0,0
200638,650.406504065041,4,2,0,70,1,0
200638,-133.333333333333,4,2,0,70,0,0
201938,646.203554119548,4,2,0,70,1,0
201938,-133.333333333333,4,2,0,70,0,0
203230,646.900269541779,4,2,0,70,1,0
203230,-133.333333333333,4,2,0,70,0,0
204523,640,4,2,0,70,1,0
204523,-133.333333333333,4,2,0,70,0,0
205483,666.666666666667,4,2,0,70,1,0
205483,-133.333333333333,4,2,0,70,0,0
205817,646.900269541779,4,2,0,70,1,0
206464,652.173913043479,4,2,0,70,1,0
206464,-76.9230769230769,4,2,0,70,0,0
207116,638.297872340426,4,2,0,90,1,0
207116,-62.5,4,2,0,90,0,0
207754,-100,4,2,0,90,0,0
208073,659.34065934066,4,2,0,90,1,0
208073,-62.5,4,2,0,90,0,0
208402,659.34065934066,4,2,0,90,1,0
208402,-83.3333333333333,4,2,0,90,0,0
209061,645.161290322581,4,2,0,90,1,0
209061,-83.3333333333333,4,2,0,90,0,0
210996,674.157303370787,4,2,0,90,1,0
210996,-83.3333333333333,4,2,0,90,0,0
211670,645.161290322581,4,2,0,90,1,0
211670,-83.3333333333333,4,2,0,90,0,0
212637,652.173913043478,4,2,0,90,1,0
212637,-83.3333333333333,4,2,0,90,0,0
213289,638.297872340426,4,2,0,90,1,0
213609,666.666666666666,4,2,0,90,1,0
213609,-83.3333333333333,4,2,0,90,0,0
214942,634.920634920635,4,2,0,90,1,0
214942,-83.3333333333333,4,2,0,90,0,0
216211,643.43163538874,4,2,0,90,1,0
216211,-83.3333333333333,4,2,0,90,0,0
217819,643.43163538874,4,2,0,90,1,0
217819,-82.5082508250825,4,2,0,90,0,0
218462,612.244897959184,4,2,0,90,1,0
218771,682.982356289129,4,2,0,90,1,0
218771,-83.3333333333333,4,2,0,90,0,0
219454,652.173913043478,4,2,0,90,1,0
219454,-83.3333333333333,4,2,0,90,0,0
221410,650.40650406504,4,2,0,90,1,0
221410,-83.3333333333333,4,2,0,90,0,0
222548,628.272251308901,4,2,0,90,1,0
222548,-83.3333333333333,4,2,0,90,0,0
222862,612.244897959184,4,2,0,90,1,0
222862,-83.3333333333333,4,2,0,90,0,0
223168,652.173913043478,4,2,0,90,1,0
223979,674.157303370786,4,2,0,90,1,0
223979,-83.3333333333333,4,2,0,90,0,0
224653,655.737704918033,4,2,0,90,1,0
224653,-83.3333333333333,4,2,0,90,0,0
226619,653.950953678474,4,2,0,90,1,0
226619,-83.3333333333333,4,2,0,90,0,0
227272,621.761658031087,4,2,0,90,1,0
227272,-83.3333333333333,4,2,0,90,0,0
227893,634.920634920634,4,2,0,90,1,0
227893,-83.3333333333333,4,2,0,90,0,0
229162,691.642651296829,4,2,0,90,1,0
229162,-83.3333333333333,4,2,0,90,0,0
229853,666.666666666666,4,2,0,90,1,0
229853,-83.3333333333333,4,2,0,90,0,0
231853,628.2722513089,4,2,0,90,1,0
231853,-83.3333333333333,4,2,0,90,0,0
232795,645.16129032258,4,2,0,90,1,0
232795,-83.3333333333333,4,2,0,90,0,0
234407,649.8429546193,4,2,0,90,1,0
234407,-83.3333333333333,4,2,0,90,0,0
239606,670.391061452513,4,2,0,90,1,0
239606,-83.3333333333333,4,2,0,90,0,0
240276,634.920634920634,4,2,0,90,1,0
240276,-83.3333333333333,4,2,0,90,0,0
241228,659.340659340659,4,2,0,90,1,0
241228,-83.3333333333333,4,2,0,90,0,0
242217,646.203554119548,4,2,0,90,1,0
242217,-83.3333333333333,4,2,0,90,0,0
243509,652.173913043478,4,2,0,90,1,0
243509,-83.3333333333333,4,2,0,90,0,0
244487,630.914826498423,4,2,0,90,1,0
244801,674.157303370787,4,2,0,90,1,0
244801,-83.3333333333333,4,2,0,90,0,0
245306,631.578947368422,4,2,0,90,1,0
245306,-83.3333333333333,4,2,0,90,0,0
245779,652.173913043479,4,2,0,90,1,0
245779,-83.3333333333333,4,2,0,90,0,0
247409,648.648648648649,4,2,0,90,1,0
247409,-83.3333333333333,4,2,0,90,0,0
248706,644.122383252818,4,2,0,90,1,0
249995,655.737704918032,4,2,0,90,1,0
250650,-76.9230769230769,4,2,0,90,0,0
251306,-100,4,2,0,90,0,0
251634,-76.9230769230769,4,2,0,90,0,0
252290,634.920634920634,4,2,0,90,1,0
252607,670.391061452514,4,2,0,90,1,0
252607,-62.5,4,2,0,90,0,0
253277,631.578947368421,4,2,0,90,1,0
253277,-76.9230769230769,4,2,0,90,0,0
254698,670.391061452514,4,2,0,90,1,0
255201,681.818181818182,4,2,0,80,1,0
255882,636.604774535809,4,2,0,70,1,0
257473,-125,4,2,0,70,0,0
257795,653.950953678475,4,2,0,60,1,0
260410,649.702219815918,4,2,0,60,1,0
260572,-100,4,2,0,30,0,0

[Colours]
Combo1 : 231,84,128
Combo2 : 211,129,88
Combo3 : 108,171,52
Combo4 : 111,113,215

[HitObjects]
87,100,8168,5,0,3:0:0:0:
206,123,8493,1,0,3:0:0:0:
407,298,8817,6,0,B|417:266|417:266|409:165,1,118.999993030548,0|0,1:0|0:0,0:0:0:0:
385,108,9304,1,0,0:0:0:0:
171,82,9466,6,0,L|267:68,1,67.9999980926514,4|0,3:0|0:0,0:0:0:0:
274,306,9944,6,0,P|291:264|294:210,1,84.9999976158142,0|0,1:0|0:0,0:0:0:0:
154,297,10263,1,0,1:0:0:0:
369,335,10423,6,0,L|371:349,1,8.49999976158142,4|0,3:0|0:0,0:0:0:0:
485,144,10784,6,0,P|400:153|271:34,1,254.999992847443,4|0,1:0|0:0,0:0:0:0:
45,185,11455,6,0,P|132:170|226:187,1,169.999995231628,0|0,1:0|3:0,0:0:0:0:
281,210,11944,1,0,1:0:0:0:
84,273,12107,2,0,P|153:266|183:273,1,84.9999976158142
316,343,12433,6,0,P|410:350|496:260,2,169.999995231628,0|0|0,3:0|1:0|0:0,0:0:0:0:
252,302,13248,1,0,0:0:0:0:
356,44,13411,6,0,P|391:169|382:224,1,169.999995231628,0|0,3:0|0:0,0:0:0:0:
363,280,13894,1,0,0:0:0:0:
41,219,14056,6,0,P|138:228|269:144,1,254.999992847443,0|0,1:0|1:0,0:0:0:0:
118,10,14701,2,0,P|111:70|123:106,1,84.9999976158142
113,336,15023,6,0,P|174:378|200:381,1,84.9999976158142,0|0,3:0|0:0,0:0:0:0:
464,265,15346,6,0,L|355:253,1,84.9999976158142,0|0,1:0|0:0,0:0:0:0:
224,238,15669,1,0,1:0:0:0:
68,220,15830,1,0,1:0:0:0:
0,39,15991,6,0,P|79:65|163:57,1,169.999995231628,4|0,1:0|0:0,0:0:0:0:
232,21,16496,1,0,0:0:0:0:
148,285,16665,6,0,P|131:207|137:175,1,84.9999976158142,0|0,1:0|0:0,0:0:0:0:
238,337,16989,1,0,0:0:0:0:
270,175,17152,1,0,1:0:0:0:
498,275,17314,6,0,P|412:263|319:299,1,169.999995231628,0|0,3:0|3:0,0:0:0:0:
278,341,17802,1,0,0:0:0:0:
250,112,17964,6,0,P|239:182|242:209,1,84.9999976158142,0|0,1:0|0:0,0:0:0:0:
160,347,18289,2,0,P|149:277|152:250,1,84.9999976158142
405,175,18614,6,0,P|307:201|220:190,1,169.999995231628,0|0,3:0|0:0,0:0:0:0:
165,171,19087,1,0,0:0:0:0:
0,17,19245,6,0,B|72:22|158:-18|182:10,1,169.999995231628,0|0,1:0|3:0,0:0:0:0:
242,27,19730,1,0,0:0:0:0:
126,233,19891,5,0,1:0:0:0:
169,284,19996,5,0,1:0:0:0:
235,296,20102,5,0,1:0:0:0:
297,270,20208,5,0,1:0:0:0:
334,212,20314,5,0,1:0:0:0:
329,144,20420,5,0,1:0:0:0:
303,83,20525,5,4,3:0:0:0:
334,23,20631,1,4,3:0:0:0:
401,11,20737,1,4,3:0:0:0:
453,54,20843,1,4,3:0:0:0:
453,121,20949,1,4,3:0:0:0:
396,159,21055,1,4,3:0:0:0:
329,144,21160,6,0,P|259:137|140:183,1,169.999995231628,4|0,1:0|0:0,0:0:0:0:
111,223,21654,1,0,0:0:0:0:
26,23,21819,6,0,P|16:86|16:118,1,84.9999976158142,0|0,1:0|0:0,0:0:0:0:
22,213,22149,1,0,0:0:0:0:
26,23,22313,1,0,1:0:0:0:
156,125,22478,6,0,P|215:142|256:142,1,84.9999976158142
405,79,22808,2,0,P|491:123|402:147,2,169.999995231628,0|0|0,3:0|1:0|0:0,0:0:0:0:
390,156,23632,1,0,0:0:0:0:
478,310,23797,6,0,P|385:308|304:342,1,169.999995231628,0|0,3:0|0:0,0:0:0:0:
251,378,24286,1,0,0:0:0:0:
335,203,24449,6,0,P|340:132|329:92,1,84.9999976158142,0|0,1:0|0:0,0:0:0:0:
266,275,24775,5,0,0:0:0:0:
223,123,24938,1,0,0:0:0:0:
347,10,25101,5,0,3:0:0:0:
414,12,25210,5,0,1:0:0:0:
462,59,25318,5,0,1:0:0:0:
484,123,25427,5,0,1:0:0:0:
469,189,25536,5,0,1:0:0:0:
413,228,25644,5,0,1:0:0:0:
377,286,25753,5,0,1:0:0:0:
388,352,25862,5,0,1:0:0:0:
452,373,25970,5,0,1:0:0:0:
507,333,26079,5,0,1:0:0:0:
507,264,26188,5,0,1:0:0:0:
450,226,26297,5,0,1:0:0:0:
384,240,26405,6,0,P|276:250|205:204,1,169.999995231628,4|0,1:0|0:0,1:0:0:0:
166,161,26898,1,0,0:0:0:0:
65,315,27063,6,0,P|45:236|52:209,1,84.9999976158142,0|0,1:0|0:0,0:0:0:0:
74,12,27393,6,0,L|87:105,1,84.9999976158142,0|0,0:0|1:0,0:0:0:0:
301,112,27722,6,0,P|220:105|184:113,1,84.9999976158142
270,291,28052,6,0,L|359:281,1,84.9999976158142,0|0,3:0|0:0,0:0:0:0:
137,359,28382,6,0,P|134:258|164:187,1,169.999995231628,0|0,1:0|0:0,0:0:0:0:
230,149,28865,1,0,0:0:0:0:
14,78,29027,6,0,P|64:113|98:119,1,84.9999976158142,0|0,3:0|0:0,0:0:0:0:
222,235,29347,6,0,P|282:240|315:228,1,84.9999976158142
471,310,29668,6,0,P|507:228|499:121,1,169.999995231628,0|0,1:0|0:0,0:0:0:0:
469,75,30149,1,0,0:0:0:0:
275,179,30310,5,4,3:0:0:0:
396,144,30470,1,0,0:0:0:0:
346,27,30631,1,0,0:0:0:0:
208,216,30791,5,0,1:0:0:0:
368,256,30952,1,0,0:0:0:0:
255,99,31112,5,0,1:0:0:0:
245,300,31272,1,4,3:0:0:0:
373,149,31433,1,0,1:0:0:0:
481,330,31593,6,0,P|388:313|302:322,1,169.999995231629,4|0,1:0|0:0,0:0:0:0:
228,363,32086,1,0,0:0:0:0:
357,99,32250,6,0,P|248:132|188:190,1,169.999995231629,0|0,1:0|3:0,0:0:0:0:
357,99,32743,1,0,1:0:0:0:
174,33,32908,6,0,P|98:32|76:38,1,84.9999976158143
351,188,33236,6,0,L|482:179,1,84.9999976158143,0|0,3:0|0:0,0:0:0:0:
123,113,33565,6,0,P|225:121|301:175,1,169.999995231629,0|0,1:0|0:0,0:0:0:0:
298,236,34058,1,0,0:0:0:0:
400,39,34223,6,0,B|386:67|441:179|426:217,1,169.999995231629,0|0,3:0|0:0,0:0:0:0:
407,288,34703,1,0,0:0:0:0:
197,168,34863,6,0,L|298:152,1,84.9999976158143,0|0,1:0|0:0,0:0:0:0:
307,60,35183,5,0,0:0:0:0:
254,254,35343,1,0,1:0:0:0:
307,60,35503,2,0,P|239:52|210:47,1,84.9999976158143
387,187,35823,2,0,L|478:174,1,84.9999976158143,4|0,0:0|0:0,0:0:0:0:
144,217,36143,5,0,1:0:0:0:
144,217,36463,1,0,1:0:0:0:
310,246,36623,1,0,1:0:0:0:
446,340,36783,6,0,P|436:244|443:148,1,169.999995231629,0|0,3:0|0:0,0:0:0:0:
477,76,37286,1,0,0:0:0:0:
212,13,37455,6,0,P|280:22|303:22,1,84.9999976158143,0|0,1:0|0:0,0:0:0:0:
412,18,37781,1,0,3:0:0:0:
206,8,37944,1,0,1:0:0:0:
378,125,38107,6,0,P|306:129|292:131,1,84.9999976158143
466,284,38433,6,0,B|447:205|484:100,2,169.999995231629,4|0|0,2:0|1:0|0:0,0:0:0:0:
499,358,39248,1,0,1:0:0:0:
217,328,39411,6,0,P|301:333|389:269,1,169.999995231629,0|0,3:0|0:0,0:0:0:0:
405,194,39911,1,0,0:0:0:0:
125,187,40077,6,0,P|189:192|221:211,1,84.9999976158143,0|0,1:0|0:0,0:0:0:0:
58,240,40397,1,0,3:0:0:0:
196,110,40558,1,0,1:0:0:0:
52,244,40718,2,0,P|61:304|64:331,1,84.9999976158143
15,59,41039,5,4,0:0:0:0:
15,59,41360,5,0,1:0:0:0:
262,119,41518,1,0,0:0:0:0:
366,74,41674,1,0,0:0:0:0:
86,122,41830,1,0,1:0:0:0:
274,212,41987,6,0,P|265:112|286:25,1,169.999995231629,0|0,3:0|0:0,0:0:0:0:
355,0,42476,1,0,0:0:0:0:
457,219,42639,6,0,P|467:147|457:103,1,84.9999976158143,0|0,1:0|0:0,0:0:0:0:
427,59,42965,1,0,0:0:0:0:
512,276,43128,1,0,1:0:0:0:
296,169,43291,6,0,P|350:161|385:159,1,84.9999976158143
316,346,43617,6,0,P|213:344|146:376,2,169.999995231629,4|0|0,2:0|1:0|0:0,0:0:0:0:
146,378,44432,1,0,1:0:0:0:
296,171,44594,6,0,P|310:74|286:-9,1,169.999995231629,0|0,0:0|3:0,0:0:0:0:
210,13,45085,1,0,0:0:0:0:
80,213,45249,6,0,P|174:215|244:263,1,169.999995231629,0|0,1:0|3:0,0:0:0:0:
124,130,45741,1,0,1:0:0:0:
62,301,45905,2,0,P|75:357|77:387,1,84.9999976158143
0,138,46233,5,4,0:0:0:0:
0,138,46561,5,0,1:0:0:0:
87,180,46723,1,0,0:0:0:0:
266,98,46883,1,0,1:0:0:0:
167,264,47042,1,0,1:0:0:0:
137,30,47202,6,0,P|222:34|321:3,1,169.999995231629,0|0,3:0|0:0,0:0:0:0:
394,25,47689,1,0,0:0:0:0:
471,184,47852,6,0,P|377:182|359:264,1,169.999995231629,0|0,1:0|0:0,0:0:0:0:
482,65,48340,1,0,1:0:0:0:
424,240,48502,6,0,P|422:317|427:348,1,84.9999976158143
143,283,48828,6,0,P|234:296|314:297,2,169.999995231629,4|0|0,2:0|1:0|0:0,0:0:0:0:
52,247,49641,1,0,1:0:0:0:
203,128,49803,6,0,P|267:128|303:124,1,84.9999976158143
74,105,50123,2,0,P|119:59|141:31,1,84.9999976158143
142,320,50443,6,0,L|48:310,1,84.9999976158143,0|0,1:0|0:0,0:0:0:0:
221,253,50763,5,0,1:0:0:0:
363,192,50923,1,0,1:0:0:0:
436,48,51083,5,0,0:0:0:0:
370,200,51243,1,0,1:0:0:0:
201,157,51403,5,0,0:0:0:0:
352,283,51563,1,0,1:0:0:0:
495,148,51723,5,0,0:0:0:0:
299,137,51883,1,0,1:0:0:0:
261,235,52047,1,0,1:0:0:0:
457,246,52212,1,0,1:0:0:0:
393,57,52363,6,0,P|303:62|150:0,1,254.999992847443,4|0,1:0|0:0,0:0:0:0:
106,280,53044,6,0,B|156:241|184:132|130:73|130:73|94:81|72:118|83:155,1,331.499975526811,4|0,1:0|1:0,0:0:0:0:
235,243,53696,6,0,P|280:244|301:239,1,59.4999965152742
318,336,54022,6,0,P|373:313|397:296,1,84.9999976158143
473,382,54348,6,0,P|495:313|488:254,1,110.49999184227,0|0,1:0|0:0,0:0:0:0:
444,91,54674,5,0,0:0:0:0:
414,194,54837,1,0,1:0:0:0:
164,110,55000,6,0,P|259:99|348:119,1,169.999995231629,4|0,1:0|0:0,0:0:0:0:
409,154,55489,1,0,0:0:0:0:
184,288,55652,6,0,P|276:278|309:341,1,169.999995231629,4|0,1:0|0:0,0:0:0:0:
235,344,56133,1,0,1:0:0:0:
66,183,56293,6,0,P|61:107|66:85,1,84.9999976158143
183,281,56614,6,0,P|192:222|183:183,1,59.4999965152742,0|0,3:0|0:0,0:0:0:0:
143,15,56935,5,0,1:0:0:0:
189,69,57044,5,0,1:0:0:0:
257,87,57153,5,0,1:0:0:0:
327,75,57262,5,0,1:0:0:0:
396,56,57372,5,0,1:0:0:0:
462,83,57481,5,0,1:0:0:0:
496,145,57590,6,0,P|503:225|352:328,1,254.999992847443,4|0,1:0|0:0,0:0:0:0:
121,166,58266,6,0,B|173:141|173:141|371:183,1,254.999992847443,4|0,1:0|1:0,0:0:0:0:
213,329,58911,6,0,P|298:313|388:333,1,169.999995231629,0|0,3:0|0:0,0:0:0:0:
456,362,59395,1,0,0:0:0:0:
462,69,59556,6,0,P|487:133|486:170,1,84.9999976158143,0|0,1:0|0:0,0:0:0:0:
374,145,59878,6,0,P|378:204|374:216,1,59.4999965152742
119,57,60201,6,0,P|171:56|240:47,1,110.49999184227,4|0,1:0|0:0,0:0:0:0:
440,34,60530,6,0,P|384:42|319:44,1,110.49999184227
96,68,60860,6,0,P|211:57|298:123,1,220.999983684541,4|0,1:0|0:0,0:0:0:0:
322,191,61337,1,0,0:0:0:0:
73,222,61496,5,0,1:0:0:0:
106,310,61655,1,0,0:0:0:0:
198,293,61814,1,0,0:0:0:0:
163,165,61974,5,0,1:0:0:0:
0,213,62133,1,0,0:0:0:0:
38,380,62292,1,0,0:0:0:0:
167,157,62451,6,0,P|173:108|169:68,1,59.4999965152742,0|0,3:0|0:0,0:0:0:0:
65,247,62770,6,0,P|156:241|292:326,1,254.999992847443,4|0,1:0|0:0,0:0:0:0:
295,134,63420,6,0,B|400:223|416:348|416:348|420:262|445:242,1,331.499975526811,4|0,1:0|0:0,0:0:0:0:
502,122,64070,6,0,P|464:98|433:92,1,59.4999965152742
375,2,64403,6,0,P|327:21|288:23,1,84.9999976158143
231,141,64736,6,0,P|169:119|106:127,1,110.49999184227,0|0,1:0|0:0,0:0:0:0:
35,161,65070,1,0,0:0:0:0:
241,149,65227,1,0,0:0:0:0:
128,18,65385,6,0,P|160:146|149:252,1,220.999983684541,4|0,1:0|0:0,0:0:0:0:
122,318,65880,1,0,0:0:0:0:
298,139,66048,6,0,P|273:247|287:364,1,220.999983684541,4|0,1:0|0:0,0:0:0:0:
427,93,66700,5,0,1:0:0:0:
231,68,66863,1,0,1:0:0:0:
174,240,67026,1,0,1:0:0:0:
370,265,67189,1,0,1:0:0:0:
323,109,67352,5,4,3:0:0:0:
285,207,67515,1,4,3:0:0:0:
389,191,67678,1,4,3:0:0:0:
427,93,67841,1,4,3:0:0:0:
482,298,68000,6,0,P|389:288|239:357,1,254.999992847443,4|0,1:0|0:0,0:0:0:0:
37,309,68661,6,0,P|126:319|184:302,1,84.9999976158143,4|0,1:0|0:0,0:0:0:0:
246,183,68987,5,0,0:0:0:0:
305,369,69151,1,0,1:0:0:0:
251,174,69314,2,0,L|236:82,1,84.9999976158143
389,269,69641,6,0,P|394:228|402:185,1,59.4999965152742
245,295,69968,6,0,P|332:286|460:352,1,220.999983684541,0|0,1:0|3:0,0:0:0:0:
336,374,70459,1,0,1:0:0:0:
474,208,70622,6,0,P|487:154|466:95,1,110.49999184227,4|0,1:0|0:0,0:0:0:0:
245,48,70944,6,0,L|259:170,1,110.49999184227,0|0,1:0|0:0,0:0:0:0:
366,298,71267,5,0,0:0:0:0:
396,187,71428,1,0,1:0:0:0:
348,294,71589,5,0,0:0:0:0:
348,180,71751,1,0,0:0:0:0:
127,252,71912,6,0,P|192:249|229:256,1,84.9999976158143,4|0,1:0|0:0,0:0:0:0:
57,348,72218,5,0,1:0:0:0:
9,226,72371,1,0,1:0:0:0:
49,103,72524,6,0,L|170:92,1,84.9999976158143,0|0,0:0|1:0,0:0:0:0:
274,20,72846,2,0,L|395:9,1,84.9999976158143,4|0,3:0|0:0,0:0:0:0:
473,218,73184,6,0,P|374:207|245:294,1,254.999992847443,4|0,1:0|0:0,0:0:0:0:
346,93,73848,6,0,P|254:62|158:81,1,169.999995231629,0|0,1:0|0:0,0:0:0:0:
360,108,74334,1,0,1:0:0:0:
119,191,74496,6,0,P|185:191|207:187,1,84.9999976158143
64,358,74820,6,0,P|76:270|8:234,2,169.999995231629,0|0|0,3:0|1:0|3:0,0:0:0:0:
7,309,75631,1,0,0:0:0:0:
89,143,75793,6,0,P|179:137|263:182,1,169.999995231629
300,239,76279,1,0,0:0:0:0:
338,20,76441,6,0,P|336:98|340:117,1,84.9999976158143,0|0,1:0|0:0,0:0:0:0:
512,76,76765,6,0,P|465:132|464:153,1,84.9999976158143,0|0,1:0|0:0,0:0:0:0:
437,352,77090,5,0,1:0:0:0:
362,368,77196,5,0,1:0:0:0:
292,337,77302,5,0,1:0:0:0:
257,268,77409,5,0,1:0:0:0:
267,192,77515,5,0,1:0:0:0:
307,127,77621,5,0,1:0:0:0:
299,50,77728,5,4,3:0:0:0:
230,15,77834,1,4,3:0:0:0:
157,41,77941,1,4,3:0:0:0:
138,114,78047,1,4,3:0:0:0:
94,174,78153,1,4,3:0:0:0:
22,166,78260,1,4,3:0:0:0:
0,98,78366,6,0,P|66:86|197:127,1,169.999995231629,4|0,1:0|0:0,0:0:0:0:
234,148,78887,1,0,0:0:0:0:
104,356,79061,6,0,P|99:291|106:260,1,84.9999976158143,0|0,1:0|0:0,0:0:0:0:
125,169,79383,5,0,0:0:0:0:
93,368,79545,1,0,1:0:0:0:
236,264,79706,6,0,P|278:265|332:278,1,84.9999976158143
125,169,80029,2,0,P|154:137|202:111,1,84.9999976158143
44,304,80352,6,0,P|1:221|9:135,1,169.999995231629,0|0,1:0|3:0,0:0:0:0:
35,67,80837,1,0,0:0:0:0:
229,181,80999,6,0,P|245:115|242:93,1,84.9999976158143,0|0,3:0|0:0,0:0:0:0:
120,311,81330,5,0,1:0:0:0:
289,281,81496,1,0,1:0:0:0:
451,343,81661,1,0,1:0:0:0:
451,343,81993,5,4,3:0:0:0:
234,372,82159,1,4,3:0:0:0:
205,168,82324,1,4,3:0:0:0:
205,168,82644,5,4,3:0:0:0:
351,191,82805,1,4,3:0:0:0:
497,214,82965,1,4,3:0:0:0:
470,44,83126,5,0,1:0:0:0:
408,283,83286,1,0,1:0:0:0:
473,32,83446,1,0,1:0:0:0:
182,136,83607,6,0,P|268:128|362:156,1,169.999995231629,4|0,1:0|0:0,0:0:0:0:
419,205,84097,1,0,0:0:0:0:
207,355,84260,6,0,P|226:285|226:250,1,84.9999976158143,0|0,1:0|0:0,0:0:0:0:
182,136,84587,1,0,0:0:0:0:
204,365,84751,1,0,1:0:0:0:
182,125,84914,2,0,L|176:26,1,84.9999976158143
471,151,85241,6,0,P|374:149|301:175,2,169.999995231629,0|0|0,3:0|1:0|0:0,0:0:0:0:
283,251,86059,1,0,1:0:0:0:
303,4,86222,6,0,P|316:56|315:97,1,84.9999976158143
67,41,86545,2,0,P|64:85|79:135,1,84.9999976158143
390,215,86868,6,0,P|290:223|200:170,1,169.999995231629,0|0,1:0|1:0,0:0:0:0:
300,323,87354,1,0,1:0:0:0:
164,368,87515,2,0,P|120:359|69:362,1,84.9999976158143,0|0,3:0|0:0,0:0:0:0:
228,195,87839,2,0,P|196:162|152:136,1,84.9999976158143,0|0,3:0|0:0,0:0:0:0:
413,12,88162,6,0,L|406:107,1,84.9999976158143,0|0,1:0|0:0,0:0:0:0:
349,283,88486,1,0,1:0:0:0:
512,384,88647,1,0,1:0:0:0:
429,177,88809,6,0,P|322:202|189:117,1,254.999992847443,4|0,1:0|0:0,0:0:0:0:
137,22,89456,6,0,P|153:81|146:208,1,169.999995231629,0|0,1:0|0:0,0:0:0:0:
49,325,89942,1,0,1:0:0:0:
189,279,90104,2,0,P|250:280|285:270,1,84.9999976158143
43,126,90428,6,0,P|149:116|223:157,1,169.999995231629,0|0,3:0|1:0,0:0:0:0:
263,193,90915,1,0,0:0:0:0:
350,5,91077,2,0,P|348:49|359:94,1,84.9999976158143
454,288,91401,6,0,L|465:184,1,84.9999976158143,0|0,3:0|0:0,0:0:0:0:
211,288,91723,6,0,P|229:240|238:189,1,84.9999976158143,4|0,1:0|0:0,0:0:0:0:
20,154,92046,6,0,P|97:120|105:113,1,84.9999976158143,4|0,1:0|0:0,0:0:0:0:
171,0,92368,5,0,3:0:0:0:
10,153,92530,1,0,3:0:0:0:
214,90,92691,5,0,1:0:0:0:
285,71,92798,5,0,1:0:0:0:
354,96,92906,5,0,1:0:0:0:
407,146,93013,5,0,1:0:0:0:
480,152,93121,5,0,1:0:0:0:
509,84,93228,5,0,1:0:0:0:
472,19,93336,5,4,3:0:0:0:
438,84,93444,1,4,3:0:0:0:
405,149,93551,1,4,3:0:0:0:
372,215,93659,1,4,3:0:0:0:
339,281,93766,1,4,3:0:0:0:
306,347,93874,1,4,3:0:0:0:
310,373,93984,6,0,P|232:354|131:352,1,169.999995231629,4|0,1:0|0:0,0:0:0:0:
58,361,94486,1,0,0:0:0:0:
307,212,94654,6,0,P|294:110|317:16,1,169.999995231629,4|0,1:0|1:0,0:0:0:0:
204,199,95143,5,0,1:0:0:0:
407,78,95306,6,0,P|467:73|500:74,1,84.9999976158143,0|0,0:0|1:0,0:0:0:0:
265,326,95632,6,0,L|277:228,1,84.9999976158143,4|0,0:1|0:0,0:0:0:0:
491,342,95958,5,0,1:0:0:0:
265,326,96121,1,0,0:0:0:0:
325,380,96284,1,0,0:0:0:0:
442,266,96447,1,0,1:0:0:0:
200,257,96610,6,0,L|106:272,1,84.9999976158143,4|0,1:0|0:0,0:0:0:0:
83,360,96936,2,0,L|-11:375,1,84.9999976158143
266,329,97262,6,0,P|237:245|248:150,1,169.999995231629,0|0,1:0|1:0,0:0:0:0:
53,13,97914,5,0,1:0:0:0:
35,84,98017,5,0,1:0:0:0:
58,154,98120,5,0,1:0:0:0:
121,190,98224,5,0,1:0:0:0:
185,153,98327,5,0,1:0:0:0:
249,117,98430,5,0,1:0:0:0:
314,81,98534,5,4,3:0:0:0:
385,100,98641,1,4,3:0:0:0:
417,165,98749,1,4,3:0:0:0:
400,237,98856,1,4,3:0:0:0:
330,259,98964,1,4,3:0:0:0:
292,322,99071,1,4,3:0:0:0:
336,377,99179,6,0,P|425:364|507:369,1,169.999995231629,4|0,1:0|0:0,0:0:0:0:
467,280,99677,1,0,0:0:0:0:
237,247,99843,6,0,P|265:186|269:147,1,84.9999976158143,0|0,1:0|0:0,0:0:0:0:
216,328,100176,1,0,0:0:0:0:
169,134,100342,1,0,1:0:0:0:
40,273,100508,6,0,P|92:266|141:266,1,84.9999976158143,0|0,3:0|0:0,0:0:0:0:
318,307,100841,2,0,P|408:309|459:298,1,84.9999976158143,0|0,3:0|0:0,0:0:0:0:
33,281,101173,6,0,P|95:281|140:270,1,84.9999976158143,0|0,1:0|0:0,0:0:0:0:
254,190,101494,2,0,P|285:139|291:87,1,84.9999976158143
16,74,101817,6,0,P|88:27|180:35,2,169.999995231629,0|0|0,3:0|3:0|1:0,0:0:0:0:
13,175,102619,1,0,0:0:0:0:
103,235,102779,2,0,P|114:282|112:322,1,84.9999976158143,0|0,0:0|1:0,0:0:0:0:
176,134,103100,2,0,P|221:178|234:206,1,84.9999976158143
352,290,103421,5,4,3:0:0:0:
351,298,103503,1,4,3:0:0:0:
350,306,103585,1,4,3:0:0:0:
365,208,103750,1,0,0:0:0:0:
458,324,103915,5,0,1:0:0:0:
392,382,104080,1,0,0:0:0:0:
282,250,104245,1,0,1:0:0:0:
492,124,104411,6,0,P|405:130|257:38,1,254.999992847443,0|0,3:0|0:0,0:0:0:0:
116,206,105066,6,0,P|137:118|134:29,1,169.999995231629,0|0,1:0|0:0,0:0:0:0:
32,122,105558,1,0,1:0:0:0:
244,140,105722,6,0,P|296:145|348:150,1,84.9999976158143,0|0,3:0|0:0,0:0:0:0:
75,228,106050,2,0,P|127:233|179:238,1,84.9999976158143,0|0,3:0|0:0,0:0:0:0:
422,328,106378,6,0,P|329:325|238:367,1,169.999995231629,0|0,1:0|0:0,0:0:0:0:
272,260,106851,1,0,0:0:0:0:
199,7,107009,6,0,B|186:43|223:134|205:177,1,169.999995231629,0|0,3:0|0:0,0:0:0:0:
148,245,107518,1,0,3:0:0:0:
301,61,107689,6,0,P|371:63|406:73,1,84.9999976158143,0|0,1:0|0:0,0:0:0:0:
458,114,108007,1,0,0:0:0:0:
503,261,108166,1,0,1:0:0:0:
503,261,108325,6,0,P|412:256|400:319,1,169.999995231629,0|0,3:0|3:0,0:0:0:0:
476,341,108803,1,0,0:0:0:0:
291,210,108962,5,0,1:0:0:0:
219,226,109069,5,0,1:0:0:0:
147,242,109177,5,0,1:0:0:0:
81,208,109284,5,0,1:0:0:0:
103,137,109392,5,0,1:0:0:0:
125,66,109499,5,0,1:0:0:0:
130,46,109628,6,0,P|193:54|320:8,1,169.999995231629,4|0,1:0|3:0,0:0:0:0:
357,78,110114,1,0,0:0:0:0:
195,182,110276,6,0,P|285:209|367:296,1,169.999995231629,0|0,1:0|3:0,0:0:0:0:
177,184,110763,1,0,1:0:0:0:
319,347,110925,6,0,L|409:343,1,84.9999976158143
166,372,111249,6,0,P|128:372|76:376,1,84.9999976158143
25,121,111573,6,0,P|41:215|30:294,1,169.999995231629,0|0,1:0|3:0,0:0:0:0:
9,363,112060,1,0,0:0:0:0:
140,168,112222,6,0,L|245:182,1,84.9999976158143,4|0,1:0|0:0,0:0:0:0:
416,212,112546,5,0,3:0:0:0:
337,257,112709,1,0,0:0:0:0:
211,80,112871,6,0,L|126:68,1,84.9999976158143,4|0,1:0|0:0,0:0:0:0:
309,95,113195,1,0,0:0:0:0:
114,364,113519,5,0,1:0:0:0:
66,204,113676,1,0,1:0:0:0:
171,147,113834,1,0,1:0:0:0:
219,307,113992,1,0,1:0:0:0:
147,240,114150,5,4,3:0:0:0:
287,204,114308,1,4,3:0:0:0:
359,271,114466,1,4,3:0:0:0:
219,307,114624,1,4,3:0:0:0:
403,111,114782,6,0,P|316:127|179:18,1,254.999992847443,4|0,1:0|0:0,0:0:0:0:
1,192,115456,6,0,P|88:192|164:232,1,169.999995231629,4|0,1:0|0:0,0:0:0:0:
231,377,115942,1,0,1:0:0:0:
282,281,116104,6,0,P|283:240|295:193,1,84.9999976158143,0|0,1:0|0:0,0:0:0:0:
369,91,116428,2,0,P|398:62|440:37,1,84.9999976158143,0|0,1:0|0:0,0:0:0:0:
386,313,116753,6,0,P|390:248|385:215,1,84.9999976158143,0|0,1:0|0:0,0:0:0:0:
286,104,117077,2,0,P|242:55|215:35,1,84.9999976158143,0|0,1:0|0:0,0:0:0:0:
29,229,117401,6,0,P|115:217|201:288,1,169.999995231629,0|0,1:0|0:0,0:0:0:0:
212,329,117887,1,0,0:0:0:0:
246,73,118049,6,0,P|263:142|259:173,1,84.9999976158143,0|0,1:0|0:0,0:0:0:0:
375,25,118373,5,0,1:0:0:0:
189,4,118536,1,0,1:0:0:0:
245,73,118698,1,0,0:0:0:0:
443,3,118860,1,0,1:0:0:0:
357,136,119022,6,0,P|353:199|355:234,1,84.9999976158143,0|0,3:0|0:0,0:0:0:0:
146,188,119347,5,0,1:0:0:0:
231,59,119500,1,0,1:0:0:0:
278,230,119653,5,4,3:0:0:0:
76,248,119806,1,4,3:0:0:0:
255,139,119982,6,0,B|316:115|455:211|512:157,1,254.999992847443,4|0,1:0|0:0,0:0:0:0:
143,113,120643,6,0,P|237:115|306:20,1,169.999995231629,4|0,1:0|3:0,0:0:0:0:
317,0,121140,1,0,0:0:0:0:
212,250,121305,6,0,P|322:251|387:270,2,169.999995231629,0|0|0,1:0|1:0|1:0,0:0:0:0:
126,288,122133,1,0,0:0:0:0:
257,343,122298,1,0,3:0:0:0:
146,202,122464,1,0,0:0:0:0:
336,164,122629,6,0,P|364:75|357:-6,1,169.999995231629,0|0,1:0|3:0,0:0:0:0:
281,42,123106,1,0,0:0:0:0:
512,200,123265,6,0,P|441:195|413:202,1,84.9999976158143,0|0,1:0|0:0,0:0:0:0:
365,259,123583,1,0,0:0:0:0:
457,96,123743,1,0,1:0:0:0:
356,273,123902,5,0,3:0:0:0:
319,179,124061,1,0,3:0:0:0:
492,281,124220,6,0,P|498:345|496:368,1,84.9999976158143,0|0,1:0|0:0,0:0:0:0:
325,69,124538,5,4,3:0:0:0:
248,50,124650,5,4,3:0:0:0:
205,110,124761,5,4,3:0:0:0:
133,95,124872,5,4,3:0:0:0:
85,151,124983,5,4,3:0:0:0:
13,130,125094,5,4,3:0:0:0:
17,120,125206,6,0,P|33:186|31:297,1,169.999995231629,4|0,1:0|3:0,0:0:0:0:
32,287,125706,1,0,0:0:0:0:
348,177,125872,6,0,P|262:183|185:137,1,169.999995231629,4|0,1:0|3:0,0:0:0:0:
156,61,126355,1,0,1:0:0:0:
253,288,126517,6,0,P|268:352|270:384,1,84.9999976158143,0|0,3:0|0:0,0:0:0:0:
280,83,126839,6,0,P|295:19|297:-13,1,84.9999976158143,0|0,3:0|0:0,0:0:0:0:
491,154,127162,6,0,L|391:172,1,84.9999976158143,0|0,1:0|0:0,0:0:0:0:
168,255,127484,6,0,L|274:262,1,84.9999976158143,0|0,3:0|0:0,0:0:0:0:
485,349,127807,6,0,P|393:348|318:370,2,169.999995231629,0|0|0,3:0|3:0|1:0,0:0:0:0:
221,66,128790,5,0,0:0:0:0:
191,253,128954,1,0,1:0:0:0:
139,164,129118,5,0,0:0:0:0:
316,54,129271,1,0,1:0:0:0:
221,66,129425,5,0,0:0:0:0:
279,157,129579,1,0,1:0:0:0:
465,207,129733,5,0,1:0:0:0:
358,249,129887,1,0,1:0:0:0:
301,338,130041,1,4,3:0:0:0:
301,338,130210,1,4,3:0:0:0:
42,213,130381,6,0,P|129:219|226:128,1,169.999995231629,4|0,1:0|3:0,0:0:0:0:
232,79,130871,1,0,0:0:0:0:
341,263,131034,6,0,P|333:193|340:158,1,84.9999976158143,4|0,1:0|0:0,0:0:0:0:
367,98,131361,1,0,0:0:0:0:
250,249,131525,1,0,1:0:0:0:
428,212,131688,6,0,L|514:224,1,84.9999976158143,0|0,3:0|0:0,0:0:0:0:
226,125,132015,2,0,P|186:116|140:113,1,84.9999976158143,0|0,3:0|0:0,0:0:0:0:
369,6,132342,5,0,1:0:0:0:
401,113,132506,1,0,0:0:0:0:
460,38,132669,1,0,0:0:0:0:
255,7,132833,1,0,1:0:0:0:
171,37,132996,6,0,P|206:118|207:212,1,169.999995231629,0|0,1:0|3:0,0:0:0:0:
175,284,133487,1,0,0:0:0:0:
336,107,133650,6,0,P|355:207|341:288,1,169.999995231629,0|0,1:0|3:0,0:0:0:0:
319,92,134134,1,0,1:0:0:0:
512,128,134296,6,0,P|470:132|425:134,1,84.9999976158143
245,200,134619,2,0,P|203:196|158:194,1,84.9999976158143,0|0,1:0|0:0,0:0:0:0:
418,365,134942,5,4,3:0:0:0:
409,291,135048,5,4,3:0:0:0:
378,222,135154,5,4,3:0:0:0:
450,235,135261,5,4,3:0:0:0:
454,160,135367,5,4,3:0:0:0:
479,89,135473,5,4,3:0:0:0:
495,65,135580,6,0,P|411:80|256:9,1,254.999992847443,4|0,1:0|0:0,0:0:0:0:
245,249,136259,6,0,P|262:175|262:146,1,84.9999976158143,0|0,1:0|0:0,0:0:0:0:
275,331,136585,5,0,0:0:0:0:
152,213,136748,1,0,1:0:0:0:
312,345,136911,6,0,P|372:335|410:320,1,84.9999976158143,0|0,3:0|0:0,0:0:0:0:
330,199,137237,2,0,P|365:149|381:112,1,84.9999976158143,0|0,3:0|0:0,0:0:0:0:
91,127,137563,5,0,1:0:0:0:
173,190,137726,1,0,0:0:0:0:
88,50,137889,1,0,0:0:0:0:
31,242,138052,1,0,1:0:0:0:
184,81,138215,6,0,P|274:72|375:109,1,169.999995231629,0|0,3:0|0:0,0:0:0:0:
422,161,138697,1,0,0:0:0:0:
176,273,138858,6,0,P|169:209|177:172,1,84.9999976158143,0|0,1:0|0:0,0:0:0:0:
229,358,139180,5,0,3:0:0:0:
267,161,139341,1,0,1:0:0:0:
239,69,139501,1,0,0:0:0:0:
327,221,139662,5,4,3:0:0:0:
480,255,139823,1,0,0:0:0:0:
504,167,139984,1,0,0:0:0:0:
386,322,140145,5,0,0:0:0:0:
423,176,140306,1,4,3:0:0:0:
248,128,140467,1,4,3:0:0:0:
211,274,140627,1,0,1:0:0:0:
353,77,140788,6,0,P|257:92|167:43,1,169.999995231629,4|0,1:0|3:0,0:0:0:0:
139,6,141288,1,0,0:0:0:0:
81,285,141454,6,0,P|108:191|110:108,1,169.999995231629,0|0,1:0|3:0,0:0:0:0:
67,294,141954,1,0,1:0:0:0:
236,130,142121,6,0,P|301:129|333:136,1,84.9999976158143,0|0,3:0|0:0,0:0:0:0:
283,267,142441,2,0,P|329:312|347:339,1,84.9999976158143,0|0,3:0|0:0,0:0:0:0:
146,341,142761,5,0,1:0:0:0:
295,254,142921,1,0,0:0:0:0:
342,167,143082,1,0,0:0:0:0:
320,8,143242,1,0,0:0:0:0:
87,105,143403,6,0,P|181:102|259:127,1,169.999995231629,0|0,1:0|3:0,0:0:0:0:
336,168,143886,1,0,0:0:0:0:
484,12,144048,6,0,P|425:17|393:27,1,84.9999976158143,0|0,1:0|0:0,0:0:0:0:
320,237,144370,5,0,1:0:0:0:
500,170,144532,1,0,1:0:0:0:
423,108,144693,6,0,L|326:95,1,84.9999976158143,0|4,0:0|3:0,0:0:0:0:
512,254,145015,2,0,P|466:264|415:267,1,84.9999976158143,0|0,3:0|0:0,0:0:0:0:
469,18,145338,2,0,P|419:20|370:12,1,84.9999976158143,0|0,3:0|1:0,0:0:0:0:
491,332,145661,5,0,1:0:0:0:
379,313,145822,1,0,1:0:0:0:
136,177,145983,6,0,P|230:182|321:127,1,169.999995231629,2|0,1:2|0:0,0:0:0:0:
341,78,146500,1,0,0:0:0:0:
251,261,146672,6,0,P|248:314|252:352,1,84.9999976158143,2|0,1:2|0:0,0:0:0:0:
327,217,146998,1,0,0:0:0:0:
163,274,147162,1,0,1:0:0:0:
386,312,147325,6,0,L|476:321,1,84.9999976158143,2|0,0:0|0:0,0:0:0:0:
250,345,147652,2,0,P|198:343|160:336,1,84.9999976158143,2|0,0:0|0:0,0:0:0:0:
327,217,147979,6,0,P|223:229|148:207,1,169.999995231629,2|2,1:2|0:0,0:0:0:0:
84,163,148470,1,0,1:0:0:0:
256,88,148624,6,0,P|259:34|253:1,2,84.9999976158143,4|0|0,0:0|0:0|0:0,0:0:0:0:
166,52,149113,1,0,0:0:0:0:
424,109,149276,6,0,P|412:208|427:291,1,169.999995231629,6|0,1:2|0:0,0:0:0:0:
466,349,149765,1,0,1:0:0:0:
506,261,149928,1,2,0:2:0:0:
373,354,150091,1,0,0:0:0:0:
309,234,150249,2,0,P|298:174|298:143,1,84.9999976158143,2|0,0:2|0:0,0:0:0:0:
419,11,150565,5,0,1:0:0:0:
381,113,150723,1,0,0:0:0:0:
478,71,150881,5,0,1:0:0:0:
512,271,151039,1,0,1:0:0:0:
358,189,151197,6,0,P|261:179|233:181,2,84.9999976158143,2|2|0,0:2|0:2|0:0,0:0:0:0:
172,203,151686,1,0,0:0:0:0:
77,0,151849,6,0,P|62:66|78:168,1,169.999995231629,2|0,1:2|0:0,0:0:0:0:
159,21,152332,1,2,1:2:0:0:
172,203,152494,6,0,P|167:282|168:298,1,84.9999976158143
377,78,152816,6,0,P|288:113|207:109,1,169.999995231629,6|2,0:2|0:2,0:0:0:0:
409,163,153300,1,0,1:0:0:0:
459,83,153461,1,0,0:0:0:0:
301,0,153623,1,0,1:0:0:0:
214,36,153784,6,0,P|160:38|127:36,1,84.9999976158143,6|0,0:0|0:0,0:0:0:0:
45,23,154124,1,0,0:0:0:0:
226,40,154295,1,0,1:0:0:0:
313,25,154465,1,2,0:0:0:0:
475,49,154624,1,0,1:0:0:0:
435,115,154784,6,0,P|426:171|423:203,1,84.9999976158143,2|0,0:0|0:0,0:0:0:0:
356,339,155103,5,0,1:0:0:0:
175,337,155262,1,0,1:0:0:0:
78,204,155422,1,0,1:0:0:0:
102,36,155582,1,0,1:0:0:0:
255,19,155741,5,0,1:0:0:0:
315,132,155901,1,0,1:0:0:0:
284,261,156060,1,0,1:0:0:0:
175,337,156220,1,0,1:0:0:0:
315,132,156385,6,0,P|406:126|499:170,1,169.999995231629,6|0,0:0|0:0,0:0:0:0:
506,229,156879,1,0,0:0:0:0:
311,280,157044,6,0,P|406:283|427:361,1,169.999995231629,2|0,1:2|0:0,0:0:0:0:
300,287,157529,1,2,0:0:0:0:
443,177,157691,6,0,P|401:187|354:189,1,84.9999976158143,0|0,3:0|0:0,0:0:0:0:
213,345,158015,6,0,P|253:359|295:367,1,84.9999976158143,0|0,3:0|0:0,0:0:0:0:
491,310,158339,6,0,P|394:270|309:290,1,169.999995231629,2|2,1:2|0:0,0:0:0:0:
422,359,158824,1,2,1:2:0:0:
380,174,158986,6,0,P|374:118|377:88,1,84.9999976158143,0|0,3:0|0:0,0:0:0:0:
170,101,159309,6,0,P|205:57|228:38,1,84.9999976158143,0|0,3:0|0:0,0:0:0:0:
272,313,159633,5,2,1:2:0:0:
100,29,159957,5,0,1:0:0:0:
429,101,160281,5,0,1:0:0:0:
460,166,160388,5,0,1:0:0:0:
458,239,160496,5,0,1:0:0:0:
423,304,160604,5,0,1:0:0:0:
356,335,160712,5,0,1:0:0:0:
282,337,160820,5,0,1:0:0:0:
221,294,160927,5,4,3:0:0:0:
192,226,161035,1,4,3:0:0:0:
210,154,161143,1,4,3:0:0:0:
279,127,161251,1,4,3:0:0:0:
343,163,161359,1,4,3:0:0:0:
354,235,161466,1,4,3:0:0:0:
317,299,161576,6,0,P|363:300|401:311,1,84.9999976158143,6|0,0:0|0:0,0:0:0:0:
189,362,161914,2,0,P|152:371|105:374,1,84.9999976158143,2|0,0:0|0:0,0:0:0:0:
213,117,162253,6,0,P|229:216|226:292,1,169.999995231629,2|2,1:2|0:0,0:0:0:0:
341,22,162742,6,0,P|325:119|343:189,1,169.999995231629,2|0,0:0|0:0,0:0:0:0:
458,279,163231,6,0,P|467:331|465:368,1,84.9999976158143,0|0,3:0|0:0,0:0:0:0:
508,133,163557,6,0,P|424:157|273:68,1,254.999992847443,2|0,1:2|0:0,0:0:0:0:
220,293,164209,6,0,P|242:248|254:206,1,84.9999976158143,2|0,0:0|0:0,0:0:0:0:
173,4,164535,5,0,1:0:0:0:
343,36,164698,1,0,1:0:0:0:
448,181,164861,6,0,P|460:271|457:299,1,84.9999976158143,4|0,0:0|1:0,0:0:0:0:
300,366,165187,5,0,1:0:0:0:
129,338,165350,1,0,1:0:0:0:
179,96,165513,1,0,1:0:0:0:
350,124,165676,1,0,1:0:0:0:
223,324,165839,5,4,0:0:0:0:
174,80,166002,5,0,3:0:0:0:
129,272,166165,5,0,1:0:0:0:
288,47,166328,5,0,1:0:0:0:
70,173,166491,5,0,1:0:0:0:
394,101,166654,5,0,1:0:0:0:
100,272,166820,6,0,P|210:264|339:328,1,254.999992847443,4|0,1:1|3:0,0:0:0:0:
381,41,167475,6,0,P|366:112|367:151,1,84.9999976158143,0|0,1:0|0:0,0:0:0:0:
408,236,167803,1,0,3:0:0:0:
395,26,167967,1,0,1:0:0:0:
195,144,168131,6,0,P|131:151|83:147,1,84.9999976158143
305,296,168459,6,0,P|227:264|141:282,2,169.999995231629,0|0|0,3:0|1:0|3:0,0:0:0:0:
368,368,169269,1,0,0:0:0:0:
489,229,169425,6,0,B|516:161|482:77|384:78|413:10|427:-16,1,254.999992847443,0|0,3:0|0:0,0:0:0:0:
393,186,170070,6,0,P|362:156|327:131,1,84.9999976158143,0|0,1:0|0:0,0:0:0:0:
204,110,170392,1,0,3:0:0:0:
407,202,170554,1,0,1:0:0:0:
186,288,170715,6,0,P|273:273|300:356,2,169.999995231629,0|0|0,3:0|3:0|3:0,0:0:0:0:
224,366,171521,1,0,0:0:0:0:
379,268,171683,5,4,3:0:0:0:
169,195,171844,1,4,3:0:0:0:
54,17,172012,6,0,P|174:9|310:50,1,254.999992847443,4|0,1:0|0:0,0:0:0:0:
93,198,172665,6,0,P|182:177|235:251,1,169.999995231629,0|0,1:0|3:0,0:0:0:0:
77,210,173165,1,0,1:0:0:0:
318,157,173331,6,0,P|337:243|336:268,1,84.9999976158143,0|0,3:0|0:0,0:0:0:0:
480,67,173665,2,0,P|472:143|474:167,1,84.9999976158143,0|0,3:0|0:0,0:0:0:0:
477,358,173998,5,0,1:0:0:0:
497,258,174154,1,0,0:0:0:0:
372,262,174310,1,0,0:0:0:0:
399,363,174466,1,0,0:0:0:0:
353,142,174623,6,0,P|271:169|175:147,1,169.999995231629,4|0,3:0|3:0,0:0:0:0:
104,123,175101,1,0,0:0:0:0:
171,343,175261,6,0,P|178:292|175:255,1,84.9999976158143,0|0,1:0|0:0,0:0:0:0:
0,152,175580,2,0,P|-2:109|4:67,1,84.9999976158143
235,21,175899,5,8,3:0:0:0:
375,77,176064,1,8,3:0:0:0:
420,187,176229,1,8,3:0:0:0:
402,295,176394,1,8,3:0:0:0:
338,345,176560,5,12,3:0:0:0:
226,352,176725,1,12,3:0:0:0:
113,271,176890,1,12,3:0:0:0:
99,116,177056,1,12,3:0:0:0:
347,27,177221,6,0,P|246:37|169:17,1,169.999995231629,4|0,1:0|0:0,0:0:0:0:
99,46,177712,1,0,0:0:0:0:
20,293,177876,6,0,P|36:238|39:205,1,84.9999976158143,0|0,1:0|0:0,0:0:0:0:
43,119,178204,1,0,3:0:0:0:
100,308,178368,1,0,1:0:0:0:
366,217,178532,6,0,P|277:207|191:229,1,169.999995231629,0|0,3:0|3:0,0:0:0:0:
127,282,179024,1,0,0:0:0:0:
198,113,179188,5,0,1:0:0:0:
262,41,179352,1,0,0:0:0:0:
426,10,179516,1,0,0:0:0:0:
508,65,179680,1,0,1:0:0:0:
341,176,179845,6,0,P|327:263|346:361,1,169.999995231629,0|0,3:0|3:0,0:0:0:0:
418,380,180326,1,0,0:0:0:0:
141,264,180486,6,0,P|202:284|226:284,1,84.9999976158143,0|0,1:0|0:0,0:0:0:0:
414,275,180807,1,0,0:0:0:0:
487,193,180967,1,0,1:0:0:0:
312,380,181128,6,0,P|323:325|322:288,1,84.9999976158143,0|0,3:0|0:0,0:0:0:0:
384,117,181449,2,0,P|352:70|326:44,1,84.9999976158143,0|0,3:0|0:0,0:0:0:0:
480,337,181770,6,0,P|433:305|407:279,1,84.9999976158143,0|0,3:0|0:0,0:0:0:0:
232,117,182090,2,0,P|233:159|243:201,1,84.9999976158143,0|0,1:0|0:0,0:0:0:0:
11,293,182411,6,0,P|108:283|139:365,1,169.999995231629,4|0,1:0|3:0,0:0:0:0:
64,353,182901,1,0,0:0:0:0:
0,127,183064,6,0,P|55:144|95:143,1,84.9999976158143,0|0,1:0|0:0,0:0:0:0:
173,117,183391,1,0,3:0:0:0:
285,12,183555,1,0,1:0:0:0:
262,100,183718,2,0,P|268:138|269:187,1,84.9999976158143
491,286,184045,6,0,P|411:286|318:325,1,169.999995231629,0|0,3:0|1:0,0:0:0:0:
499,294,184536,1,0,0:0:0:0:
315,330,184699,2,0,P|235:327|224:330,1,84.9999976158143,0|0,0:0|1:0,0:0:0:0:
376,29,185026,6,0,P|360:114|385:207,2,169.999995231629,0|0|0,3:0|3:0|1:0,0:0:0:0:
451,0,185844,1,0,0:0:0:0:
282,72,186007,6,0,P|206:69|187:68,1,84.9999976158143,0|0,3:0|0:0,0:0:0:0:
0,178,186334,5,0,1:0:0:0:
69,147,186440,5,0,1:0:0:0:
142,167,186545,5,0,1:0:0:0:
196,221,186650,5,0,1:0:0:0:
219,293,186756,5,0,1:0:0:0:
266,352,186861,5,0,1:0:0:0:
340,371,186966,5,0,1:0:0:0:
414,351,187071,5,0,1:0:0:0:
454,284,187177,5,0,1:0:0:0:
445,207,187282,5,0,1:0:0:0:
389,153,187387,5,0,1:0:0:0:
312,149,187492,5,0,1:0:0:0:
258,203,187598,6,0,P|194:223|111:183,1,152.999991039276,4|0,1:0|0:0,0:0:0:0:
68,104,188264,2,0,P|110:109|173:107,1,101.999994026184,2|0,0:0|0:0,0:0:0:0:
257,28,188751,1,0,0:0:0:0:
257,28,188914,6,0,L|266:82,1,50.9999970130922,2|0,0:0|0:0,0:0:0:0:
339,34,189239,2,0,P|342:65|348:88,1,50.9999970130922,2|0,0:0|0:0,0:0:0:0:
440,68,189564,2,0,P|422:124|416:172,1,101.999994026184
234,277,190235,6,0,P|320:286|353:298,1,101.999994026184
430,348,190722,1,0,0:0:0:0:
430,348,190885,2,0,P|435:298|436:237,1,101.999994026184,2|0,0:0|0:0,0:0:0:0:
361,164,191373,1,0,0:0:0:0:
372,155,191535,6,0,L|376:100,1,50.9999970130922,2|0,0:0|0:0,0:0:0:0:
312,30,191861,2,0,P|371:27|432:15,2,101.999994026184,2|0|2,0:0|0:0|0:0,0:0:0:0:
222,160,192836,6,0,P|135:152|73:198,1,152.999991039276,2|0,0:0|0:0,0:0:0:0:
60,260,193484,2,0,P|123:265|171:283,1,101.999994026184,2|0,0:0|0:0,0:0:0:0:
231,346,193971,1,0,0:0:0:0:
231,346,194133,6,0,L|244:278,1,50.9999970130922,2|0,0:0|0:0,0:0:0:0:
291,220,194457,2,0,P|389:231|411:230,1,101.999994026184,0|2,0:0|0:0,0:0:0:0:
447,159,194939,2,0,L|509:169,1,50.9999970130922
240,57,195413,6,0,P|236:27|225:-23,1,50.9999970130922,2|0,0:0|0:0,0:0:0:0:
161,107,195732,2,0,P|157:136|146:187,1,50.9999970130922,2|0,0:0|0:0,0:0:0:0:
90,235,196063,6,0,L|84:256,10,16.9999990043641,2|0|0|0|0|0|0|0|0|0|0,0:0|0:0|0:0|0:0|0:0|0:0|0:0|0:0|0:0|0:0|0:0,0:0:0:0:
179,288,196726,6,0,L|184:312,10,16.9999990043641,2|0|0|0|0|0|0|0|0|0|0,0:0|0:0|0:0|0:0|0:0|0:0|0:0|0:0|0:0|0:0|0:0,0:0:0:0:
98,341,197374,6,0,L|96:367,10,16.9999990043641,2|0|0|0|0|0|0|0|0|0|0,0:0|0:0|0:0|0:0|0:0|0:0|0:0|0:0|0:0|0:0|0:0,0:0:0:0:
19,260,198023,6,0,P|79:264|151:258,1,127.50000128746,2|0,0:0|0:0,0:0:0:0:
223,210,198513,1,0,0:0:0:0:
89,54,198676,2,0,P|82:118|83:136,1,63.7500006437302,2|0,0:0|0:0,0:0:0:0:
211,11,199003,1,0,0:0:0:0:
234,112,199167,1,0,0:0:0:0:
275,285,199330,6,0,P|277:316|277:350,1,63.7500006437302,2|0,0:0|0:0,0:0:0:0:
467,280,199657,2,0,P|462:335|463:349,1,63.7500006437302
323,176,199984,6,0,L|341:249,1,63.7500006437302,2|0,0:0|0:0,0:0:0:0:
456,101,200311,2,0,P|461:130|474:174,1,63.7500006437302
175,57,200638,6,0,P|266:50|345:75,1,127.50000128746,2|0,0:0|0:0,0:0:0:0:
373,104,201125,1,0,0:0:0:0:
251,243,201288,6,0,P|347:253|428:229,1,127.50000128746,2|0,0:0|0:0,0:0:0:0:
452,215,201776,1,0,0:0:0:0:
463,382,201938,6,0,P|461:336|465:289,1,63.7500006437302,2|0,0:0|0:0,0:0:0:0:
307,345,202261,2,0,P|306:301|305:252,1,63.7500006437302
173,221,202584,6,0,P|176:149|181:120,1,63.7500006437302,2|0,0:0|0:0,0:0:0:0:
45,140,202907,2,0,P|42:68|41:37,1,63.7500006437302
292,0,203230,6,0,P|301:84|294:174,1,127.50000128746,2|0,0:0|0:0,0:0:0:0:
276,0,203715,1,0,0:0:0:0:
480,95,203876,6,0,P|402:90|384:91,1,63.7500006437302,2|0,0:0|0:0,0:0:0:0:
490,106,204200,1,0,0:0:0:0:
438,14,204362,1,0,0:0:0:0:
297,200,204523,6,0,P|290:140|299:109,1,63.7500006437302,2|0,0:0|0:0,0:0:0:0:
404,278,204843,2,0,P|416:204|433:177,1,63.7500006437302
218,267,205163,6,0,P|200:209|180:184,1,63.7500006437302,2|0,0:0|0:0,0:0:0:0:
149,380,205483,2,0,P|109:316|82:298,1,63.7500006437302
283,366,205817,5,4,3:0:0:0:
425,275,206140,1,4,3:0:0:0:
483,57,206464,6,0,B|389:25|314:38|270:125|195:127|146:84,1,331.499975526811,0|0,1:0|3:0,0:0:0:0:
28,277,207116,6,0,P|145:236|234:338,1,271.999992370606,4|0,1:0|0:0,0:0:0:0:
14,293,207594,1,0,1:0:0:0:
163,110,207754,6,0,P|70:128|14:122,1,84.9999976158143,4|0,3:0|0:0,0:0:0:0:
363,88,208073,6,0,P|324:29|248:8,1,135.999996185303,4|0,1:0|0:0,0:0:0:0:
156,309,208402,6,0,P|140:197|170:97,1,203.999988052369,4|0,1:0|0:0,0:0:0:0:
243,29,208896,1,0,0:0:0:0:
337,250,209061,6,0,P|331:181|342:141,1,101.999994026184,0|0,1:0|0:0,0:0:0:0:
391,55,209383,1,0,3:0:0:0:
346,257,209544,1,0,1:0:0:0:
145,114,209706,6,0,P|243:102|252:100,1,101.999994026184
512,199,210028,6,0,P|420:186|405:185,1,101.999994026184,0|0,3:0|0:0,0:0:0:0:
192,346,210351,5,0,1:0:0:0:
327,173,210512,1,0,0:0:0:0:
354,324,210673,1,0,3:0:0:0:
177,236,210835,1,0,0:0:0:0:
336,83,210996,6,0,P|226:100|119:37,1,203.999988052369,0|0,3:0|0:0,0:0:0:0:
57,2,211501,1,0,0:0:0:0:
226,192,211670,6,0,P|147:198|114:205,1,101.999994026184,0|0,1:0|0:0,0:0:0:0:
1,251,211992,1,0,0:0:0:0:
240,194,212153,1,0,1:0:0:0:
44,342,212315,6,0,P|99:359|154:360,1,101.999994026184,0|0,3:0|0:0,0:0:0:0:
439,310,212637,6,0,P|331:290|240:323,2,203.999988052369,0|0|0,3:0|1:0|1:0,0:0:0:0:
195,230,213448,1,0,1:0:0:0:
377,108,213609,6,0,P|268:128|116:5,1,305.999982078553,4|0,1:0|0:0,0:0:0:0:
22,227,214275,6,0,P|75:305|89:329,1,101.999994026184,0|0,1:0|0:0,0:0:0:0:
252,278,214609,1,0,3:0:0:0:
83,89,214775,1,0,1:0:0:0:
172,349,214942,6,0,P|290:343|368:380,2,203.999988052369,0|0|0,3:0|3:0|1:0,0:0:0:0:
78,311,215735,1,0,0:0:0:0:
263,205,215894,6,0,P|191:180|158:181,1,101.999994026184,0|0,3:0|0:0,0:0:0:0:
395,283,216211,6,0,P|386:186|430:40,1,203.999988052369,0|0,3:0|0:0,0:0:0:0:
479,17,216693,1,0,0:0:0:0:
197,28,216854,6,0,P|263:27|333:24,1,101.999994026184,0|0,1:0|0:0,0:0:0:0:
80,117,217176,1,0,3:0:0:0:
251,151,217337,1,0,1:0:0:0:
56,112,217497,6,0,P|143:103|161:106,1,101.999994026184,0|0,3:0|0:0,0:0:0:0:
408,233,217819,6,0,P|304:227|206:271,2,206.040002835077,0|0|0,3:0|1:0|1:0,0:0:0:0:
494,378,218615,1,0,1:0:0:0:
465,83,218771,6,0,P|452:196|470:307,1,203.999988052369,4|0,1:0|0:0,0:0:0:0:
494,378,219283,1,0,0:0:0:0:
246,320,219454,6,0,P|338:268|349:254,1,101.999994026184,0|0,1:0|0:0,0:0:0:0:
140,330,219780,5,0,3:0:0:0:
229,165,219943,1,0,1:0:0:0:
50,313,220106,6,0,P|52:229|45:191,1,101.999994026184,0|0,3:0|0:0,0:0:0:0:
9,25,220432,6,0,P|104:72|206:73,1,203.999988052369,0|0,3:0|1:0,0:0:0:0:
284,28,220921,1,0,0:0:0:0:
380,39,221084,5,0,3:0:0:0:
466,170,221247,1,0,1:0:0:0:
191,200,221410,6,0,P|319:212|380:266,2,203.999988052369,0|0|0,3:0|3:0|1:0,0:0:0:0:
93,266,222223,1,0,0:0:0:0:
125,375,222385,1,0,3:0:0:0:
186,189,222548,6,0,P|193:113|186:68,2,101.999994026184,0|0|0,1:0|0:0|0:0,0:0:0:0:
11,21,223015,6,0,P|59:27|123:25,1,101.999994026184,0|0,3:0|0:0,0:0:0:0:
313,111,223331,5,0,1:0:0:0:
482,83,223494,1,0,0:0:0:0:
509,312,223657,1,0,1:0:0:0:
340,340,223820,1,0,1:0:0:0:
202,214,223979,6,0,P|93:219|-9:236,2,203.999988052369,4|0|0,1:0|3:0|1:0,0:0:0:0:
300,239,224816,1,0,0:0:0:0:
447,314,224980,5,0,3:0:0:0:
280,342,225144,1,0,1:0:0:0:
495,384,225308,6,0,P|477:276|495:164,2,203.999988052369,0|0|0,3:0|3:0|1:0,0:0:0:0:
403,290,226128,1,0,0:0:0:0:
271,275,226292,1,0,0:0:0:0:
151,315,226456,1,0,1:0:0:0:
309,137,226619,6,0,P|213:107|100:109,1,203.999988052369,0|0,3:0|0:0,0:0:0:0:
16,159,227109,1,0,0:0:0:0:
139,360,227272,6,0,P|151:287|155:247,1,101.999994026184,0|0,1:0|0:0,0:0:0:0:
274,0,227582,6,0,P|282:72|290:113,1,101.999994026184,0|0,1:0|0:0,0:0:0:0:
465,357,227893,5,4,3:0:0:0:
490,272,227998,5,0,1:0:0:0:
473,184,228104,5,0,1:0:0:0:
412,120,228210,5,0,1:0:0:0:
329,86,228316,5,0,1:0:0:0:
241,94,228422,5,0,1:0:0:0:
173,151,228527,5,4,3:0:0:0:
245,200,228633,1,4,3:0:0:0:
333,205,228739,1,4,3:0:0:0:
414,172,228845,1,4,3:0:0:0:
458,95,228951,1,4,3:0:0:0:
471,8,229057,1,4,3:0:0:0:
457,15,229162,6,0,P|374:29|246:11,1,203.999988052369,4|0,1:0|3:0,0:0:0:0:
145,47,229680,1,0,0:0:0:0:
286,176,229853,6,0,P|195:169|154:182,1,101.999994026184,0|0,1:0|0:0,0:0:0:0:
296,186,230186,1,0,3:0:0:0:
78,204,230353,1,0,1:0:0:0:
216,311,230519,5,0,3:0:0:0:
315,330,230686,1,0,0:0:0:0:
412,352,230853,2,0,P|462:347|516:345,1,101.999994026184,0|0,3:0|0:0,0:0:0:0:
291,99,231186,6,0,P|348:207|347:294,1,203.999988052369,0|0,1:0|0:0,0:0:0:0:
281,377,231686,1,0,1:0:0:0:
428,117,231853,6,0,P|344:194|217:191,2,203.999988052369,0|0|0,3:0|3:0|1:0,0:0:0:0:
445,33,232638,1,0,0:0:0:0:
429,361,232795,6,0,P|437:294|431:252,1,101.999994026184,4|0,1:0|0:0,0:0:0:0:
329,61,233117,5,0,3:0:0:0:
297,267,233278,1,0,1:0:0:0:
99,239,233440,1,0,0:0:0:0:
217,150,233601,1,0,0:0:0:0:
294,384,233762,6,0,P|243:378|199:355,1,101.999994026184,0|0,1:0|0:0,0:0:0:0:
99,239,234085,1,0,0:0:0:0:
79,85,234246,1,0,1:0:0:0:
262,256,234407,6,0,P|242:141|260:28,2,203.999988052369,4|0|0,1:0|0:0|1:0,0:0:0:0:
349,310,235219,1,0,0:0:0:0:
512,150,235381,6,0,P|429:159|313:103,1,203.999988052369,4|0,1:1|0:0,0:0:0:0:
233,39,235869,1,0,0:0:0:0:
169,323,236031,5,0,3:0:0:0:
146,214,236194,1,0,3:0:0:0:
120,104,236356,2,0,P|104:12|104:3,1,101.999994026184,0|0,1:0|0:0,0:0:0:0:
47,247,236681,5,0,3:0:0:0:
197,98,236843,1,0,1:0:0:0:
332,303,237006,6,0,P|436:305|515:363,2,203.999988052369,0|0|0,3:0|3:0|1:0,0:0:0:0:
248,353,237818,1,0,0:0:0:0:
48,231,237981,6,0,P|120:228|158:231,1,101.999994026184,4|0,1:0|0:0,0:0:0:0:
364,62,238306,5,4,3:0:0:0:
405,225,238468,1,0,1:0:0:0:
149,230,238630,1,0,1:0:0:0:
190,67,238793,1,4,3:0:0:0:
327,281,238955,5,0,1:0:0:0:
80,312,239118,1,0,1:0:0:0:
149,230,239280,1,4,3:0:0:0:
357,376,239443,1,0,1:0:0:0:
268,54,239606,6,0,P|254:162|406:295,1,305.999982078553,4|0,1:0|3:0,0:0:0:0:
464,62,240276,6,0,P|375:113|367:132,1,101.999994026184,0|0,1:0|0:0,0:0:0:0:
384,292,240593,5,0,3:0:0:0:
453,155,240752,1,0,1:0:0:0:
182,203,240910,2,0,P|255:212|287:225,1,101.999994026184,0|0,3:0|0:0,0:0:0:0:
30,355,241228,6,0,P|140:364|231:336,2,203.999988052369,2|0|0,2:0|1:0|3:0,0:0:0:0:
6,262,242052,1,0,1:0:0:0:
110,21,242217,6,0,P|126:95|124:140,1,101.999994026184,4|0,1:0|0:0,0:0:0:0:
331,98,242540,6,0,P|317:199|300:235,1,101.999994026184,0|0,3:0|0:0,0:0:0:0:
490,311,242863,6,0,P|381:308|287:371,1,203.999988052369,0|0,1:0|0:0,0:0:0:0:
503,322,243347,1,0,1:0:0:0:
328,205,243509,6,0,P|315:164|312:98,1,101.999994026184
179,371,243835,6,0,P|219:273|213:159,1,203.999988052369,2|0,0:0|0:0,0:0:0:0:
136,14,244324,5,0,1:0:0:0:
31,1,244487,1,0,0:0:0:0:
7,184,244644,1,0,1:0:0:0:
244,80,244801,6,0,P|354:84|447:136,1,203.999988052369,4|0,1:0|3:0,0:0:0:0:
226,1,245306,5,0,1:0:0:0:
312,321,245463,6,0,P|314:280|305:220,1,101.999994026184,0|0,0:0|1:0,0:0:0:0:
0,225,245779,6,0,P|99:228|202:170,1,203.999988052369,4|0,1:0|3:0,0:0:0:0:
343,4,246268,5,0,1:0:0:0:
503,275,246431,6,0,P|429:262|391:262,1,101.999994026184,0|0,0:0|3:0,0:0:0:0:
112,333,246757,6,0,P|172:297|211:292,1,101.999994026184,4|0,1:0|0:0,0:0:0:0:
442,378,247083,6,0,P|334:371|314:366,1,101.999994026184,0|0,3:0|0:0,0:0:0:0:
187,25,247409,6,0,L|167:138,1,101.999994026184,4|0,1:0|0:0,0:0:0:0:
466,51,247733,6,0,P|463:111|446:164,1,101.999994026184,0|0,3:0|1:0,0:0:0:0:
96,248,248057,6,0,L|229:233,1,101.999994026184,4|0,1:0|0:0,0:0:0:0:
512,363,248381,6,0,P|462:362|410:374,1,101.999994026184,4|0,1:0|0:0,0:0:0:0:
448,63,248706,5,0,1:0:0:0:
362,44,248813,5,0,1:0:0:0:
277,71,248920,5,0,1:0:0:0:
213,131,249028,5,0,1:0:0:0:
127,150,249135,5,0,1:0:0:0:
42,123,249242,5,0,1:0:0:0:
14,38,249350,5,12,3:0:0:0:
97,8,249457,1,12,3:0:0:0:
176,46,249564,1,12,3:0:0:0:
214,125,249672,1,12,3:0:0:0:
201,212,249779,1,12,3:0:0:0:
137,274,249886,1,12,3:0:0:0:
49,295,249995,6,0,P|131:302|209:357,1,169.999995231629,4|0,1:0|3:0,0:0:0:0:
202,349,250486,1,0,0:0:0:0:
279,63,250650,6,0,P|274:139|266:177,1,110.49999184227,4|0,1:0|0:0,0:0:0:0:
226,282,250978,1,0,3:0:0:0:
273,47,251142,1,0,1:0:0:0:
459,195,251306,6,0,P|416:195|366:208,1,84.9999976158143,0|0,3:0|0:0,0:0:0:0:
291,377,251634,6,0,P|396:370|418:367,1,110.49999184227,0|0,3:0|0:0,0:0:0:0:
109,208,251962,6,0,P|226:209|293:285,1,220.999983684541,0|4,1:0|3:0,0:0:0:0:
252,103,252448,1,0,1:0:0:0:
182,344,252607,6,0,B|256:383|355:376|399:270|399:270|412:343|493:381,1,407.999988555908,4|0,1:0|3:0,0:0:0:0:
411,81,253277,6,0,P|399:165|406:239,1,110.49999184227,0|0,1:0|0:0,0:0:0:0:
494,295,253592,1,0,3:0:0:0:
189,98,253750,6,0,P|239:165|297:213,1,110.49999184227,0|0,1:0|3:0,0:0:0:0:
399,190,254066,1,0,1:0:0:0:
156,322,254224,6,0,L|270:311,1,110.49999184227,0|0,3:0|1:0,0:0:0:0:
508,179,254540,2,0,L|394:190,1,110.49999184227,0|0,3:0|1:0,0:0:0:0:
195,35,254865,5,4,3:0:0:0:
156,322,255033,1,4,3:0:0:0:
4,143,255201,6,0,P|110:129|237:237,1,254.999992847443,4|0,1:0|0:0,0:0:0:0:
410,360,255882,6,0,P|400:289|399:264,1,84.9999976158143,0|0,1:0|0:0,0:0:0:0:
442,146,256200,1,0,3:0:0:0:
432,374,256359,5,0,1:0:0:0:
205,308,256518,6,0,P|296:306|292:388,2,169.999995231629,0|0|0,3:0|3:0|1:0,0:0:0:0:
237,376,257314,1,0,0:0:0:0:
368,203,257473,6,0,P|374:142|367:113,1,67.9999980926514
28,75,257795,6,0,P|95:72|130:81,1,84.9999976158143,4|0,1:0|0:0,0:0:0:0:
352,218,258121,6,0,P|283:218|251:227,1,84.9999976158143,4|0,1:0|0:0,0:0:0:0:
123,378,258448,6,0,P|140:341|123:292,1,84.9999976158143,4|0,1:0|0:0,0:0:0:0:
208,49,258775,6,0,P|214:144|214:153,1,84.9999976158143,4|0,1:0|0:0,0:0:0:0:
30,261,259102,6,0,P|27:129|34:112,2,84.9999976158143,4|0|0,1:0|0:0|0:0,0:0:0:0:
208,319,259593,5,4,1:0:0:0:
337,179,259756,6,0,P|408:179|476:190,1,84.9999976158143,0|4,0:0|1:0,0:0:0:0:
426,379,260083,6,0,P|496:372|565:368,1,84.9999976158143,0|4,0:0|1:0,0:0:0:0:
181,285,260410,5,4,1:0:0:0:
256,192,260572,12,4,265607,0:1:0:0:
