osu file format v14

[General]
AudioFilename: audio.mp3
AudioLeadIn: 0
PreviewTime: 96609
Countdown: 0
SampleSet: Soft
StackLeniency: 0.5
Mode: 0
LetterboxInBreaks: 0
WidescreenStoryboard: 1

[Editor]
Bookmarks: 24717,110431
DistanceSpacing: 1
BeatDivisor: 4
GridSize: 4
TimelineZoom: 1

[Metadata]
Title:This December
TitleUnicode:This December
Artist:Ricky Montgomery
ArtistUnicode:Ricky Montgomery
Creator:jiebi
Version:Collab Normal
Source:osu!
Tags:alternative rock indie the honeysticks english xenon- xehn xen gibee games astronic featured artist fa
BeatmapID:2446832
BeatmapSetID:1173192

[Difficulty]
HPDrainRate:3
CircleSize:4
OverallDifficulty:4
ApproachRate:5
SliderMultiplier:1
SliderTickRate:1

[Events]
//Background and Video events
0,0,"bg.jpg",0,0
//Break Periods
//Storyboard Layer 0 (Background)
//Storyboard Layer 1 (Fail)
//Storyboard Layer 2 (Pass)
//Storyboard Layer 3 (Foreground)
//Storyboard Layer 4 (Overlay)
//Storyboard Sound Samples

[TimingPoints]
717,428.571428571429,4,2,2,60,1,0
24717,-100,4,2,2,60,0,0
28145,-100,4,2,2,70,0,0
55574,-100,4,2,2,80,0,0
69288,-100,4,2,2,70,0,0
96717,-100,4,2,2,80,0,0
110431,-100,4,2,2,70,0,0
124145,-100,4,2,2,80,0,0
137859,-100,4,2,2,70,0,0
148145,-100,4,2,2,74,0,0
149002,-100,4,2,2,78,0,0
149859,-100,4,2,2,82,0,0
150717,-100,4,2,2,86,0,0
151574,-95.2380952380952,4,2,2,90,0,0
165288,-95.2380952380952,4,2,2,70,0,0
175574,-100,4,2,2,90,0,0

[Colours]
Combo1 : 255,128,255
Combo2 : 255,128,128
Combo3 : 255,128,64
Combo4 : 255,255,128
Combo5 : 0,255,128
Combo6 : 0,128,255

[HitObjects]
96,256,24717,5,2,0:0:0:0:
124,104,25359,1,2,0:0:0:0:
124,104,26645,1,2,0:0:0:0:
200,40,27074,2,0,L|256:44,1,50,2|2,0:0|0:0,0:0:0:0:
448,40,28145,6,0,B|472:76|472:76|464:144,1,100,4|8,1:2|0:0,0:0:0:0:
424,160,28788,2,0,L|436:260,1,100,0|0,3:0|3:0,0:0:0:0:
476,352,29645,2,0,B|432:368|400:352|400:352|356:332|316:352,1,150,0|8,0:0|0:0,0:0:0:0:
232,368,30717,1,2,0:0:0:0:
132,352,31145,1,8,0:0:0:0:
84,264,31574,6,0,P|108:216|104:160,1,100,0|8,1:0|0:0,0:0:0:0:
92,72,32431,2,0,L|200:64,1,100,2|8,0:0|0:0,0:0:0:0:
236,84,33074,2,0,B|268:108|268:108|396:96,1,150,2|8,0:0|0:0,0:0:0:0:
476,84,34145,2,0,L|472:192,1,100,2|8,0:0|0:0,0:0:0:0:
464,284,35002,6,0,P|416:264|348:280,1,100,0|8,1:0|0:0,0:0:0:0:
328,300,35645,2,0,L|272:296,1,50,0|2,3:0|0:0,0:0:0:0:
240,264,36074,2,0,L|124:272,1,100,0|2,3:0|0:0,0:0:0:0:
92,280,36717,1,0,1:0:0:0:
40,368,37145,1,8,0:0:0:0:
140,380,37574,2,0,P|188:368|252:376,1,100,2|8,0:0|0:0,0:0:0:0:
288,376,38217,6,0,B|312:340|312:340|300:228,1,150,2|8,0:0|0:0,0:0:0:0:
280,136,39288,2,0,P|220:136|176:104,1,100,2|8,0:0|0:0,0:0:0:0:
108,52,40145,2,0,P|92:100|40:136,1,100,0|8,1:0|0:0,0:0:0:0:
12,156,40788,1,0,3:0:0:0:
32,256,41217,1,0,3:2:0:0:
48,304,41431,2,0,L|108:296,1,50,8|2,0:0|0:0,0:0:0:0:
144,280,41859,6,0,L|256:288,1,100,4|8,1:2|0:0,0:0:0:0:
292,292,42502,1,0,3:0:0:0:
340,300,42717,2,0,P|376:252|376:200,1,100,2|8,0:0|0:0,0:0:0:0:
452,144,43574,2,0,L|448:80,1,50,0|2,1:0|0:0,0:0:0:0:
436,48,44002,2,0,L|376:40,1,50,8|0,0:0|3:0,0:0:0:0:
336,52,44431,2,0,P|280:64|224:40,1,100,2|8,0:0|0:0,0:0:0:0:
148,12,45288,5,0,1:0:0:0:
104,36,45502,2,0,L|96:88,1,50,2|8,0:0|0:0,0:0:0:0:
88,136,45931,2,0,L|32:132,2,50,0|2|0,3:0|0:0|3:0,0:0:0:0:
112,180,46574,2,0,L|168:172,1,50,8|2,0:0|0:0,0:0:0:0:
212,164,47002,1,0,1:0:0:0:
284,232,47431,1,8,0:0:0:0:
324,264,47645,2,0,P|372:280|428:264,1,100,0|0,3:0|3:0,0:0:0:0:
464,252,48288,2,0,L|472:196,1,50,8|2,0:0|0:0,0:0:0:0:
508,168,48717,6,0,L|504:68,1,100,0|8,1:0|0:0,0:0:0:0:
420,12,49574,2,0,P|376:36|312:32,1,100,2|8,0:0|0:0,0:0:0:0:
228,12,50431,1,0,1:0:0:0:
184,100,50859,1,8,0:0:0:0:
232,188,51288,2,0,P|248:240|236:304,1,100,2|8,0:0|0:0,0:0:0:0:
164,344,52145,6,0,P|116:336|64:356,1,100,4|8,1:2|0:0,0:0:0:0:
24,372,52788,2,0,L|32:264,1,100,0|0,1:0|3:0,0:0:0:0:
36,224,53431,1,8,0:0:0:0:
44,124,53859,1,0,1:0:0:0:
64,80,54074,2,0,P|116:92|172:72,1,100,0|0,3:0|1:0,0:0:0:0:
192,44,54717,2,0,L|244:48,1,50,8|8,0:0|0:0,0:0:0:0:
288,68,55145,1,8,0:0:0:0:
388,84,55574,6,0,B|412:108|412:108|416:180,1,100,4|8,1:2|0:0,0:0:0:0:
420,224,56217,2,0,P|372:216|320:240,1,100,0|0,3:0|3:0,0:0:0:0:
300,276,56859,2,0,L|240:268,1,50,8|2,0:0|0:0,0:0:0:0:
200,264,57288,1,0,1:0:0:0:
140,184,57717,2,0,L|80:188,1,50,8|0,0:0|3:0,0:0:0:0:
40,192,58145,2,0,P|48:248|40:296,1,100,0|8,0:0|0:0,0:0:0:0:
108,364,59002,5,0,1:0:0:0:
188,300,59431,1,8,0:0:0:0:
228,272,59645,2,0,L|280:280,1,50,0|0,3:0|0:0,0:0:0:0:
328,284,60074,2,0,P|376:256|436:260,1,100,0|2,3:0|0:0,0:0:0:0:
468,264,60717,1,0,1:0:0:0:
492,168,61145,1,8,0:0:0:0:
500,120,61359,2,0,P|444:116|404:84,1,100,0|0,3:0|3:0,0:0:0:0:
376,52,62002,2,0,L|312:60,1,50,8|2,0:0|0:0,0:0:0:0:
276,64,62431,5,0,1:0:0:0:
200,128,62859,1,8,0:0:0:0:
160,156,63074,2,0,P|100:172|52:160,1,100,0|0,3:0|3:0,0:0:0:0:
16,148,63717,2,0,L|24:96,1,50,8|2,0:0|0:0,0:0:0:0:
32,48,64145,1,0,1:0:0:0:
124,8,64574,1,8,0:0:0:0:
212,56,65002,2,0,L|268:68,1,50,0|0,0:0|3:0,0:0:0:0:
296,100,65431,2,0,L|352:92,1,50,8|2,0:0|0:0,0:0:0:0:
396,88,65859,5,0,1:0:0:0:
444,80,66074,2,0,L|452:24,2,50,2|8|0,0:0|0:0|3:0,0:0:0:0:
488,104,66717,2,0,P|500:152|484:212,1,100,0|8,0:0|0:0,0:0:0:0:
452,292,67574,1,0,1:0:0:0:
408,312,67788,2,0,L|416:368,2,50,2|12|2,0:0|0:2|0:0,0:0:0:0:
368,284,68431,2,0,L|312:292,1,50,0|0,1:0|3:0,0:0:0:0:
276,316,68859,2,0,L|216:312,1,50,8|2,0:0|0:0,0:0:0:0:
176,308,69288,5,4,1:2:0:0:
88,260,69717,1,8,0:0:0:0:
44,240,69931,2,0,L|52:136,1,100,0|0,3:0|3:0,0:0:0:0:
60,92,70574,2,0,L|116:84,1,50,8|2,0:0|0:0,0:0:0:0:
160,76,71002,1,0,1:0:0:0:
236,8,71431,1,8,0:0:0:0:
276,36,71645,2,0,P|324:64|384:64,1,100,0|0,3:0|3:0,0:0:0:0:
416,56,72288,2,0,L|424:112,1,50,8|2,0:0|0:0,0:0:0:0:
436,156,72717,5,0,1:0:0:0:
360,220,73145,1,8,0:0:0:0:
320,248,73359,2,0,L|220:240,1,100,0|0,3:0|3:0,0:0:0:0:
172,232,74002,2,0,L|164:284,1,50,8|2,0:0|0:0,0:0:0:0:
152,332,74431,1,0,1:0:0:0:
244,372,74859,1,8,0:0:0:0:
336,332,75288,2,0,P|380:312|440:324,1,100,0|8,0:0|0:0,0:0:0:0:
468,284,75931,1,2,0:0:0:0:
500,244,76145,6,0,L|492:144,1,100,0|8,1:0|0:0,0:0:0:0:
488,96,76788,1,0,3:0:0:0:
416,28,77217,1,0,3:0:0:0:
368,40,77431,2,0,L|308:36,1,50,8|2,0:0|0:0,0:0:0:0:
276,12,77859,2,0,P|224:0|160:12,1,100,0|8,1:0|0:0,0:0:0:0:
128,16,78502,1,0,3:0:0:0:
52,80,78931,1,0,3:0:0:0:
80,120,79145,2,0,L|72:176,1,50,8|2,0:0|0:0,0:0:0:0:
64,220,79574,6,0,P|124:212|167:248,1,100,4|8,1:2|0:0,0:0:0:0:
212,312,80431,2,0,P|276:324|316:308,1,100,0|12,0:0|0:2,0:0:0:0:
392,260,81288,2,0,L|384:208,1,50,8|0,0:0|3:0,0:0:0:0:
348,176,81717,2,0,L|356:120,1,50,4|0,1:2|3:0,0:0:0:0:
368,80,82145,1,0,3:0:0:0:
448,20,82574,1,8,0:0:0:0:
512,96,83002,6,0,L|520:200,1,100,4|8,1:2|0:0,0:0:0:0:
512,296,83859,2,0,P|456:288|400:312,1,100,2|8,0:0|0:0,0:0:0:0:
328,352,84717,1,0,1:0:0:0:
284,328,84931,2,0,L|296:264,2,50,2|8|0,0:0|0:0|3:0,0:0:0:0:
236,340,85574,2,0,P|180:352|128:332,1,100,2|8,0:0|0:0,0:0:0:0:
44,308,86431,6,0,L|36:204,1,100,0|8,1:0|0:0,0:0:0:0:
32,108,87288,2,0,P|80:76|140:84,1,100,2|8,0:0|0:0,0:0:0:0:
216,108,88145,2,0,P|272:120|328:96,1,100,0|8,1:0|0:0,0:0:0:0:
352,76,88788,1,0,3:0:0:0:
396,52,89002,2,0,L|408:160,1,100,2|8,0:0|0:0,0:0:0:0:
352,236,89859,6,0,P|300:220|248:232,1,100,0|8,1:0|0:0,0:0:0:0:
160,264,90717,2,0,P|168:208|156:160,1,100,2|8,0:0|0:0,0:0:0:0:
116,76,91574,1,0,1:0:0:0:
36,136,92002,1,8,0:0:0:0:
4,176,92217,2,0,B|32:216|32:216|17:326,1,150,0|8,3:0|0:0,0:0:0:0:
116,348,93288,5,0,1:0:0:0:
160,320,93502,2,0,L|152:256,2,50,2|8|0,0:0|0:0|3:0,0:0:0:0:
212,316,94145,2,0,P|264:304|320:320,1,100,2|8,0:0|0:0,0:0:0:0:
360,320,94788,2,0,L|368:264,1,50,2|0,0:0|1:0,0:0:0:0:
380,220,95217,1,8,0:0:0:0:
388,172,95431,1,8,0:0:0:0:
404,72,95859,2,0,L|344:80,1,50,0|0,3:0|3:0,0:0:0:0:
308,96,96288,2,0,L|256:92,1,50,8|0,0:0|3:0,0:0:0:0:
216,68,96717,5,4,1:2:0:0:
124,108,97145,1,8,0:0:0:0:
76,128,97359,2,0,L|68:232,1,100,0|0,3:0|3:0,0:0:0:0:
64,276,98002,2,0,L|120:280,1,50,8|2,0:0|0:0,0:0:0:0:
164,288,98431,1,0,1:0:0:0:
256,248,98859,1,8,0:0:0:0:
344,204,99288,2,0,P|404:212|444:252,1,100,2|8,0:0|0:0,0:0:0:0:
495,314,100145,5,0,1:0:0:0:
445,322,100359,2,0,L|449:378,2,50,2|8|0,0:0|0:0|3:0,0:0:0:0:
395,328,101002,2,0,L|324:343,1,50,2|0,0:0|3:0,0:0:0:0:
302,313,101431,2,0,L|241:305,1,50,8|2,0:0|0:0,0:0:0:0:
204,319,101859,6,0,P|181:272|205:213,1,100,0|8,1:0|0:0,0:0:0:0:
252,169,102717,2,0,P|265:115|246:68,1,100,2|8,0:0|0:0,0:0:0:0:
227,30,103359,2,0,B|195:26|195:26|159:35|159:35|120:28,1,100,2|2,0:0|0:0,0:0:0:0:
87,58,104002,2,0,L|116:116,1,50,8|0,0:0|3:0,0:0:0:0:
143,139,104431,1,2,0:0:0:0:
85,220,104859,2,0,L|145:244,1,50,8|2,0:0|0:0,0:0:0:0:
164,276,105288,6,0,L|222:253,1,50,0|2,1:0|0:0,0:0:0:0:
259,266,105717,1,8,0:0:0:0:
346,246,106145,2,0,L|357:177,1,50,2|0,0:0|3:0,0:0:0:0:
395,167,106574,2,0,L|381:101,1,50,8|2,0:0|0:0,0:0:0:0:
413,77,107002,2,0,B|360:53|314:90,1,100,0|8,1:0|0:0,0:0:0:0:
276,177,107859,2,0,L|206:196,1,50,2|0,0:0|3:0,0:0:0:0:
202,233,108288,2,0,L|143:219,1,50,8|2,0:0|0:0,0:0:0:0:
115,253,108717,6,0,L|31:190,1,100,4|2,1:2|0:0,0:0:0:0:
23,144,109359,2,0,L|36:45,1,100,0|2,3:0|0:0,0:0:0:0:
82,25,110002,1,8,0:0:0:0:
194,59,110431,6,0,L|206:173,1,100,4|8,1:2|0:0,0:0:0:0:
249,179,111074,1,0,3:0:0:0:
295,197,111288,2,0,L|348:180,1,50,2|0,0:0|0:0,0:0:0:0:
386,206,111717,1,8,0:0:0:0:
327,286,112145,1,0,1:0:0:0:
295,324,112359,2,0,L|189:307,1,100,2|0,0:0|3:0,0:0:0:0:
146,301,113002,2,0,L|124:235,2,50,2|0|8,0:0|0:0|0:0,0:0:0:0:
211,225,113859,5,0,1:0:0:0:
246,189,114074,2,0,L|256:128,1,50,2|8,0:0|0:0,0:0:0:0:
287,102,114502,1,0,3:0:0:0:
336,111,114717,2,0,L|394:96,1,50,2|0,0:0|3:0,0:0:0:0:
431,114,115145,1,8,0:0:0:0:
496,189,115574,2,0,L|484:288,1,100,0|8,1:0|0:0,0:0:0:0:
439,311,116217,1,0,3:0:0:0:
394,333,116431,2,0,L|345:284,2,50,0|0|8,0:0|3:0|0:0,0:0:0:0:
302,373,117288,6,0,L|272:269,1,100,0|8,1:0|0:0,0:0:0:0:
304,236,117931,1,0,3:0:0:0:
341,203,118145,2,0,L|352:154,1,50,2|0,0:0|0:0,0:0:0:0:
318,116,118574,1,8,0:0:0:0:
243,49,119002,2,0,L|146:76,1,100,0|8,1:0|0:0,0:0:0:0:
98,91,119645,1,0,3:0:0:0:
50,105,119859,2,0,L|-3:82,2,50,2|0|8,0:0|3:0|0:0,0:0:0:0:
46,205,120717,6,0,L|148:173,1,100,4|8,1:2|0:0,0:0:0:0:
189,160,121359,2,0,L|254:243,1,100,0|0,3:0|3:0,0:0:0:0:
284,275,122002,1,8,0:0:0:0:
373,231,122431,1,0,1:0:0:0:
419,213,122645,2,0,L|317:183,1,100,0|0,1:0|1:0,0:0:0:0:
294,143,123288,2,0,L|237:154,1,50,8|0,0:0|3:0,0:0:0:0:
202,126,123717,1,8,0:0:0:0:
105,152,124145,6,0,L|145:61,1,100,4|8,1:2|0:0,0:0:0:0:
172,18,124788,2,0,B|120:11|120:11|80:42,2,100,0|0|2,3:0|3:0|0:0,0:0:0:0:
221,27,125859,2,0,L|294:114,1,100,0|8,1:0|0:0,0:0:0:0:
333,117,126502,1,0,3:0:0:0:
382,126,126717,2,0,L|342:178,2,50,2|0|8,0:0|3:0|0:0,0:0:0:0:
479,156,127574,6,0,L|499:259,1,100,0|8,1:0|0:0,0:0:0:0:
457,283,128217,2,0,B|412:261|412:261|360:277,2,100,0|0|2,3:0|3:0|0:0,0:0:0:0:
484,324,129288,2,0,L|380:364,1,100,0|8,1:0|0:0,0:0:0:0:
341,368,129931,1,0,3:0:0:0:
292,378,130145,2,0,L|234:340,1,50,2|0,0:0|3:0,0:0:0:0:
231,304,130574,1,8,0:0:0:0:
200,208,131002,6,0,L|94:232,1,100,0|8,1:0|0:0,0:0:0:0:
54,214,131645,2,0,B|32:257|32:257|55:303,2,100,0|0|2,3:0|3:0|0:0,0:0:0:0:
27,171,132717,1,0,1:0:0:0:
16,79,133145,2,0,L|74:57,1,50,8|0,0:0|3:0,0:0:0:0:
111,74,133574,1,2,0:0:0:0:
152,46,133788,1,0,3:0:0:0:
251,59,134217,6,0,L|318:70,1,50,2|0,0:0|1:0,0:0:0:0:
349,73,134645,2,0,L|370:18,2,50,2|8|0,0:0|0:0|3:0,0:0:0:0:
396,90,135288,2,0,L|417:151,1,50,2|0,0:0|3:0,0:0:0:0:
432,183,135717,1,8,0:0:0:0:
372,257,136145,1,0,1:0:0:0:
329,230,136359,2,0,L|263:245,1,50,2|8,0:0|0:0,0:0:0:0:
234,221,136788,1,2,0:0:0:0:
188,200,137002,2,0,L|120:215,2,50,4|8|0,3:2|0:2|1:0,0:0:0:0:
226,107,137859,6,0,L|156:31,1,100,4|8,1:2|0:0,0:0:0:0:
112,13,138502,2,0,B|109:49|109:49|94:73|94:73|90:112,1,100,0|0,3:0|3:0,0:0:0:0:
50,138,139145,1,8,0:0:0:0:
103,222,139574,2,0,L|212:243,1,100,0|8,1:0|0:0,0:0:0:0:
245,265,140217,2,0,L|354:247,1,100,0|0,3:0|3:0,0:0:0:0:
381,215,140859,1,8,0:0:0:0:
473,252,141288,6,0,B|490:205|490:205|471:158,1,100,0|8,1:0|0:0,0:0:0:0:
476,108,141931,2,0,B|437:75|437:75|386:77,1,100,0|0,3:0|3:0,0:0:0:0:
348,46,142574,1,8,0:0:0:0:
262,97,143002,1,0,1:0:0:0:
204,14,143431,1,8,0:0:0:0:
110,42,143859,2,0,L|53:55,1,50,2|0,0:0|3:0,0:0:0:0:
25,87,144288,1,8,0:0:0:0:
50,129,144502,1,2,0:0:0:0:
17,167,144717,6,0,L|125:202,1,100,4|8,1:2|0:0,0:0:0:0:
154,171,145359,2,0,L|261:149,1,100,0|0,0:0|3:0,0:0:0:0:
299,167,146002,1,8,0:0:0:0:
389,119,146431,2,0,B|408:165|408:165|388:212,1,100,0|8,1:0|0:0,0:0:0:0:
368,258,147074,2,0,L|478:238,2,100,0|0|2,3:0|3:0|0:0,0:0:0:0:
334,295,148145,6,0,L|270:326,1,50,0|2,1:0|0:0,0:0:0:0:
245,291,148574,2,0,L|176:277,1,50,8|0,0:0|3:0,0:0:0:0:
149,298,149002,2,0,L|83:317,2,50,2|0|12,0:0|3:0|0:2,0:0:0:0:
93,214,149859,2,0,L|77:115,1,100,0|8,1:0|0:0,0:0:0:0:
119,87,150502,1,2,0:0:0:0:
164,65,150717,2,0,L|214:40,2,50,8|8|8,0:0|0:0|0:0,0:0:0:0:
254,118,151574,6,0,L|373:84,1,104.999996795654,4|8,1:2|0:0,0:0:0:0:
399,116,152217,2,0,B|456:141|456:141|476:183,2,104.999996795654,0|0|2,3:0|3:0|0:0,0:0:0:0:
386,166,153288,2,0,L|365:268,1,104.999996795654,4|8,1:2|0:0,0:0:0:0:
409,298,153931,1,0,3:0:0:0:
456,320,154145,2,0,L|488:364,2,52.4999983978272,2|0|8,0:0|3:0|0:0,0:0:0:0:
485,219,155002,6,0,B|446:227|446:227|430:244|430:244|382:255,1,104.999996795654,4|8,1:2|0:0,0:0:0:0:
344,226,155645,2,0,P|365:273|328:314,2,104.999996795654,0|0|2,3:0|3:0|0:0,0:0:0:0:
310,185,156717,2,0,L|200:205,1,104.999996795654,4|8,1:2|0:0,0:0:0:0:
171,165,157359,1,0,3:0:0:0:
129,131,157574,2,0,L|116:187,1,52.4999983978272,2|0,0:0|3:0,0:0:0:0:
70,205,158002,1,12,0:2:0:0:
9,291,158431,6,0,L|120:327,1,104.999996795654,4|8,1:2|0:0,0:0:0:0:
159,337,159074,2,0,B|124:371|124:371|67:382,2,104.999996795654,0|0|2,3:0|3:0|0:0,0:0:0:0:
186,292,160145,1,4,1:2:0:0:
286,324,160574,2,0,L|350:305,1,52.4999983978272,8|0,0:0|3:0,0:0:0:0:
385,328,161002,1,2,0:0:0:0:
434,345,161217,1,0,3:0:0:0:
464,302,161431,1,8,0:0:0:0:
424,204,161859,5,4,1:2:0:0:
404,155,162074,2,0,L|452:119,2,52.4999983978272,0|8|0,0:0|0:0|3:0,0:0:0:0:
379,108,162717,2,0,L|324:90,1,52.4999983978272,2|0,0:0|3:0,0:0:0:0:
299,48,163145,1,8,0:0:0:0:
199,83,163574,2,0,L|136:101,1,52.4999983978272,0|0,1:0|3:0,0:0:0:0:
102,72,164002,2,0,L|84:128,1,52.4999983978272,8|0,0:0|3:0,0:0:0:0:
43,152,164431,1,0,3:0:0:0:
104,237,164859,1,8,0:0:0:0:
58,263,165074,1,0,3:0:0:0:
16,290,165288,6,0,L|97:372,1,104.999996795654,4|8,1:2|0:0,0:0:0:0:
137,341,165931,1,0,3:0:0:0:
184,318,166145,2,0,L|197:251,2,52.4999983978272,2|0|8,0:0|3:0|0:0,0:0:0:0:
286,340,167002,2,0,L|393:296,1,104.999996795654,4|8,1:2|0:0,0:0:0:0:
432,319,167645,1,0,3:0:0:0:
481,336,167859,2,0,L|508:273,1,52.4999983978272,2|0,0:0|3:0,0:0:0:0:
475,242,168288,1,8,0:0:0:0:
436,144,168717,5,4,1:2:0:0:
384,154,168931,2,0,L|370:97,2,52.4999983978272,2|8|0,0:0|0:0|3:0,0:0:0:0:
333,170,169574,2,0,L|273:153,1,52.4999983978272,2|0,0:0|3:0,0:0:0:0:
241,123,170002,2,0,L|171:139,1,52.4999983978272,8|2,0:0|0:0,0:0:0:0:
165,181,170431,2,0,L|112:90,1,104.999996795654,4|8,1:2|0:0,0:0:0:0:
86,44,171074,2,0,B|73:92|73:92|25:144,1,104.999996795654,0|0,3:0|3:0,0:0:0:0:
17,182,171717,1,8,0:0:0:0:
88,258,172145,6,0,L|191:234,1,104.999996795654,4|8,1:2|0:0,0:0:0:0:
239,253,172788,1,0,3:0:0:0:
286,275,173002,2,0,L|302:337,2,52.4999983978272,2|0|8,0:0|3:0|0:0,0:0:0:0:
361,201,173859,2,0,B|368:172|368:172|391:149|391:149|401:103,1,104.999996795654,4|8,1:2|0:0,0:0:0:0:
358,75,174502,1,0,3:0:0:0:
312,47,174717,2,0,L|254:58,1,52.4999983978272,2|0,0:0|3:0,0:0:0:0:
215,23,175145,1,8,0:0:0:0:
144,94,175574,6,0,B|121:136|121:136|145:181|145:181|121:226,1,150,12|8,1:2|1:2,0:0:0:0:
120,226,177502,2,0,P|158:196|201:219,1,100,12|8,1:2|1:2,0:0:0:0:
190,266,178145,1,8,1:2:0:0:
