osu file format v14

[General]
AudioFilename: audio.mp3
AudioLeadIn: 0
PreviewTime: 96609
Countdown: 0
SampleSet: Soft
StackLeniency: 0.5
Mode: 0
LetterboxInBreaks: 0
WidescreenStoryboard: 1

[Editor]
Bookmarks: 24717,110431
DistanceSpacing: 1
BeatDivisor: 4
GridSize: 4
TimelineZoom: 1

[Metadata]
Title:This December
TitleUnicode:This December
Artist:Ricky Montgomery
ArtistUnicode:Ricky Montgomery
Creator:jiebi
Version:Collab Hard
Source:osu!
Tags:alternative rock indie the honeysticks english xenon- xehn xen gibee games astronic featured artist fa
BeatmapID:2446831
BeatmapSetID:1173192

[Difficulty]
HPDrainRate:4
CircleSize:4.2
OverallDifficulty:6
ApproachRate:7.8
SliderMultiplier:1.5
SliderTickRate:1

[Events]
//Background and Video events
0,0,"bg.jpg",0,0
//Break Periods
//Storyboard Layer 0 (Background)
//Storyboard Layer 1 (Fail)
//Storyboard Layer 2 (Pass)
//Storyboard Layer 3 (Foreground)
//Storyboard Layer 4 (Overlay)
//Storyboard Sound Samples

[TimingPoints]
717,428.571428571429,4,2,2,60,1,0
24717,-142.857142857143,4,2,2,60,0,0
28145,-142.857142857143,4,2,2,70,0,0
55574,-142.857142857143,4,2,2,80,0,0
69288,-142.857142857143,4,2,2,70,0,0
83002,-142.857142857143,4,2,2,60,0,0
96717,-142.857142857143,4,2,2,80,0,0
110431,-125,4,2,2,70,0,0
124145,-125,4,2,2,80,0,0
124467,-125,4,2,2,5,0,0
124574,-125,4,2,2,80,0,0
127895,-125,4,2,2,5,0,0
128002,-125,4,2,2,80,0,0
137859,-125,4,2,2,70,0,0
148145,-125,4,2,2,74,0,0
149002,-125,4,2,2,78,0,0
149859,-125,4,2,2,82,0,0
150717,-125,4,2,2,86,0,0
151574,-111.111111111111,4,2,2,90,0,0
151895,-111.111111111111,4,2,2,5,0,0
152002,-111.111111111111,4,2,2,90,0,0
165288,-111.111111111111,4,2,2,70,0,0
175574,-111.111111111111,4,2,2,90,0,0

[Colours]
Combo1 : 255,128,255
Combo2 : 255,128,128
Combo3 : 255,128,0
Combo4 : 255,255,128
Combo5 : 0,255,128
Combo6 : 0,128,255

[HitObjects]
140,71,24717,5,2,0:0:0:0:
140,71,25359,1,2,0:0:0:0:
140,71,26645,2,0,L|245:54,1,104.999996795654,2|2,0:0|0:0,0:0:0:0:
306,102,27288,1,2,0:0:0:0:
307,102,28145,6,0,B|298:138|298:138|305:167|305:167|296:205,1,104.999996795654,4|8,1:2|0:0,0:0:0:0:
334,273,28788,2,0,P|290:247|241:268,1,104.999996795654,0|0,3:0|3:0,0:0:0:0:
178,311,29431,1,8,0:0:0:0:
109,273,29645,1,0,0:0:0:0:
44,318,29859,5,0,1:0:0:0:
0,161,30288,2,0,L|56:148,1,52.4999983978272,8|0,0:0|3:0,0:0:0:0:
108,95,30717,2,0,B|145:102|145:102|168:117|168:117|210:126,1,104.999996795654,2|8,0:0|0:0,0:0:0:0:
340,41,31574,6,0,L|352:95,1,52.4999983978272,0|0,1:0|0:0,0:0:0:0:
423,124,32002,2,0,L|405:191,1,52.4999983978272,8|0,0:0|3:0,0:0:0:0:
456,237,32431,2,0,B|407:221|407:221|358:248,1,104.999996795654,2|8,0:0|0:0,0:0:0:0:
303,302,33074,1,2,0:0:0:0:
233,264,33288,5,0,1:0:0:0:
89,328,33717,1,8,0:0:0:0:
47,261,33931,1,0,3:0:0:0:
107,210,34145,2,0,L|96:152,1,52.4999983978272,2|0,0:0|3:0,0:0:0:0:
46,98,34574,1,8,0:0:0:0:
112,55,34788,1,0,0:0:0:0:
163,114,35002,6,0,B|200:119|200:119|221:132|221:132|266:139,1,104.999996795654,0|8,1:0|0:0,0:0:0:0:
331,97,35645,1,0,3:0:0:0:
387,152,35859,2,0,L|361:202,1,52.4999983978272,2|0,0:0|3:0,0:0:0:0:
412,260,36288,1,8,0:0:0:0:
348,306,36502,1,2,0:0:0:0:
295,246,36717,6,0,B|232:253|232:253|200:283,1,104.999996795654,0|8,1:0|0:0,0:0:0:0:
156,345,37359,1,0,3:0:0:0:
86,308,37574,1,2,0:0:0:0:
12,335,37788,2,0,L|0:264,1,52.4999983978272,0|8,3:0|0:0,0:0:0:0:
49,219,38217,1,2,0:0:0:0:
100,159,38431,6,0,B|134:164|134:164|162:179|162:179|202:187,1,104.999996795654,0|8,1:0|0:0,0:0:0:0:
325,90,39288,1,2,0:0:0:0:
392,130,39502,2,0,L|461:113,2,52.4999983978272,0|8|2,3:0|0:0|0:0,0:0:0:0:
341,190,40145,6,0,B|369:248|369:248|351:304,1,104.999996795654,0|8,1:0|0:0,0:0:0:0:
286,323,40788,2,0,B|249:317|249:317|221:324|221:324|180:316,1,104.999996795654,0|0,3:0|3:2,0:0:0:0:
113,354,41431,1,8,0:0:0:0:
53,302,41645,1,2,0:0:0:0:
120,261,41859,6,0,L|105:145,1,104.999996795654,4|8,1:2|0:0,0:0:0:0:
55,104,42502,1,0,3:0:0:0:
117,55,42717,2,0,L|181:69,1,52.4999983978272,2|0,0:0|0:0,0:0:0:0:
227,118,43145,2,0,L|300:104,1,52.4999983978272,8|0,0:0|0:0,0:0:0:0:
343,63,43574,5,0,1:0:0:0:
393,123,43788,2,0,B|398:159|398:159|390:190|390:190|396:232,1,104.999996795654,2|0,0:0|3:0,0:0:0:0:
452,280,44431,2,0,L|391:325,1,52.4999983978272,2|0,0:0|0:0,0:0:0:0:
335,285,44859,1,8,0:0:0:0:
190,348,45288,5,0,1:0:0:0:
130,296,45502,2,0,L|64:309,2,52.4999983978272,2|8|0,0:0|0:0|3:0,0:0:0:0:
173,230,46145,1,2,0:0:0:0:
112,179,46359,1,0,3:0:0:0:
162,117,46574,2,0,L|231:131,1,52.4999983978272,8|2,0:0|0:0,0:0:0:0:
276,174,47002,6,0,B|313:170|313:170|338:156|338:156|386:150,1,104.999996795654,0|8,1:0|0:0,0:0:0:0:
439,103,47645,2,0,L|460:173,1,52.4999983978272,0|0,3:0|0:0,0:0:0:0:
507,211,48074,2,0,L|462:260,1,52.4999983978272,0|8,3:0|0:0,0:0:0:0:
453,326,48502,1,2,0:0:0:0:
375,312,48717,6,0,B|336:320|336:320|316:336|316:336|273:345,1,104.999996795654,0|8,1:0|0:0,0:0:0:0:
155,243,49574,2,0,L|135:298,2,52.4999983978272,2|0|8,0:0|0:0|0:0,0:0:0:0:
109,178,50217,1,0,0:0:0:0:
175,135,50431,6,0,L|295:153,1,104.999996795654,0|8,1:0|0:0,0:0:0:0:
347,190,51074,1,0,3:0:0:0:
394,126,51288,2,0,L|382:58,2,52.4999983978272,2|0|8,0:0|3:0|0:0,0:0:0:0:
493,247,52145,6,0,B|454:255|454:255|430:271|430:271|384:280,1,104.999996795654,4|8,1:2|0:0,0:0:0:0:
336,331,52788,1,0,1:0:0:0:
273,291,53002,1,2,0:0:0:0:
273,291,53109,1,0,3:0:0:0:
273,291,53217,1,0,3:0:0:0:
217,347,53431,1,8,0:0:0:0:
142,322,53645,1,2,0:0:0:0:
142,322,53752,1,0,3:0:0:0:
142,322,53859,5,0,1:0:0:0:
76,365,54074,2,0,L|43:304,1,52.4999983978272,0|8,3:0|0:0,0:0:0:0:
89,257,54502,1,0,1:0:0:0:
41,194,54717,1,8,0:0:0:0:
103,146,54931,1,8,0:0:0:0:
164,96,55145,2,0,L|154:59,2,26.2499991989136,8|8|0,0:0|0:0|3:0,0:0:0:0:
193,180,55574,6,0,L|295:133,1,104.999996795654,4|8,1:2|0:0,0:0:0:0:
327,69,56217,2,0,L|277:50,1,52.4999983978272,0|0,3:0|0:0,0:0:0:0:
214,4,56645,2,0,L|172:67,1,52.4999983978272,0|8,3:0|0:0,0:0:0:0:
114,83,57074,1,2,0:0:0:0:
43,118,57288,6,0,B|56:178|56:178|42:219,1,104.999996795654,0|8,1:0|0:0,0:0:0:0:
94,278,57931,1,0,3:0:0:0:
147,335,58145,2,0,L|207:311,1,52.4999983978272,0|0,0:0|3:0,0:0:0:0:
244,253,58574,2,0,L|302:273,1,52.4999983978272,8|0,0:0|0:0,0:0:0:0:
356,317,59002,6,0,B|378:261|378:261|365:214,1,104.999996795654,0|8,1:0|0:0,0:0:0:0:
314,158,59645,2,0,L|357:117,1,52.4999983978272,0|0,3:0|0:0,0:0:0:0:
320,49,60074,2,0,L|392:38,1,52.4999983978272,0|8,3:0|0:0,0:0:0:0:
439,1,60502,1,2,0:0:0:0:
489,61,60717,6,0,B|482:99|482:99|464:122|464:122|456:159,1,104.999996795654,0|8,1:0|0:0,0:0:0:0:
383,188,61359,2,0,P|355:224|381:274,2,104.999996795654,0|0|2,3:0|3:0|0:0,0:0:0:0:
445,236,62431,6,0,B|459:300|459:300|442:342,1,104.999996795654,0|8,1:0|0:0,0:0:0:0:
372,368,63074,2,0,P|324:343|290:376,2,104.999996795654,0|0|2,3:0|3:0|0:0,0:0:0:0:
325,304,64145,6,0,B|286:310|286:310|265:323|265:323|222:330,1,104.999996795654,0|8,1:0|0:0,0:0:0:0:
160,283,64788,1,0,3:0:0:0:
102,336,65002,2,0,L|46:314,1,52.4999983978272,0|0,0:0|3:0,0:0:0:0:
34,239,65431,2,0,L|21:169,1,52.4999983978272,8|2,0:0|0:0,0:0:0:0:
80,132,65859,5,0,1:0:0:0:
154,157,66074,2,0,L|167:88,2,52.4999983978272,2|8|0,0:0|0:0|3:0,0:0:0:0:
228,184,66717,2,0,L|299:165,1,52.4999983978272,0|0,0:0|3:0,0:0:0:0:
329,110,67145,1,8,0:0:0:0:
468,183,67574,5,0,1:0:0:0:
498,110,67788,2,0,L|486:49,2,52.4999983978272,2|12|2,0:0|0:2|0:0,0:0:0:0:
464,100,68324,1,0,3:0:0:0:
464,100,68431,1,0,1:0:0:0:
391,70,68645,1,0,3:0:0:0:
342,133,68859,1,8,0:0:0:0:
342,133,68967,1,0,3:0:0:0:
342,133,69074,1,2,0:0:0:0:
263,71,69288,6,0,B|224:78|224:78|204:92|204:92|163:99,1,104.999996795654,4|8,1:2|0:0,0:0:0:0:
87,77,69931,2,0,L|26:94,1,52.4999983978272,0|0,3:0|0:0,0:0:0:0:
5,163,70359,2,0,L|55:177,1,52.4999983978272,0|8,3:0|0:0,0:0:0:0:
107,236,70788,1,2,0:0:0:0:
159,294,71002,6,0,B|142:234|142:234|156:191,1,104.999996795654,0|8,1:0|0:0,0:0:0:0:
233,181,71645,2,0,L|215:114,1,52.4999983978272,0|0,3:0|0:0,0:0:0:0:
151,89,72074,2,0,L|195:38,1,52.4999983978272,0|8,3:0|0:0,0:0:0:0:
255,13,72502,1,2,0:0:0:0:
308,71,72717,6,0,B|344:66|344:66|372:75|372:75|412:68,1,104.999996795654,0|8,1:0|0:0,0:0:0:0:
477,27,73359,2,0,L|506:77,1,52.4999983978272,0|0,3:0|0:0,0:0:0:0:
452,132,73788,2,0,L|436:199,1,52.4999983978272,0|8,3:0|0:0,0:0:0:0:
494,239,74217,1,2,0:0:0:0:
430,285,74431,2,0,L|367:264,1,52.4999983978272,0|0,1:0|0:0,0:0:0:0:
337,202,74859,6,0,L|264:222,1,52.4999983978272,8|0,0:0|0:0,0:0:0:0:
218,256,75288,2,0,B|190:198|190:198|148:176,1,104.999996795654,0|8,0:0|0:0,0:0:0:0:
105,116,75931,1,2,0:0:0:0:
35,152,76145,6,0,B|40:188|40:188|54:206|54:206|62:256,1,104.999996795654,0|8,1:0|0:0,0:0:0:0:
28,323,76788,2,0,P|70:289|110:318,1,104.999996795654,0|0,3:0|3:0,0:0:0:0:
177,348,77431,1,8,0:0:0:0:
219,282,77645,1,2,0:0:0:0:
292,310,77859,6,0,B|343:285|343:285|360:240,1,104.999996795654,0|8,1:0|0:0,0:0:0:0:
417,186,78502,2,0,L|358:153,1,52.4999983978272,0|0,3:0|0:0,0:0:0:0:
315,103,78931,2,0,L|251:122,1,52.4999983978272,0|8,3:0|0:0,0:0:0:0:
204,169,79359,1,2,0:0:0:0:
133,133,79574,6,0,B|127:172|127:172|114:195|114:195|108:239,1,104.999996795654,4|8,1:2|0:0,0:0:0:0:
44,279,80217,1,0,3:0:0:0:
94,339,80431,2,0,B|158:325|158:325|209:341,1,104.999996795654,0|12,0:0|0:2,0:0:0:0:
254,291,81074,1,0,1:0:0:0:
317,328,81288,6,0,L|338:349,4,26.2499991989136,8|0|0|0|4,0:0|3:0|3:0|3:0|1:2,0:0:0:0:
366,272,81931,2,0,L|378:239,4,26.2499991989136,0|0|0|0|4,3:0|3:0|3:0|3:0|1:2,0:0:0:0:
431,306,82574,1,8,0:0:0:0:
471,244,82788,1,0,3:0:0:0:
471,244,82895,1,0,3:0:0:0:
471,244,83002,6,0,L|462:184,1,52.4999983978272,4|0,1:2|0:0,0:0:0:0:
494,125,83431,2,0,L|449:87,1,52.4999983978272,8|0,0:0|3:0,0:0:0:0:
473,20,83859,2,0,L|403:9,1,52.4999983978272,2|0,0:0|3:0,0:0:0:0:
363,57,84288,2,0,L|299:68,1,52.4999983978272,8|0,0:0|0:0,0:0:0:0:
256,16,84717,5,0,1:0:0:0:
191,51,84931,2,0,L|202:116,1,52.4999983978272,2|8,0:0|0:0,0:0:0:0:
140,145,85359,2,0,L|125:217,2,52.4999983978272,0|2|0,3:0|0:0|3:0,0:0:0:0:
66,151,86002,6,0,L|12:193,1,52.4999983978272,8|0,0:0|0:0,0:0:0:0:
9,255,86431,2,0,B|48:263|48:263|70:277|70:277|116:286,1,104.999996795654,0|8,1:0|0:0,0:0:0:0:
168,326,87074,1,0,3:0:0:0:
231,288,87288,2,0,B|295:271|295:271|343:283,1,104.999996795654,2|8,0:0|0:0,0:0:0:0:
476,312,88145,6,0,L|460:199,1,104.999996795654,0|8,1:0|0:0,0:0:0:0:
503,147,88788,1,0,3:0:0:0:
503,147,88895,1,2,0:0:0:0:
503,147,89002,2,0,L|454:120,1,52.4999983978272,2|0,0:0|3:0,0:0:0:0:
411,63,89431,2,0,L|343:84,1,52.4999983978272,8|0,0:0|0:0,0:0:0:0:
295,45,89859,5,0,1:0:0:0:
328,144,90288,2,0,L|342:204,1,52.4999983978272,8|0,0:0|3:0,0:0:0:0:
397,240,90717,2,0,L|383:315,1,52.4999983978272,2|0,0:0|3:0,0:0:0:0:
327,333,91145,2,0,L|269:307,1,52.4999983978272,8|0,0:0|0:0,0:0:0:0:
216,350,91574,5,0,1:0:0:0:
77,300,92002,1,8,0:0:0:0:
125,244,92217,2,0,L|146:178,1,52.4999983978272,0|2,3:0|0:0,0:0:0:0:
86,145,92645,1,0,3:0:0:0:
29,98,92859,2,0,L|14:43,1,52.4999983978272,8|0,0:0|0:0,0:0:0:0:
74,4,93288,5,0,1:0:0:0:
135,43,93502,2,0,L|193:30,2,52.4999983978272,2|8|0,0:0|0:0|3:0,0:0:0:0:
172,106,94145,2,0,L|146:161,2,52.4999983978272,2|0|8,0:0|3:0|0:0,0:0:0:0:
241,82,94788,1,2,0:0:0:0:
291,135,95002,5,0,1:0:0:0:
257,200,95217,1,8,0:0:0:0:
309,251,95431,1,8,0:0:0:0:
252,294,95645,1,2,0:0:0:0:
252,294,95752,1,0,3:0:0:0:
252,294,95859,1,0,3:0:0:0:
184,263,96074,1,0,3:0:0:0:
134,317,96288,2,0,L|93:332,3,26.2499991989136,8|0|0|0,0:0|3:0|3:0|3:0,0:0:0:0:
74,337,96717,6,0,B|35:299|35:299|46:233,1,104.999996795654,4|8,1:2|0:0,0:0:0:0:
102,212,97359,2,0,L|87:150,1,52.4999983978272,0|0,3:0|0:0,0:0:0:0:
35,111,97788,2,0,L|87:73,1,52.4999983978272,0|8,3:0|0:0,0:0:0:0:
126,25,98217,1,2,0:0:0:0:
194,51,98431,5,0,1:0:0:0:
334,94,98859,2,0,L|381:57,1,52.4999983978272,8|0,0:0|3:0,0:0:0:0:
444,87,99288,2,0,L|424:155,1,52.4999983978272,2|0,0:0|3:0,0:0:0:0:
358,170,99717,2,0,L|375:242,1,52.4999983978272,8|0,0:0|0:0,0:0:0:0:
423,271,100145,5,0,1:0:0:0:
384,333,100359,2,0,L|441:376,2,52.4999983978272,2|8|0,0:0|0:0|3:0,0:0:0:0:
310,322,101002,2,0,L|248:346,1,52.4999983978272,2|0,0:0|3:0,0:0:0:0:
196,305,101431,2,0,L|139:291,1,52.4999983978272,8|2,0:0|0:0,0:0:0:0:
81,329,101859,6,0,B|66:263|66:263|82:222,1,104.999996795654,0|8,1:0|0:0,0:0:0:0:
149,205,102502,1,0,3:0:0:0:
219,182,102717,2,0,B|223:144|223:144|237:119|237:119|243:76,1,104.999996795654,2|8,0:0|0:0,0:0:0:0:
201,14,103359,1,2,0:0:0:0:
279,1,103574,6,0,L|334:16,1,52.4999983978272,4|2,1:2|0:0,0:0:0:0:
372,81,104002,2,0,L|300:102,1,52.4999983978272,8|0,0:0|3:0,0:0:0:0:
280,162,104431,2,0,L|389:183,1,104.999996795654,2|8,0:0|0:0,0:0:0:0:
443,232,105074,1,2,0:0:0:0:
389,286,105288,6,0,L|327:264,1,52.4999983978272,0|2,1:0|0:0,0:0:0:0:
290,213,105717,2,0,L|229:231,1,52.4999983978272,8|0,0:0|3:0,0:0:0:0:
184,276,106145,1,2,0:0:0:0:
120,239,106359,1,0,3:0:0:0:
50,264,106574,2,0,L|22:203,1,52.4999983978272,8|2,0:0|0:0,0:0:0:0:
40,143,107002,6,0,B|47:106|47:106|64:86|64:86|72:46,2,104.999996795654,0|8|2,1:0|0:0|0:0,0:0:0:0:
111,159,108074,1,0,3:0:0:0:
182,175,108288,1,8,0:0:0:0:
228,118,108502,1,2,0:0:0:0:
290,156,108717,5,4,1:2:0:0:
355,123,108931,2,0,B|372:200,1,78.7499975967408,0|0,3:0|3:0,0:0:0:0:
382,235,109359,1,0,3:0:0:0:
328,285,109574,2,0,L|265:268,1,52.4999983978272,0|2,3:0|0:0,0:0:0:0:
242,289,109895,1,8,3:2:0:0:
242,289,110002,2,0,L|205:278,1,26.2499991989136,8|8,0:0|3:2,0:0:0:0:
49,267,110431,6,0,P|25:211|53:147,1,120,4|8,1:2|0:0,0:0:0:0:
100,96,111074,1,0,3:0:0:0:
156,36,111288,2,0,B|192:16|192:16|292:24,1,120,2|8,0:0|0:0,0:0:0:0:
436,40,112145,5,0,1:0:0:0:
484,112,112359,1,2,0:0:0:0:
432,176,112574,1,8,0:0:0:0:
480,244,112788,1,0,3:0:0:0:
428,308,113002,2,0,P|396:320|360:312,1,60,2|0,0:0|0:0,0:0:0:0:
300,272,113431,2,0,P|272:264|236:272,1,60,8|0,0:0|0:0,0:0:0:0:
164,304,113859,5,0,1:0:0:0:
100,248,114074,1,2,0:0:0:0:
152,180,114288,2,0,L|148:120,1,60,8|0,0:0|3:0,0:0:0:0:
140,36,114717,2,0,P|112:28|68:40,1,60,2|0,0:0|3:0,0:0:0:0:
16,84,115145,1,8,0:0:0:0:
20,168,115359,1,2,0:0:0:0:
28,252,115574,6,0,B|40:288|40:288|132:296,1,120,0|8,1:0|0:0,0:0:0:0:
192,344,116217,2,0,P|228:332|264:340,1,60,0|0,3:0|0:0,0:0:0:0:
332,356,116645,1,0,3:0:0:0:
404,312,116859,1,8,0:0:0:0:
404,312,116967,1,0,0:0:0:0:
404,312,117074,1,2,0:0:0:0:
472,264,117288,6,0,B|460:228|472:196|472:196|480:168|468:136,1,120,0|8,1:0|0:0,0:0:0:0:
336,44,118145,2,0,P|280:60|200:40,1,120,2|8,0:0|0:0,0:0:0:0:
140,20,118788,1,0,0:0:0:0:
72,72,119002,6,0,L|80:196,1,120,0|8,1:0|0:0,0:0:0:0:
88,276,119645,1,0,3:0:0:0:
164,308,119859,2,0,P|212:312|236:300,1,60,2|0,0:0|3:0,0:0:0:0:
260,232,120288,1,8,0:0:0:0:
260,232,120395,1,0,0:0:0:0:
260,232,120502,1,0,0:0:0:0:
304,144,120717,6,0,P|348:124|420:152,1,120,4|8,1:2|0:0,0:0:0:0:
448,220,121359,2,0,B|452:312|452:312|428:340,1,120,0|0,3:0|3:0,0:0:0:0:
360,376,122002,1,8,0:0:0:0:
228,272,122431,5,0,1:0:0:0:
156,316,122645,1,0,1:0:0:0:
156,316,122752,1,0,3:0:0:0:
156,316,122859,2,0,L|160:356,2,30,0|0|0,3:0|3:0|1:0,0:0:0:0:
84,276,123288,2,0,L|92:212,1,60,8|0,0:0|3:0,0:0:0:0:
156,160,123717,2,0,L|152:96,1,60,8|0,0:0|3:0,0:0:0:0:
144,0,124145,6,0,P|196:12|248:0,1,90,4|0,1:2|0:0,0:0:0:0:
272,4,124574,1,8,0:0:0:0:
328,64,124788,2,0,P|364:56|400:68,1,60,0|2,3:0|0:0,0:0:0:0:
432,132,125217,1,0,3:0:0:0:
396,208,125431,1,8,0:0:0:0:
440,280,125645,1,2,0:0:0:0:
384,340,125859,6,0,B|352:328|320:340|320:340|284:356|256:340,1,120,0|8,1:0|0:0,0:0:0:0:
192,304,126502,1,0,3:0:0:0:
108,312,126717,2,0,L|104:252,1,60,2|0,0:0|3:0,0:0:0:0:
36,204,127145,2,0,L|48:136,1,60,8|0,0:0|0:0,0:0:0:0:
60,60,127574,6,0,B|88:40|88:40|152:48,1,90,0|0,1:0|0:0,0:0:0:0:
184,60,128002,1,8,0:0:0:0:
232,132,128217,2,0,P|236:172|228:204,1,60,0|2,3:0|0:0,0:0:0:0:
196,268,128645,1,0,3:0:0:0:
248,332,128859,1,8,0:0:0:0:
320,288,129074,1,2,0:0:0:0:
384,344,129288,5,0,1:0:0:0:
468,196,129717,1,8,0:0:0:0:
512,124,129931,2,0,P|500:88|500:52,1,60,0|2,3:0|0:0,0:0:0:0:
432,16,130359,2,0,P|396:32|360:32,1,60,0|8,3:0|0:0,0:0:0:0:
296,8,130788,1,2,0:0:0:0:
260,84,131002,6,0,P|208:72|140:100,1,120,0|8,1:0|0:0,0:0:0:0:
80,148,131645,2,0,L|88:212,1,60,0|2,3:0|0:0,0:0:0:0:
164,244,132074,2,0,L|156:308,1,60,0|8,3:0|0:0,0:0:0:0:
216,360,132502,1,2,0:0:0:0:
288,316,132717,6,0,P|328:292|384:304,1,90,0|0,1:0|0:0,0:0:0:0:
408,308,133145,2,0,L|416:244,1,60,8|0,0:0|3:0,0:0:0:0:
492,216,133574,1,2,0:0:0:0:
492,216,133681,1,0,3:0:0:0:
492,216,133788,1,0,3:0:0:0:
460,140,134002,1,8,0:0:0:0:
420,64,134217,2,0,L|360:68,1,60,2|0,0:0|1:0,0:0:0:0:
284,32,134645,1,2,0:0:0:0:
212,76,134859,2,0,P|176:80|140:72,1,60,8|0,0:0|3:0,0:0:0:0:
76,108,135288,2,0,L|68:172,1,60,2|0,0:0|3:0,0:0:0:0:
16,232,135717,2,0,L|24:296,1,60,8|0,0:0|0:0,0:0:0:0:
64,364,136145,5,0,1:0:0:0:
144,340,136359,1,2,0:0:0:0:
224,316,136574,2,0,L|232:248,1,60,8|2,0:0|0:0,0:0:0:0:
304,216,137002,2,0,L|300:152,1,60,4|8,3:2|0:2,0:0:0:0:
292,72,137431,1,0,1:0:0:0:
292,72,137538,1,0,3:0:0:0:
292,72,137645,1,0,3:0:0:0:
376,16,137859,6,0,P|440:8|496:52,1,120,4|8,1:2|0:0,0:0:0:0:
500,124,138502,2,0,B|508:216|508:216|492:248,1,120,0|0,3:0|3:0,0:0:0:0:
444,308,139145,1,8,0:0:0:0:
364,280,139359,1,2,0:0:0:0:
364,280,139467,1,0,3:0:0:0:
364,280,139574,6,0,P|308:260|240:288,1,120,0|8,1:0|0:0,0:0:0:0:
180,324,140217,2,0,P|140:332|112:324,1,60,0|2,3:0|0:0,0:0:0:0:
48,284,140645,1,0,3:0:0:0:
48,284,140752,1,0,0:0:0:0:
48,284,140859,1,8,0:0:0:0:
100,216,141074,1,2,0:0:0:0:
60,144,141288,6,0,L|68:84,1,60,0|0,1:0|0:0,0:0:0:0:
120,20,141717,1,8,0:0:0:0:
188,72,141931,2,0,P|224:76|252:68,1,60,0|2,3:0|0:0,0:0:0:0:
316,24,142359,2,0,P|360:16|388:28,1,60,0|8,3:0|0:0,0:0:0:0:
452,56,142788,1,2,0:0:0:0:
452,56,142895,1,0,3:0:0:0:
452,56,143002,6,0,B|432:88|432:88|436:156,1,90,0|0,1:0|0:0,0:0:0:0:
440,184,143431,2,0,P|400:176|364:184,1,60,8|0,0:0|3:0,0:0:0:0:
304,212,143859,2,0,P|264:220|228:208,1,60,2|0,0:0|3:0,0:0:0:0:
172,172,144288,1,8,0:0:0:0:
96,204,144502,1,2,0:0:0:0:
96,204,144609,1,0,3:0:0:0:
96,204,144717,6,0,B|88:300|88:300|112:328,1,120,4|8,1:2|0:0,0:0:0:0:
260,376,145574,1,2,0:0:0:0:
320,316,145788,1,0,3:0:0:0:
400,340,146002,2,0,P|432:328|464:332,1,60,8|2,0:0|0:0,0:0:0:0:
504,260,146431,6,0,L|496:140,1,120,0|8,1:0|0:0,0:0:0:0:
488,56,147074,2,0,B|460:44|428:56|428:56|388:68|356:56,1,120,0|0,3:0|3:0,0:0:0:0:
296,20,147717,2,0,P|256:12|224:20,1,60,8|2,0:0|0:0,0:0:0:0:
180,76,148145,6,0,P|128:80|72:32,1,120,0|8,1:0|0:0,0:0:0:0:
12,96,148788,1,0,3:0:0:0:
56,168,149002,1,2,0:0:0:0:
56,168,149109,1,0,3:0:0:0:
56,168,149217,2,0,L|96:164,2,30,0|2|12,3:0|0:0|0:2,0:0:0:0:
20,244,149645,1,0,3:0:0:0:
60,320,149859,6,0,B|108:324|108:324|136:308|136:308|196:312,1,120,0|8,1:0|0:0,0:0:0:0:
260,316,150502,1,2,0:0:0:0:
316,244,150717,1,8,0:0:0:0:
245,170,150931,1,8,0:0:0:0:
275,62,151145,2,0,P|315:54|355:66,1,60,8|2,0:0|0:0,0:0:0:0:
464,114,151574,6,0,B|486:146|486:146|477:219,1,101.249996910095,4|0,1:2|0:0,0:0:0:0:
441,241,152002,1,8,0:0:0:0:
475,332,152217,2,0,L|403:342,1,67.4999979400635,0|2,3:0|0:0,0:0:0:0:
311,369,152645,2,0,L|240:360,1,67.4999979400635,0|8,3:0|0:0,0:0:0:0:
170,290,153074,1,2,0:0:0:0:
83,342,153288,6,0,L|71:205,1,134.999995880127,4|8,1:2|0:0,0:0:0:0:
28,126,153931,1,0,3:0:0:0:
28,126,154038,1,0,0:0:0:0:
28,126,154145,2,0,L|36:58,1,67.4999979400635,2|0,0:0|3:0,0:0:0:0:
120,2,154574,2,0,P|156:-6|192:2,1,67.4999979400635,8|0,0:0|0:0,0:0:0:0:
231,89,155002,6,0,P|283:111|351:65,1,134.999995880127,4|8,1:2|0:0,0:0:0:0:
414,0,155645,2,0,P|442:28|474:40,1,67.4999979400635,0|2,3:0|0:0,0:0:0:0:
508,104,156074,2,0,L|495:180,1,67.4999979400635,0|8,3:0|0:0,0:0:0:0:
432,249,156502,1,2,0:0:0:0:
432,249,156609,1,0,3:0:0:0:
432,249,156717,6,0,B|446:333|446:333|406:385,1,134.999995880127,4|8,1:2|0:0,0:0:0:0:
333,313,157359,2,0,P|301:309|257:313,1,67.4999979400635,0|2,3:0|0:0,0:0:0:0:
167,338,157788,1,0,3:0:0:0:
214,248,158002,1,12,0:2:0:0:
171,155,158217,1,2,0:0:0:0:
227,70,158431,5,4,1:2:0:0:
68,20,158859,1,8,0:0:0:0:
24,92,159074,1,0,3:0:0:0:
76,160,159288,1,2,0:0:0:0:
76,160,159395,1,0,3:0:0:0:
76,160,159502,2,0,P|80:200|72:232,1,67.4999979400635,0|8,3:0|0:0,0:0:0:0:
28,288,159931,1,2,0:0:0:0:
88,348,160145,5,4,1:2:0:0:
244,284,160574,2,0,P|280:280|312:292,1,67.4999979400635,8|0,0:0|3:0,0:0:0:0:
376,328,161002,1,2,0:0:0:0:
376,328,161109,1,0,3:0:0:0:
376,328,161217,2,0,P|408:332|440:320,1,67.4999979400635,0|8,3:0|0:0,0:0:0:0:
504,280,161645,1,2,0:0:0:0:
460,208,161859,5,4,1:2:0:0:
500,136,162074,1,0,0:0:0:0:
464,60,162288,2,0,L|394:69,1,67.4999979400635,8|0,0:0|3:0,0:0:0:0:
332,112,162717,2,0,L|257:100,1,67.4999979400635,2|0,0:0|3:0,0:0:0:0:
188,96,163145,1,8,0:0:0:0:
152,172,163359,1,0,3:0:0:0:
200,240,163574,5,0,1:0:0:0:
200,240,163681,1,0,3:0:0:0:
200,240,163788,1,0,3:0:0:0:
164,316,164002,2,0,P|128:308|88:316,1,67.4999979400635,8|0,0:0|3:0,0:0:0:0:
28,276,164431,1,0,3:0:0:0:
28,276,164538,1,0,3:0:0:0:
28,276,164645,1,4,1:2:0:0:
64,200,164859,1,8,0:0:0:0:
16,132,165074,1,0,3:0:0:0:
19,30,165288,6,0,B|54:1|54:1|145:14,1,134.999995880127,4|8,1:2|0:0,0:0:0:0:
216,83,165931,1,0,3:0:0:0:
299,25,166145,2,0,P|331:13|367:21,1,67.4999979400635,2|0,0:0|3:0,0:0:0:0:
462,41,166574,2,0,L|471:118,1,67.4999979400635,8|2,0:0|0:0,0:0:0:0:
510,200,167002,5,4,1:2:0:0:
414,235,167217,2,0,P|422:267|418:307,1,67.4999979400635,2|8,0:0|0:0,0:0:0:0:
350,384,167645,1,0,3:0:0:0:
294,312,167859,1,2,0:0:0:0:
294,312,167967,1,0,3:0:0:0:
294,312,168074,2,0,P|254:300|218:308,1,67.4999979400635,0|8,3:0|0:0,0:0:0:0:
35,364,168717,5,4,1:2:0:0:
98,285,168931,1,2,0:0:0:0:
165,209,169145,2,0,L|155:135,1,67.4999979400635,8|0,0:0|3:0,0:0:0:0:
59,110,169574,2,0,L|79:19,1,67.4999979400635,2|0,0:0|3:0,0:0:0:0:
172,22,170002,1,8,0:0:0:0:
239,97,170217,1,2,0:0:0:0:
322,40,170431,6,0,L|467:51,1,134.999995880127,4|8,1:2|0:0,0:0:0:0:
497,143,171074,2,0,B|485:195|485:195|497:227|497:227|479:303,1,134.999995880127,0|0,3:0|3:0,0:0:0:0:
396,225,171717,1,8,0:0:0:0:
351,145,171931,1,2,0:0:0:0:
351,145,172038,1,0,3:0:0:0:
351,145,172145,6,0,P|295:129|231:165,1,134.999995880127,4|8,1:2|0:0,0:0:0:0:
107,327,173002,1,2,0:0:0:0:
107,327,173109,1,0,3:0:0:0:
107,327,173217,2,0,L|181:319,1,67.4999979400635,0|8,3:0|0:0,0:0:0:0:
252,255,173645,1,2,0:0:0:0:
331,317,173859,6,0,B|427:313|427:313|469:280,1,134.999995880127,4|8,1:2|0:0,0:0:0:0:
509,201,174502,1,0,3:0:0:0:
452,128,174717,1,2,0:0:0:0:
452,128,174824,1,0,3:0:0:0:
452,128,174931,1,0,3:0:0:0:
381,55,175145,2,0,L|301:47,1,67.4999979400635,8|2,0:0|0:0,0:0:0:0:
195,37,175574,5,12,1:2:0:0:
216,300,176217,1,8,1:2:0:0:
216,300,177502,5,12,1:2:0:0:
80,200,177931,1,8,1:2:0:0:
145,122,178145,1,8,1:2:0:0:
