osu file format v14

[General]
AudioFilename: audio.mp3
AudioLeadIn: 0
PreviewTime: 110485
Countdown: 0
SampleSet: Soft
StackLeniency: 0.4
Mode: 0
LetterboxInBreaks: 0
WidescreenStoryboard: 1

[Editor]
Bookmarks: 821,24821,28249,41963,55678,69392,83106,96821,110535,124249,137963,151678,165392,175678,178249
DistanceSpacing: 1.1
BeatDivisor: 4
GridSize: 8
TimelineZoom: 2.1

[Metadata]
Title:This December
TitleUnicode:This December
Artist:Ricky Montgomery
ArtistUnicode:Ricky Montgomery
Creator:Xehn
Version:Xenon & PotatoBoy's Hard
Source:
Tags:alternative rock indie the honeysticks english xenon- potatoboy123
BeatmapID:2050388
BeatmapSetID:966568

[Difficulty]
HPDrainRate:4
CircleSize:3.8
OverallDifficulty:6
ApproachRate:7.5
SliderMultiplier:1
SliderTickRate:1

[Events]
//Background and Video events
0,0,"bg.jpg",0,0
//Break Periods
//Storyboard Layer 0 (Background)
//Storyboard Layer 1 (Fail)
//Storyboard Layer 2 (Pass)
//Storyboard Layer 3 (Foreground)
//Storyboard Sound Samples

[TimingPoints]
821,428.571428571429,4,2,2,50,1,0
24821,-76.9230769230769,4,2,2,50,0,0
28249,-76.9230769230769,4,2,2,55,0,0
41963,-76.9230769230769,4,2,2,60,0,0
55678,-68.9655172413793,4,2,2,70,0,0
83106,-76.9230769230769,4,2,2,65,0,0
96821,-76.9230769230769,4,2,2,60,0,0
110535,-76.9230769230769,4,2,2,65,0,0
124249,-68.9655172413793,4,2,2,75,0,0
151678,-62.5,4,2,2,85,0,1
175678,-62.5,4,2,2,85,0,0

[Colours]
Combo1 : 144,215,245
Combo2 : 107,107,107
Combo3 : 46,105,203
Combo4 : 182,182,182

[HitObjects]
108,139,24821,6,0,P|176:111|201:210,1,194.999991073609,2|2,0:0|0:0,0:0:0:0:
383,33,26749,6,0,P|324:35|331:113,1,129.999994049073,2|2,0:0|0:0,0:0:0:0:
293,171,27392,1,2,0:0:0:0:
135,273,28249,6,0,B|215:283|175:233|255:243,1,129.999994049073,4|8,1:2|0:0,0:0:0:0:
300,307,28892,2,0,L|282:164,1,129.999994049073,0|0,3:0|3:0,0:0:0:0:
220,132,29535,2,0,L|229:52,1,64.9999970245363,8|0,0:0|0:0,0:0:0:0:
291,22,29963,1,0,1:0:0:0:
284,14,30392,6,0,P|311:-3|343:-1,1,64.9999970245363,8|0,0:0|3:0,0:0:0:0:
396,58,30821,2,0,P|396:90|378:117,1,64.9999970245363,2|0,0:0|3:0,0:0:0:0:
302,133,31249,1,8,0:0:0:0:
295,126,31678,6,0,B|262:149|262:149|274:244,1,129.999994049073,0|8,1:0|0:0,0:0:0:0:
222,298,32321,1,0,3:0:0:0:
276,353,32535,2,0,P|232:317|150:344,1,129.999994049073,2|8,0:0|0:0,0:0:0:0:
92,298,33178,1,2,0:0:0:0:
83,219,33392,6,0,B|90:155|90:155|88:152|88:152|96:90,1,129.999994049073,0|8,1:0|0:0,0:0:0:0:
153,37,34035,1,0,3:0:0:0:
208,91,34249,2,0,P|236:77|268:79,1,64.9999970245363,2|0,0:0|3:0,0:0:0:0:
289,155,34678,2,0,P|260:169|228:167,1,64.9999970245363,8|0,0:0|0:0,0:0:0:0:
160,206,35106,6,0,P|201:190|219:265,1,129.999994049073,0|8,1:0|0:0,0:0:0:0:
284,309,35749,1,0,3:0:0:0:
352,272,35963,1,2,0:0:0:0:
423,306,36178,2,0,L|415:370,2,64.9999970245363,0|8|2,3:0|0:0|0:0,0:0:0:0:
480,252,36821,1,0,1:0:0:0:
487,245,37249,6,0,P|482:197|395:189,1,129.999994049073,8|2,0:0|0:0,0:0:0:0:
358,234,37892,2,0,L|365:298,1,64.9999970245363,0|8,3:0|0:0,0:0:0:0:
342,373,38321,1,2,0:0:0:0:
285,319,38535,6,0,B|205:329|245:279|165:289,2,129.999994049073,0|8|2,1:0|0:0|0:0,0:0:0:0:
346,270,39606,2,0,L|339:206,1,64.9999970245363,0|8,3:0|0:0,0:0:0:0:
277,156,40035,1,2,0:0:0:0:
349,128,40249,6,0,B|285:121|285:121|282:123|282:123|220:115,1,129.999994049073,0|8,1:0|0:0,0:0:0:0:
171,53,40892,2,0,L|107:60,1,64.9999970245363,0|2,3:0|0:0,0:0:0:0:
89,61,41213,1,0,3:0:0:0:
73,63,41321,1,0,3:2:0:0:
29,127,41535,2,0,P|43:155|41:187,1,64.9999970245363,8|2,0:0|0:0,0:0:0:0:
88,249,41963,6,0,B|168:259|128:209|208:219,1,129.999994049073,4|8,1:2|0:0,0:0:0:0:
266,270,42606,1,0,3:0:0:0:
336,233,42821,2,0,L|347:320,1,64.9999970245363,2|0,0:0|3:0,0:0:0:0:
356,374,43249,1,8,0:0:0:0:
364,384,43678,5,0,1:0:0:0:
419,329,43892,2,0,L|427:264,1,64.9999970245363,2|8,0:0|0:0,0:0:0:0:
403,189,44321,1,0,3:0:0:0:
336,233,44535,2,0,P|309:250|277:248,1,64.9999970245363,2|0,0:0|3:0,0:0:0:0:
223,189,44963,2,0,P|224:156|241:130,1,64.9999970245363,8|0,0:0|0:0,0:0:0:0:
310,92,45392,6,0,B|333:125|333:125|428:113,1,129.999994049073,0|8,1:0|0:0,0:0:0:0:
487,70,46035,1,0,3:0:0:0:
497,147,46249,2,0,L|487:220,1,64.9999970245363,2|0,0:0|3:0,0:0:0:0:
465,288,46678,1,8,0:0:0:0:
388,301,46892,1,2,0:0:0:0:
410,225,47106,6,0,P|366:189|284:216,1,129.999994049073,0|8,1:0|0:0,0:0:0:0:
238,251,47749,2,0,P|207:264|164:260,1,64.9999970245363,0|2,3:0|0:0,0:0:0:0:
160,186,48178,2,0,P|191:173|234:177,1,64.9999970245363,0|8,3:0|0:0,0:0:0:0:
298,201,48606,1,2,0:0:0:0:
287,123,48821,6,0,B|351:130|351:130|354:128|354:128|416:136,1,129.999994049073,0|8,1:0|0:0,0:0:0:0:
474,186,49463,1,0,3:0:0:0:
402,217,49678,2,0,P|389:248|393:291,1,64.9999970245363,2|0,0:0|3:0,0:0:0:0:
447,333,50106,1,8,0:0:0:0:
454,345,50535,6,0,B|374:355|414:305|334:315,1,129.999994049073,0|8,1:0|0:0,0:0:0:0:
263,349,51178,1,0,3:0:0:0:
246,272,51392,2,0,L|254:200,1,64.9999970245363,2|0,0:0|3:0,0:0:0:0:
263,129,51821,1,8,0:0:0:0:
270,117,52249,6,0,L|140:101,1,129.999994049073,4|8,1:2|0:0,0:0:0:0:
65,119,52892,2,0,L|73:191,1,64.9999970245363,0|2,1:0|0:0,0:0:0:0:
74,200,53213,1,0,3:0:0:0:
76,216,53321,1,0,3:0:0:0:
152,200,53535,1,8,0:0:0:0:
129,274,53749,2,0,L|121:331,2,32.4999985122681,2|0|0,0:0|3:0|1:0,0:0:0:0:
206,261,54178,6,0,L|277:267,1,64.9999970245363,0|8,3:0|0:0,0:0:0:0:
286,267,54499,1,8,0:0:0:0:
302,268,54606,1,0,1:0:0:0:
321,191,54821,2,0,L|311:112,1,64.9999970245363,8|8,0:0|0:0,0:0:0:0:
361,65,55249,2,0,L|367:11,2,32.4999985122681,8|8|0,0:0|0:0|3:0,0:0:0:0:
425,126,55678,6,0,P|465:104|507:182,1,145.000004425049,4|8,1:2|0:0,0:0:0:0:
465,245,56321,2,0,L|474:324,1,72.5000022125245,0|0,3:0|0:0,0:0:0:0:
399,361,56749,2,0,P|369:338|332:337,1,72.5000022125245,0|8,3:0|0:0,0:0:0:0:
263,384,57178,1,2,0:0:0:0:
190,335,57392,1,0,1:0:0:0:
183,343,57821,6,0,L|192:263,1,72.5000022125245,8|0,0:0|3:0,0:0:0:0:
131,208,58249,2,0,P|158:230|194:232,1,72.5000022125245,0|0,0:0|3:0,0:0:0:0:
263,179,58678,2,0,P|298:181|326:203,1,72.5000022125245,8|0,0:0|0:0,0:0:0:0:
390,261,59106,6,0,B|350:237|350:237|364:126,1,145.000004425049,0|8,1:0|0:0,0:0:0:0:
320,62,59749,2,0,L|240:71,1,72.5000022125245,0|0,3:0|0:0,0:0:0:0:
232,73,60071,1,0,3:0:0:0:
216,75,60178,2,0,P|235:104|236:140,1,72.5000022125245,0|8,3:0|0:0,0:0:0:0:
186,212,60606,1,2,0:0:0:0:
155,130,60821,1,0,1:0:0:0:
148,123,61249,5,8,0:0:0:0:
106,199,61463,2,0,L|26:189,1,72.5000022125245,0|0,3:0|0:0,0:0:0:0:
8,273,61892,2,0,L|79:281,1,72.5000022125245,0|8,3:0|0:0,0:0:0:0:
136,348,62321,1,2,0:0:0:0:
223,339,62535,1,0,1:0:0:0:
219,348,62963,5,8,0:0:0:0:
279,285,63178,2,0,L|358:294,1,72.5000022125245,0|0,3:0|0:0,0:0:0:0:
377,211,63606,2,0,L|305:202,1,72.5000022125245,0|8,3:0|0:0,0:0:0:0:
249,136,64035,1,2,0:0:0:0:
162,145,64249,1,0,1:0:0:0:
169,138,64678,6,0,B|79:149|124:93|35:104,1,145.000004425049,8|0,0:0|0:0,0:0:0:0:
1,184,65321,2,0,B|8:256|8:256|6:259|6:259|15:329,1,145.000004425049,0|2,3:0|0:0,0:0:0:0:
91,367,65963,2,0,P|120:348|156:347,1,72.5000022125245,0|2,1:0|0:0,0:0:0:0:
224,292,66392,5,8,0:0:0:0:
156,236,66606,1,0,3:0:0:0:
224,180,66821,2,0,L|215:108,1,72.5000022125245,0|0,0:0|3:0,0:0:0:0:
262,35,67249,1,8,0:0:0:0:
270,27,67678,5,0,1:0:0:0:
321,101,67892,1,2,0:0:0:0:
361,21,68106,2,0,P|395:19|427:36,1,72.5000022125245,12|2,0:2|0:0,0:0:0:0:
438,49,68428,1,0,3:0:0:0:
448,62,68535,1,0,1:0:0:0:
503,131,68749,1,0,3:0:0:0:
430,180,68963,2,0,L|435:227,2,36.2500011062622,8|0|2,0:0|3:0|0:0,0:0:0:0:
350,131,69392,6,0,B|261:120|306:176|216:165,1,145.000004425049,4|8,1:2|0:0,0:0:0:0:
148,109,70035,2,0,L|76:99,1,72.5000022125245,0|0,3:0|0:0,0:0:0:0:
67,185,70463,2,0,L|138:194,1,72.5000022125245,0|8,3:0|0:0,0:0:0:0:
215,164,70892,1,2,0:0:0:0:
210,244,71106,6,0,B|282:251|282:251|285:249|285:249|353:256,1,145.000004425049,0|8,1:0|0:0,0:0:0:0:
433,290,71749,2,0,L|504:280,1,72.5000022125245,0|0,3:0|0:0,0:0:0:0:
496,194,72178,2,0,L|424:203,1,72.5000022125245,0|8,3:0|0:0,0:0:0:0:
353,256,72606,1,2,0:0:0:0:
298,187,72821,6,0,P|233:170|210:232,1,145.000004425049,0|8,1:0|0:0,0:0:0:0:
263,301,73463,2,0,L|272:372,1,72.5000022125245,0|0,3:0|0:0,0:0:0:0:
187,382,73892,2,0,L|177:310,1,72.5000022125245,0|8,3:0|0:0,0:0:0:0:
210,232,74321,1,2,0:0:0:0:
123,241,74535,1,0,1:0:0:0:
114,246,74963,6,0,L|123:174,1,72.5000022125245,8|0,0:0|3:0,0:0:0:0:
101,89,75392,2,0,P|137:87|170:100,1,72.5000022125245,0|0,0:0|3:0,0:0:0:0:
236,158,75821,1,8,0:0:0:0:
253,72,76035,1,2,0:0:0:0:
318,129,76249,6,0,B|407:118|362:174|452:163,1,145.000004425049,0|8,1:0|0:0,0:0:0:0:
506,94,76892,2,0,L|488:237,1,145.000004425049,0|0,3:0|3:0,0:0:0:0:
510,322,77535,1,8,0:0:0:0:
488,237,77749,1,2,0:0:0:0:
423,294,77963,6,0,P|394:275|358:274,1,72.5000022125245,0|0,1:0|0:0,0:0:0:0:
283,320,78392,1,8,0:0:0:0:
243,242,78606,2,0,L|252:170,1,72.5000022125245,0|0,3:0|0:0,0:0:0:0:
166,156,79035,2,0,L|156:227,1,72.5000022125245,0|8,3:0|0:0,0:0:0:0:
188,308,79463,1,2,0:0:0:0:
101,296,79678,6,0,B|63:269|63:269|76:171,1,145.000004425049,4|8,1:2|0:0,0:0:0:0:
105,81,80321,1,0,3:0:0:0:
166,156,80535,2,0,L|170:193,2,36.2500011062622,0|0|0,0:0|3:0|3:0,0:0:0:0:
193,65,80963,2,0,L|264:55,1,72.5000022125245,12|0,0:2|1:0,0:0:0:0:
332,118,81392,6,0,L|369:122,3,36.2500011062622,8|0|0|0,0:0|3:0|3:0|3:0,0:0:0:0:
324,125,81821,1,4,1:2:0:0:
257,181,82035,2,0,L|220:185,3,36.2500011062622,0|0|0|0,3:0|3:0|3:0|3:0,0:0:0:0:
265,188,82463,1,4,1:2:0:0:
351,197,82678,2,0,P|333:228|335:263,1,72.5000022125245,8|0,0:0|3:0,0:0:0:0:
338,280,82999,1,0,3:0:0:0:
345,293,83106,6,0,B|264:281|304:332|223:321,1,129.999994049073,4|8,1:2|0:0,0:0:0:0:
155,358,83749,1,0,3:0:0:0:
100,302,83963,2,0,P|114:270|111:240,1,64.9999970245363,2|0,0:0|3:0,0:0:0:0:
56,185,84392,1,8,0:0:0:0:
64,177,84821,5,0,1:0:0:0:
140,160,85035,2,0,P|171:174|201:171,1,64.9999970245363,2|8,0:0|0:0,0:0:0:0:
274,143,85463,1,0,3:0:0:0:
217,89,85678,2,0,P|185:74|155:77,1,64.9999970245363,2|0,0:0|3:0,0:0:0:0:
82,104,86106,1,8,0:0:0:0:
89,114,86535,6,0,P|39:82|8:148,1,129.999994049073,0|8,1:0|0:0,0:0:0:0:
57,185,87178,1,0,3:0:0:0:
1,239,87392,2,0,B|81:251|41:199|121:210,1,129.999994049073,2|8,0:0|0:0,0:0:0:0:
186,254,88035,1,0,0:0:0:0:
199,177,88249,6,0,P|235:223|285:191,1,129.999994049073,0|8,1:0|0:0,0:0:0:0:
344,140,88892,2,0,L|338:92,1,32.4999985122681,0|2,3:0|0:0,0:0:0:0:
347,100,89106,2,0,P|378:97|407:111,1,64.9999970245363,2|0,0:0|3:0,0:0:0:0:
465,164,89535,1,8,0:0:0:0:
473,155,89963,6,0,B|393:144|433:195|352:183,1,129.999994049073,0|8,1:0|0:0,0:0:0:0:
276,161,90606,1,0,3:0:0:0:
295,236,90821,2,0,P|309:264|306:296,1,64.9999970245363,2|0,0:0|3:0,0:0:0:0:
241,339,91249,2,0,P|208:337|182:318,1,64.9999970245363,8|0,0:0|0:0,0:0:0:0:
182,240,91678,1,0,1:0:0:0:
178,246,92106,5,8,0:0:0:0:
106,277,92321,2,0,P|59:289|11:230,1,129.999994049073,0|0,3:0|3:0,0:0:0:0:
57,169,92963,2,0,P|72:140|66:97,1,64.9999970245363,8|0,0:0|0:0,0:0:0:0:
21,38,93392,5,0,1:0:0:0:
105,37,93606,2,0,L|178:46,1,64.9999970245363,2|8,0:0|0:0,0:0:0:0:
211,118,94035,2,0,L|218:182,2,64.9999970245363,0|2|0,3:0|0:0|3:0,0:0:0:0:
252,44,94678,1,8,0:0:0:0:
300,112,94892,2,0,P|329:125|361:127,1,64.9999970245363,2|0,0:0|1:0,0:0:0:0:
422,68,95321,5,8,0:0:0:0:
442,149,95535,2,0,L|432:225,1,64.9999970245363,8|2,0:0|0:0,0:0:0:0:
432,229,95856,1,0,3:0:0:0:
430,245,95963,1,0,3:0:0:0:
350,217,96178,1,0,3:0:0:0:
359,300,96392,2,0,L|366:356,3,32.4999985122681,8|0|0|0,0:0|3:0|3:0|3:0,0:0:0:0:
368,337,96821,6,0,B|289:320|324:373|245:356,1,129.999994049073,4|8,1:2|0:0,0:0:0:0:
183,309,97463,2,0,L|201:166,1,129.999994049073,0|0,3:0|3:0,0:0:0:0:
257,127,98106,2,0,L|248:47,1,64.9999970245363,8|2,0:0|0:0,0:0:0:0:
186,17,98535,1,0,1:0:0:0:
181,28,98963,6,0,P|154:11|122:13,1,64.9999970245363,8|0,0:0|3:0,0:0:0:0:
101,88,99392,2,0,P|128:105|160:103,1,64.9999970245363,2|0,0:0|3:0,0:0:0:0:
236,86,99821,1,8,0:0:0:0:
245,79,100249,6,0,L|252:142,1,64.9999970245363,0|2,1:0|0:0,0:0:0:0:
318,185,100678,2,0,L|310:248,1,64.9999970245363,8|0,0:0|3:0,0:0:0:0:
242,288,101106,2,0,P|214:270|182:273,1,64.9999970245363,2|0,0:0|3:0,0:0:0:0:
128,328,101535,1,8,0:0:0:0:
65,282,101749,1,2,0:0:0:0:
2,328,101963,6,0,B|34:302|34:302|23:207,1,129.999994049073,0|8,1:0|0:0,0:0:0:0:
85,165,102606,1,0,3:0:0:0:
153,203,102821,2,0,L|147:250,2,32.4999985122681,2|0|0,0:0|3:0|3:0,0:0:0:0:
222,166,103249,2,0,L|215:102,1,64.9999970245363,8|2,0:0|0:0,0:0:0:0:
214,84,103571,1,0,3:0:0:0:
212,68,103678,6,0,B|292:78|252:28|332:38,1,129.999994049073,4|8,1:2|0:0,0:0:0:0:
401,0,104321,1,0,3:0:0:0:
463,47,104535,2,0,L|510:53,2,32.4999985122681,2|0|0,0:0|3:0|3:0,0:0:0:0:
422,113,104963,2,0,P|440:141|437:173,1,64.9999970245363,8|2,0:0|0:0,0:0:0:0:
376,220,105392,6,0,P|419:196|454:269,1,129.999994049073,0|8,1:0|0:0,0:0:0:0:
504,315,106035,1,0,3:0:0:0:
448,370,106249,2,0,L|384:363,1,64.9999970245363,2|0,0:0|3:0,0:0:0:0:
332,303,106678,2,0,L|268:310,1,64.9999970245363,8|2,0:0|0:0,0:0:0:0:
216,369,107106,6,0,B|136:379|176:329|96:339,1,129.999994049073,0|8,1:0|0:0,0:0:0:0:
45,278,107749,1,0,3:0:0:0:
95,216,107963,2,0,L|91:184,2,32.4999985122681,2|0|0,0:0|3:0|3:0,0:0:0:0:
156,264,108392,2,0,L|220:257,1,64.9999970245363,8|2,0:0|0:0,0:0:0:0:
238,256,108713,1,0,3:0:0:0:
254,254,108821,6,0,P|237:227|239:195,1,64.9999970245363,4|0,1:2|3:0,0:0:0:0:
296,141,109249,2,0,L|300:109,2,32.4999985122681,2|0|0,0:0|3:0|3:0,0:0:0:0:
351,198,109678,2,0,L|415:191,1,64.9999970245363,0|2,3:0|0:0,0:0:0:0:
433,190,109999,1,8,3:2:0:0:
449,188,110106,2,0,L|445:219,2,32.4999985122681,8|8|2,0:0|3:2|0:0,0:0:0:0:
511,122,110535,6,0,B|488:89|488:89|393:101,1,129.999994049073,4|8,1:2|0:0,0:0:0:0:
356,166,111178,1,0,3:0:0:0:
281,142,111392,2,0,L|274:206,1,64.9999970245363,2|0,0:0|3:0,0:0:0:0:
265,284,111821,1,8,0:0:0:0:
261,293,112249,5,0,1:0:0:0:
202,241,112463,2,0,L|138:248,1,64.9999970245363,2|8,0:0|0:0,0:0:0:0:
68,284,112892,1,0,3:0:0:0:
12,228,113106,2,0,P|-2:193|1:155,1,64.9999970245363,2|0,0:0|3:0,0:0:0:0:
47,104,113535,2,0,P|84:109|115:130,1,64.9999970245363,8|0,0:0|0:0,0:0:0:0:
158,182,113963,6,0,B|238:192|198:142|278:152,1,129.999994049073,0|8,1:0|0:0,0:0:0:0:
318,219,114606,1,0,3:0:0:0:
362,154,114821,2,0,L|355:90,1,64.9999970245363,2|0,0:0|3:0,0:0:0:0:
375,14,115249,1,8,0:0:0:0:
298,30,115463,1,2,0:0:0:0:
251,96,115678,6,0,B|186:102|186:102|183:100|183:100|122:106,1,129.999994049073,0|8,1:0|0:0,0:0:0:0:
102,183,116321,1,0,3:0:0:0:
46,126,116535,2,0,P|32:98|34:66,1,64.9999970245363,2|0,0:0|3:0,0:0:0:0:
110,45,116963,2,0,P|124:74|122:106,1,64.9999970245363,8|2,0:0|0:0,0:0:0:0:
102,183,117392,6,0,L|231:197,1,129.999994049073,0|8,1:0|0:0,0:0:0:0:
308,207,118035,1,0,3:0:0:0:
263,271,118249,2,0,L|256:335,1,64.9999970245363,2|0,0:0|3:0,0:0:0:0:
184,361,118678,2,0,P|156:343|124:346,1,64.9999970245363,8|0,0:0|0:0,0:0:0:0:
47,346,119106,6,0,P|98:315|77:260,1,129.999994049073,0|8,1:0|0:0,0:0:0:0:
5,226,119749,1,0,3:0:0:0:
68,180,119963,2,0,L|61:116,1,64.9999970245363,2|0,0:0|3:0,0:0:0:0:
48,38,120392,1,8,0:0:0:0:
58,24,120821,6,0,B|138:14|98:64|178:54,1,129.999994049073,4|8,1:2|0:0,0:0:0:0:
257,83,121463,2,0,P|239:110|242:142,1,64.9999970245363,0|2,3:0|0:0,0:0:0:0:
244,158,121785,1,0,3:0:0:0:
251,172,121892,1,0,3:0:0:0:
168,182,122106,2,0,L|96:173,1,64.9999970245363,8|0,0:0|0:0,0:0:0:0:
19,187,122535,5,0,1:0:0:0:
39,269,122749,2,0,L|42:301,3,32.4999985122681,0|0|0|0,1:0|3:0|3:0|3:0,0:0:0:0:
46,261,123178,1,0,1:0:0:0:
130,264,123392,2,0,L|133:231,2,32.4999985122681,8|0|0,0:0|3:0|3:0,0:0:0:0:
161,342,123821,2,0,P|189:324|221:327,1,64.9999970245363,8|0,0:0|3:0,0:0:0:0:
305,377,124249,6,0,B|395:388|350:332|439:343,1,145.000004425049,4|8,1:2|0:0,0:0:0:0:
490,272,124892,2,0,L|481:192,1,72.5000022125245,0|2,3:0|0:0,0:0:0:0:
479,184,125213,1,0,3:0:0:0:
477,168,125321,2,0,P|448:187|412:188,1,72.5000022125245,0|8,3:0|0:0,0:0:0:0:
340,137,125749,1,2,0:0:0:0:
267,185,125963,1,0,1:0:0:0:
275,193,126392,6,0,L|203:184,1,72.5000022125245,8|0,0:0|3:0,0:0:0:0:
151,254,126821,2,0,P|170:284|170:319,1,72.5000022125245,2|0,0:0|3:0,0:0:0:0:
86,342,127249,2,0,P|66:311|66:276,1,72.5000022125245,8|0,0:0|0:0,0:0:0:0:
90,192,127678,6,0,B|97:120|97:120|95:117|95:117|102:49,1,145.000004425049,0|8,1:0|0:0,0:0:0:0:
175,0,128321,2,0,L|255:9,1,72.5000022125245,0|2,3:0|0:0,0:0:0:0:
263,11,128642,1,0,3:0:0:0:
279,13,128749,2,0,P|260:42|259:78,1,72.5000022125245,0|8,3:0|0:0,0:0:0:0:
335,120,129178,1,2,0:0:0:0:
262,165,129392,1,0,1:0:0:0:
254,158,129821,5,8,0:0:0:0:
329,201,130035,2,0,L|320:281,1,72.5000022125245,0|2,3:0|0:0,0:0:0:0:
318,289,130356,1,0,3:0:0:0:
316,305,130463,2,0,P|287:286|251:285,1,72.5000022125245,0|8,3:0|0:0,0:0:0:0:
209,361,130892,1,2,0:0:0:0:
164,288,131106,1,0,1:0:0:0:
169,278,131535,5,8,0:0:0:0:
213,203,131749,2,0,P|218:167|205:134,1,72.5000022125245,0|2,3:0|0:0,0:0:0:0:
188,132,132071,1,0,3:0:0:0:
172,129,132178,2,0,L|99:120,1,72.5000022125245,0|8,3:0|0:0,0:0:0:0:
27,73,132606,1,2,0:0:0:0:
103,33,132821,1,0,1:0:0:0:
96,24,133249,6,0,B|185:13|140:69|230:58,1,145.000004425049,8|2,0:0|0:0,0:0:0:0:
247,55,133785,1,0,3:0:0:0:
263,52,133892,2,0,L|254:125,1,72.5000022125245,0|8,3:0|0:0,0:0:0:0:
178,167,134321,2,0,L|172:214,1,36.2500011062622,2|0,0:0|3:0,0:0:0:0:
181,210,134535,6,0,L|190:283,1,72.5000022125245,0|2,1:0|0:0,0:0:0:0:
274,306,134963,2,0,L|282:234,1,72.5000022125245,8|0,0:0|3:0,0:0:0:0:
355,185,135392,2,0,L|349:137,2,36.2500011062622,2|0|0,0:0|3:0|3:0,0:0:0:0:
433,224,135821,1,8,0:0:0:0:
426,232,136249,6,0,L|434:160,1,72.5000022125245,0|2,1:0|0:0,0:0:0:0:
378,92,136678,2,0,P|342:87|309:100,1,72.5000022125245,8|2,0:0|0:0,0:0:0:0:
297,113,136999,1,0,3:0:0:0:
286,127,137106,1,4,3:2:0:0:
213,77,137321,1,8,0:2:0:0:
206,163,137535,2,0,L|210:198,3,36.2500011062622,0|0|0|0,1:0|3:0|3:0|3:0,0:0:0:0:
217,205,137963,6,0,B|127:194|172:250|83:239,1,145.000004425049,4|8,1:2|0:0,0:0:0:0:
10,190,138606,2,0,L|20:104,1,72.5000022125245,0|2,3:0|0:0,0:0:0:0:
20,100,138928,1,0,3:0:0:0:
22,82,139035,2,0,P|59:55|104:61,1,72.5000022125245,0|8,3:0|0:0,0:0:0:0:
147,114,139463,1,2,0:0:0:0:
169,29,139678,1,0,1:0:0:0:
177,38,140106,5,8,0:0:0:0:
248,89,140321,2,0,P|283:107|334:99,1,72.5000022125245,0|2,3:0|0:0,0:0:0:0:
329,95,140642,1,0,3:0:0:0:
345,88,140749,2,0,L|420:93,1,72.5000022125245,0|8,3:0|0:0,0:0:0:0:
503,108,141178,2,0,L|510:171,1,36.2500011062622,2|0,0:0|3:0,0:0:0:0:
501,151,141392,6,0,L|483:299,1,145.000004425049,0|8,1:0|0:0,0:0:0:0:
412,344,142035,2,0,P|385:320|349:316,1,72.5000022125245,0|2,3:0|0:0,0:0:0:0:
331,317,142356,1,0,3:0:0:0:
314,324,142463,1,0,3:0:0:0:
260,256,142678,1,8,0:0:0:0:
185,300,142892,2,0,L|180:348,2,36.2500011062622,2|0|0,0:0|3:0|1:0,0:0:0:0:
173,291,143535,6,0,L|162:205,1,72.5000022125245,8|0,0:0|3:0,0:0:0:0:
231,164,143963,2,0,L|279:168,2,36.2500011062622,2|0|0,0:0|3:0|3:0,0:0:0:0:
146,143,144392,1,8,0:0:0:0:
194,71,144606,2,0,L|230:74,1,36.2500011062622,2|0,0:0|3:0,0:0:0:0:
238,82,144821,6,0,B|328:93|283:37|372:48,1,145.000004425049,4|8,1:2|0:0,0:0:0:0:
437,105,145463,2,0,P|413:131|408:167,1,72.5000022125245,0|2,3:0|0:0,0:0:0:0:
409,184,145785,1,0,3:0:0:0:
416,201,145892,1,0,3:0:0:0:
330,196,146106,2,0,P|303:172|267:167,1,72.5000022125245,8|2,0:0|0:0,0:0:0:0:
250,169,146428,1,0,3:0:0:0:
233,176,146535,6,0,P|175:196|128:125,1,145.000004425049,0|8,1:0|0:0,0:0:0:0:
169,62,147178,2,0,L|87:52,1,72.5000022125245,0|2,3:0|0:0,0:0:0:0:
79,50,147499,1,0,3:0:0:0:
61,48,147606,1,0,3:0:0:0:
20,125,147821,2,0,P|40:159|40:204,1,72.5000022125245,8|2,0:0|0:0,0:0:0:0:
10,279,148249,6,0,L|5:322,3,36.2500011062622,0|2|2|2,1:0|0:0|0:0|0:0,0:0:0:0:
19,273,148678,2,0,L|105:268,1,72.5000022125245,8|0,0:0|3:0,0:0:0:0:
185,299,149106,2,0,L|228:304,3,36.2500011062622,2|0|0|2,0:0|3:0|3:0|0:0,0:0:0:0:
179,290,149535,2,0,L|174:204,1,72.5000022125245,12|0,0:2|3:0,0:0:0:0:
212,131,149963,6,0,B|301:120|256:176|346:165,1,145.000004425049,0|8,1:0|0:0,0:0:0:0:
397,244,150606,2,0,L|401:281,2,36.2500011062622,2|0|8,0:0|3:0|0:0,0:0:0:0:
491,234,151035,1,8,0:0:0:0:
437,156,151249,2,0,L|441:119,3,36.2500011062622,8|0|2|0,0:0|0:0|0:0|0:0,0:0:0:0:
433,112,151678,6,0,B|335:124|384:62|285:74,1,160,4|8,1:2|0:0,0:0:0:0:
238,149,152321,2,0,L|246:228,1,80,0|2,3:0|0:0,0:0:0:0:
249,246,152642,1,0,3:0:0:0:
251,264,152749,1,0,3:0:0:0:
190,327,152963,1,8,0:0:0:0:
120,274,153178,2,0,L|123:234,1,40,2|0,0:0|3:0,0:0:0:0:
117,227,153392,6,0,P|69:254|58:165,1,160,4|8,1:2|0:0,0:0:0:0:
44,88,154035,2,0,L|123:96,1,80,0|2,3:0|0:0,0:0:0:0:
141,99,154356,1,0,3:0:0:0:
159,101,154463,1,0,3:0:0:0:
220,37,154678,2,0,L|299:29,1,80,8|2,0:0|0:0,0:0:0:0:
382,64,155106,6,0,P|338:39|319:124,1,160,4|8,1:2|0:0,0:0:0:0:
394,146,155749,2,0,P|421:180|404:232,1,80,0|2,3:0|0:0,0:0:0:0:
411,231,156071,1,0,3:0:0:0:
399,244,156178,1,0,3:0:0:0:
324,197,156392,1,8,0:0:0:0:
259,257,156606,2,0,L|219:252,1,40,2|0,0:0|3:0,0:0:0:0:
212,245,156821,6,0,B|202:168|202:168|205:164|205:164|195:88,1,160,4|8,1:2|0:0,0:0:0:0:
114,54,157463,2,0,L|106:133,1,80,0|2,3:0|0:0,0:0:0:0:
103,151,157785,1,0,3:0:0:0:
101,169,157892,1,0,3:0:0:0:
28,218,158106,1,12,0:2:0:0:
85,284,158321,2,0,L|80:324,1,40,2|0,0:0|3:0,0:0:0:0:
73,330,158535,6,0,B|171:318|122:380|221:368,1,160,4|8,1:2|0:0,0:0:0:0:
279,302,159178,2,0,L|271:223,1,80,0|2,3:0|0:0,0:0:0:0:
268,205,159499,1,0,3:0:0:0:
266,187,159606,1,0,3:0:0:0:
184,153,159821,2,0,P|205:109|185:58,1,80,8|2,0:0|0:0,0:0:0:0:
113,63,160249,6,0,B|212:75|163:13|261:25,1,160,4|8,1:2|0:0,0:0:0:0:
307,99,160892,2,0,L|386:91,1,80,0|2,3:0|0:0,0:0:0:0:
404,88,161213,1,0,3:0:0:0:
422,86,161321,1,0,3:0:0:0:
493,137,161535,1,8,0:0:0:0:
444,210,161749,2,0,L|449:257,1,40,2|0,0:0|3:0,0:0:0:0:
455,256,161963,6,0,P|412:236|368:327,1,160,4|8,1:2|0:0,0:0:0:0:
297,376,162606,2,0,L|218:368,1,80,0|2,3:0|0:0,0:0:0:0:
200,365,162928,1,0,3:0:0:0:
182,363,163035,1,0,3:0:0:0:
122,297,163249,2,0,P|143:253|123:202,1,80,8|0,0:0|3:0,0:0:0:0:
82,159,163678,6,0,L|42:154,2,40,0|0|0,1:0|3:0|3:0,0:0:0:0:
158,115,164106,1,8,0:0:0:0:
214,178,164321,2,0,L|253:174,3,40,0|0|0|0,3:0|3:0|3:0|3:0,0:0:0:0:
264,179,164749,1,4,1:2:0:0:
311,104,164963,1,8,0:0:0:0:
236,56,165178,1,0,3:0:0:0:
309,6,165392,6,0,B|210:-6|259:56|161:44,1,160,4|8,1:2|0:0,0:0:0:0:
83,2,166035,1,0,3:0:0:0:
38,78,166249,2,0,L|-1:82,2,40,2|0|0,0:0|3:0|3:0,0:0:0:0:
113,123,166678,2,0,L|211:135,1,80,8|2,0:0|0:0,0:0:0:0:
211,135,166999,1,0,3:0:0:0:
230,137,167106,6,0,B|237:213|237:213|235:216|235:216|243:297,1,160,4|8,1:2|0:0,0:0:0:0:
198,371,167749,1,0,3:0:0:0:
146,299,167963,2,0,L|150:260,2,40,2|0|0,0:0|3:0|3:0,0:0:0:0:
71,346,168392,1,8,0:0:0:0:
13,279,168606,2,0,L|17:239,1,40,2|0,0:0|3:0,0:0:0:0:
24,232,168821,6,0,B|62:200|62:200|49:84,1,160,4|8,1:2|0:0,0:0:0:0:
109,26,169463,2,0,L|188:34,1,80,0|2,3:0|0:0,0:0:0:0:
206,37,169785,1,0,3:0:0:0:
224,39,169892,1,0,3:0:0:0:
288,98,170106,1,8,0:0:0:0:
204,127,170321,2,0,L|209:174,1,40,2|0,0:0|3:0,0:0:0:0:
201,173,170535,6,0,P|234:139|307:209,1,160,4|8,1:2|0:0,0:0:0:0:
239,249,171178,2,0,P|212:283|229:335,1,80,0|2,3:0|0:0,0:0:0:0:
222,334,171499,1,0,3:0:0:0:
230,349,171606,1,0,3:0:0:0:
144,367,171821,2,0,P|110:340|58:357,1,80,8|2,0:0|0:0,0:0:0:0:
59,350,172142,1,0,3:0:0:0:
46,362,172249,6,0,B|67:189,1,160,4|8,1:2|0:0,0:0:0:0:
115,130,172892,1,0,3:0:0:0:
60,60,173106,2,0,L|21:55,2,40,2|0|0,0:0|3:0|3:0,0:0:0:0:
134,12,173535,1,8,0:0:0:0:
189,79,173749,2,0,L|229:75,1,40,2|0,0:0|3:0,0:0:0:0:
235,68,173963,6,0,B|334:56|285:118|383:106,1,160,4|8,1:2|0:0,0:0:0:0:
469,147,174606,1,0,3:0:0:0:
386,194,174821,2,0,L|332:200,2,40,2|0|0,0:0|3:0|3:0,0:0:0:0:
471,236,175249,2,0,P|455:272|460:311,1,80,8|2,0:0|0:0,0:0:0:0:
412,384,175678,6,0,P|374:283|307:371,1,240,12|8,1:2|1:2,0:0:0:0:
106,151,177606,6,0,P|164:125|202:222,1,160,12|8,1:2|1:2,0:0:0:0:
161,261,178249,1,8,1:2:0:0:
