osu file format v14

[General]
AudioFilename: audio.mp3
AudioLeadIn: 0
PreviewTime: 110485
Countdown: 0
SampleSet: Soft
StackLeniency: 0.4
Mode: 0
LetterboxInBreaks: 0
WidescreenStoryboard: 1

[Editor]
Bookmarks: 821,24821,28249,41963,55678,69392,83106,96821,110535,124249,137963,151678,165392,175678,178249
DistanceSpacing: 1
BeatDivisor: 4
GridSize: 16
TimelineZoom: 1.3

[Metadata]
Title:This December
TitleUnicode:This December
Artist:Ricky Montgomery
ArtistUnicode:Ricky Montgomery
Creator:Xehn
Version:Normal
Source:
Tags:alternative rock indie the honeysticks english xenon- potatoboy123
BeatmapID:2050691
BeatmapSetID:966568

[Difficulty]
HPDrainRate:3
CircleSize:3.5
OverallDifficulty:4
ApproachRate:5
SliderMultiplier:1
SliderTickRate:1

[Events]
//Background and Video events
0,0,"bg.jpg",0,0
//Break Periods
//Storyboard Layer 0 (Background)
//Storyboard Layer 1 (Fail)
//Storyboard Layer 2 (Pass)
//Storyboard Layer 3 (Foreground)
//Storyboard Sound Samples

[TimingPoints]
821,428.571428571429,4,2,2,50,1,0
24821,-90.9090909090909,4,2,2,50,0,0
28249,-90.9090909090909,4,2,2,55,0,0
41963,-90.9090909090909,4,2,2,60,0,0
55678,-90.9090909090909,4,2,2,70,0,0
83106,-90.9090909090909,4,2,2,65,0,0
96821,-90.9090909090909,4,2,2,60,0,0
110535,-90.9090909090909,4,2,2,65,0,0
124249,-90.9090909090909,4,2,2,75,0,0
151678,-83.3333333333333,4,2,2,85,0,1
175678,-83.3333333333333,4,2,2,85,0,0

[Colours]
Combo1 : 144,215,245
Combo2 : 107,107,107
Combo3 : 46,105,203
Combo4 : 182,182,182

[HitObjects]
88,140,24821,6,0,B|189:153|139:89|240:102,1,165.000005035401,2|2,0:0|0:0,0:0:0:0:
466,230,26749,6,0,P|412:226|399:289,1,110.000003356934,2|2,0:0|0:0,0:0:0:0:
364,319,27392,1,2,0:0:0:0:
227,146,28249,6,0,L|213:255,1,110.000003356934,4|8,1:2|0:0,0:0:0:0:
175,295,28892,1,0,3:0:0:0:
264,358,29321,2,0,P|321:370|351:324,1,110.000003356934,0|0,3:0|0:0,0:0:0:0:
352,279,29963,1,0,1:0:0:0:
442,216,30392,2,0,L|428:104,1,110.000003356934,8|2,0:0|0:0,0:0:0:0:
335,47,31249,1,8,0:0:0:0:
241,106,31678,6,0,L|228:216,1,110.000003356934,0|8,1:0|0:0,0:0:0:0:
213,325,32535,2,0,P|174:287|121:285,1,110.000003356934,2|8,0:0|0:0,0:0:0:0:
85,327,33178,1,2,0:0:0:0:
85,327,33392,2,0,L|72:217,1,110.000003356934,0|8,1:0|0:0,0:0:0:0:
180,196,34249,2,0,L|194:86,1,110.000003356934,2|8,0:0|0:0,0:0:0:0:
277,18,35106,6,0,P|337:14|371:86,1,110.000003356934,0|8,1:0|0:0,0:0:0:0:
391,97,35749,2,0,L|383:160,1,55.0000016784668,0|2,3:0|0:0,0:0:0:0:
355,198,36178,2,0,P|393:161|446:168,1,110.000003356934,0|2,3:0|0:0,0:0:0:0:
483,209,36821,1,0,1:0:0:0:
414,294,37249,2,0,L|304:280,1,110.000003356934,8|2,0:0|0:0,0:0:0:0:
271,236,37892,2,0,L|161:249,1,110.000003356934,0|2,3:0|0:0,0:0:0:0:
130,295,38535,5,0,1:0:0:0:
31,344,38963,1,8,0:0:0:0:
44,234,39392,1,2,0:0:0:0:
44,234,39606,2,0,L|30:124,1,110.000003356934,0|2,3:0|0:0,0:0:0:0:
26,69,40249,2,0,P|64:105|117:98,1,110.000003356934,0|8,1:0|0:0,0:0:0:0:
162,66,40892,1,0,3:0:0:0:
216,161,41321,1,0,3:2:0:0:
216,161,41535,2,0,L|295:170,1,55.0000016784668,8|2,0:0|0:0,0:0:0:0:
296,118,41963,6,0,L|310:228,1,110.000003356934,4|8,1:2|0:0,0:0:0:0:
284,276,42606,1,0,3:0:0:0:
284,276,42821,1,2,0:0:0:0:
380,329,43249,1,8,0:0:0:0:
453,247,43678,1,0,1:0:0:0:
453,247,43892,2,0,P|407:219|401:166,1,110.000003356934,2|0,0:0|3:0,0:0:0:0:
429,119,44535,1,2,0:0:0:0:
348,39,44963,1,8,0:0:0:0:
312,143,45392,6,0,L|202:129,1,110.000003356934,0|8,1:0|0:0,0:0:0:0:
162,166,46035,1,0,3:0:0:0:
162,166,46249,2,0,L|169:229,1,55.0000016784668,2|0,0:0|3:0,0:0:0:0:
219,242,46678,2,0,L|212:296,1,55.0000016784668,8|2,0:0|0:0,0:0:0:0:
178,340,47106,2,0,P|223:311|274:327,1,110.000003356934,0|8,1:0|0:0,0:0:0:0:
327,342,47749,2,0,L|313:232,2,110.000003356934,0|0|2,3:0|3:0|0:0,0:0:0:0:
375,368,48821,5,0,1:0:0:0:
400,261,49249,1,8,0:0:0:0:
505,229,49678,2,0,L|491:119,1,110.000003356934,2|8,0:0|0:0,0:0:0:0:
396,64,50535,2,0,P|363:21|309:19,1,110.000003356934,0|8,1:0|0:0,0:0:0:0:
259,117,51392,2,0,P|291:159|345:161,1,110.000003356934,2|8,0:0|0:0,0:0:0:0:
455,155,52249,5,4,1:2:0:0:
406,254,52678,2,0,L|413:317,1,55.0000016784668,8|0,0:0|1:0,0:0:0:0:
443,353,53106,2,0,P|397:324|346:340,1,110.000003356934,2|8,0:0|0:0,0:0:0:0:
250,384,53963,2,0,L|243:329,1,55.0000016784668,0|0,1:0|3:0,0:0:0:0:
237,274,54392,1,8,0:0:0:0:
330,215,54821,2,0,L|336:160,1,55.0000016784668,8|8,0:0|0:0,0:0:0:0:
343,105,55249,1,8,0:0:0:0:
246,157,55678,6,0,P|194:141|149:170,1,110.000003356934,4|8,1:2|0:0,0:0:0:0:
121,218,56321,1,0,3:0:0:0:
20,173,56749,2,0,L|34:63,1,110.000003356934,0|2,3:0|0:0,0:0:0:0:
12,13,57392,2,0,P|56:41|108:26,1,110.000003356934,0|8,1:0|0:0,0:0:0:0:
158,0,58035,1,0,3:0:0:0:
158,0,58249,1,0,0:0:0:0:
244,67,58678,1,8,0:0:0:0:
142,110,59106,6,0,L|156:220,1,110.000003356934,0|8,1:0|0:0,0:0:0:0:
135,270,59749,1,0,3:0:0:0:
211,348,60178,2,0,P|255:319|307:334,1,110.000003356934,0|2,3:0|0:0,0:0:0:0:
337,380,60821,2,0,L|351:270,1,110.000003356934,0|8,1:0|0:0,0:0:0:0:
388,230,61463,1,0,3:0:0:0:
401,120,61892,2,0,P|356:148|304:133,1,110.000003356934,0|2,3:0|0:0,0:0:0:0:
275,88,62535,6,0,L|261:198,1,110.000003356934,0|8,1:0|0:0,0:0:0:0:
224,238,63178,1,0,3:0:0:0:
220,348,63606,2,0,P|180:311|127:317,1,110.000003356934,0|2,3:0|0:0,0:0:0:0:
86,354,64249,1,0,1:0:0:0:
13,271,64678,2,0,L|27:161,1,110.000003356934,8|0,0:0|0:0,0:0:0:0:
78,142,65321,2,0,L|64:32,1,110.000003356934,0|2,3:0|0:0,0:0:0:0:
108,0,65963,6,0,L|171:7,1,55.0000016784668,0|2,1:0|0:0,0:0:0:0:
218,13,66392,1,8,0:0:0:0:
277,105,66821,2,0,L|340:97,1,55.0000016784668,0|0,0:0|3:0,0:0:0:0:
387,92,67249,1,8,0:0:0:0:
472,160,67678,2,0,P|429:192|426:245,1,110.000003356934,0|12,1:0|0:2,0:0:0:0:
405,296,68321,1,2,0:0:0:0:
405,296,68535,2,0,L|341:288,1,55.0000016784668,0|0,1:0|3:0,0:0:0:0:
319,243,68963,2,0,L|264:249,1,55.0000016784668,8|2,0:0|0:0,0:0:0:0:
236,296,69392,6,0,P|232:242|189:211,1,110.000003356934,4|8,1:2|0:0,0:0:0:0:
137,193,70035,1,0,3:0:0:0:
38,143,70463,2,0,L|51:33,1,110.000003356934,0|2,3:0|0:0,0:0:0:0:
97,4,71106,2,0,P|135:40|188:34,1,110.000003356934,0|8,1:0|0:0,0:0:0:0:
232,0,71749,1,0,3:0:0:0:
328,53,72178,2,0,L|314:162,1,110.000003356934,0|2,3:0|0:0,0:0:0:0:
269,192,72821,6,0,P|230:155|177:161,1,110.000003356934,0|8,1:0|0:0,0:0:0:0:
134,196,73463,1,0,3:0:0:0:
183,294,73892,2,0,L|292:280,1,110.000003356934,0|2,3:0|0:0,0:0:0:0:
340,306,74535,1,0,1:0:0:0:
433,362,74963,1,8,0:0:0:0:
439,252,75392,2,0,P|432:199|469:160,1,110.000003356934,0|8,0:0|0:0,0:0:0:0:
489,108,76035,1,2,0:0:0:0:
489,108,76249,5,0,1:0:0:0:
409,31,76678,2,0,L|299:44,1,110.000003356934,8|0,0:0|0:0,0:0:0:0:
273,92,77321,1,0,3:0:0:0:
273,92,77535,2,0,L|193:82,1,55.0000016784668,8|2,0:0|0:0,0:0:0:0:
175,119,77963,2,0,P|168:171|205:210,1,110.000003356934,0|8,1:0|0:0,0:0:0:0:
259,224,78606,1,0,3:0:0:0:
187,307,79035,2,0,L|77:320,1,110.000003356934,0|2,3:0|0:0,0:0:0:0:
42,362,79678,5,4,1:2:0:0:
1,260,80106,1,8,0:0:0:0:
71,175,80535,2,0,L|78:112,1,55.0000016784668,0|0,0:0|3:0,0:0:0:0:
84,65,80963,1,12,0:2:0:0:
182,16,81392,2,0,P|217:66|275:50,1,110.000003356934,8|4,0:0|1:2,0:0:0:0:
308,35,82035,2,0,P|360:35|386:81,1,110.000003356934,0|4,3:0|1:2,0:0:0:0:
380,136,82678,1,8,0:0:0:0:
454,216,83106,6,0,L|326:231,1,110.000003356934,4|8,1:2|0:0,0:0:0:0:
282,319,83963,1,2,0:0:0:0:
219,228,84392,1,8,0:0:0:0:
156,319,84821,1,0,1:0:0:0:
156,319,85035,2,0,P|130:273|78:272,1,110.000003356934,2|0,0:0|3:0,0:0:0:0:
34,306,85678,1,2,0:0:0:0:
49,197,86106,1,8,0:0:0:0:
2,97,86535,6,0,L|130:112,1,110.000003356934,0|8,1:0|0:0,0:0:0:0:
193,36,87392,2,0,L|302:23,1,110.000003356934,2|8,0:0|0:0,0:0:0:0:
403,65,88249,2,0,P|352:108|372:161,1,110.000003356934,0|8,1:0|0:0,0:0:0:0:
390,189,88892,2,0,L|382:252,1,55.0000016784668,0|2,3:0|0:0,0:0:0:0:
449,331,89535,1,8,0:0:0:0:
340,346,89963,6,0,P|321:305|260:303,1,110.000003356934,0|8,1:0|0:0,0:0:0:0:
178,373,90821,1,2,0:0:0:0:
158,265,91249,1,8,0:0:0:0:
241,193,91678,2,0,L|228:83,1,110.000003356934,0|8,1:0|0:0,0:0:0:0:
261,39,92321,2,0,P|212:58|172:24,1,110.000003356934,0|0,3:0|3:0,0:0:0:0:
123,0,92963,1,8,0:0:0:0:
31,61,93392,5,0,1:0:0:0:
31,61,93606,2,0,L|38:124,1,55.0000016784668,2|8,0:0|0:0,0:0:0:0:
79,151,94035,2,0,L|63:278,1,110.000003356934,0|0,3:0|3:0,0:0:0:0:
23,295,94678,1,8,0:0:0:0:
111,359,95106,2,0,L|174:352,1,55.0000016784668,0|8,1:0|0:0,0:0:0:0:
221,346,95535,1,8,0:0:0:0:
168,249,95963,2,0,L|175:186,1,55.0000016784668,0|0,3:0|3:0,0:0:0:0:
221,166,96392,2,0,L|214:103,1,55.0000016784668,8|0,0:0|3:0,0:0:0:0:
168,83,96821,6,0,P|219:93|252:53,1,110.000003356934,4|8,1:2|0:0,0:0:0:0:
290,12,97463,1,0,3:0:0:0:
381,73,97892,2,0,L|365:200,1,110.000003356934,0|2,3:0|0:0,0:0:0:0:
333,225,98535,1,0,1:0:0:0:
442,218,98963,1,8,0:0:0:0:
397,318,99392,2,0,P|346:306|319:355,1,110.000003356934,2|8,0:0|0:0,0:0:0:0:
216,307,100249,6,0,L|161:315,1,55.0000016784668,0|2,1:0|0:0,0:0:0:0:
125,349,100678,2,0,L|70:340,1,55.0000016784668,8|0,0:0|3:0,0:0:0:0:
32,305,101106,2,0,L|18:195,1,110.000003356934,2|8,0:0|0:0,0:0:0:0:
69,98,101963,1,0,1:0:0:0:
133,186,102392,1,8,0:0:0:0:
183,88,102821,2,0,L|292:101,1,110.000003356934,2|8,0:0|0:0,0:0:0:0:
337,71,103463,1,2,0:0:0:0:
337,71,103678,6,0,P|326:122|366:155,1,110.000003356934,4|8,1:2|0:0,0:0:0:0:
407,198,104321,1,0,3:0:0:0:
407,198,104535,1,2,0:0:0:0:
484,120,104963,2,0,L|476:56,1,55.0000016784668,8|2,0:0|0:0,0:0:0:0:
511,21,105392,2,0,L|401:7,1,110.000003356934,0|8,1:0|0:0,0:0:0:0:
315,75,106249,2,0,L|260:68,1,55.0000016784668,2|0,0:0|3:0,0:0:0:0:
236,19,106678,2,0,L|181:25,1,55.0000016784668,8|2,0:0|0:0,0:0:0:0:
157,75,107106,5,0,1:0:0:0:
57,27,107535,1,8,0:0:0:0:
71,135,107963,2,0,L|64:189,1,55.0000016784668,2|0,0:0|3:0,0:0:0:0:
15,214,108392,2,0,L|21:268,1,55.0000016784668,8|2,0:0|0:0,0:0:0:0:
59,308,108821,2,0,L|168:294,1,110.000003356934,4|2,1:2|0:0,0:0:0:0:
198,249,109463,2,0,L|307:262,1,110.000003356934,0|2,3:0|0:0,0:0:0:0:
339,307,110106,1,8,0:0:0:0:
415,227,110535,6,0,L|401:117,1,110.000003356934,4|8,1:2|0:0,0:0:0:0:
427,69,111178,1,0,3:0:0:0:
427,69,111392,1,2,0:0:0:0:
339,1,111821,1,8,0:0:0:0:
314,108,112249,1,0,1:0:0:0:
314,108,112463,2,0,P|271:74|220:86,1,110.000003356934,2|0,0:0|3:0,0:0:0:0:
183,127,113106,1,2,0:0:0:0:
106,48,113535,1,8,0:0:0:0:
72,152,113963,6,0,L|86:262,1,110.000003356934,0|8,1:0|0:0,0:0:0:0:
134,294,114606,1,0,3:0:0:0:
134,294,114821,2,0,L|188:300,1,55.0000016784668,2|0,0:0|3:0,0:0:0:0:
226,259,115249,2,0,L|280:252,1,55.0000016784668,8|2,0:0|0:0,0:0:0:0:
309,205,115678,2,0,P|359:189|404:218,1,110.000003356934,0|8,1:0|0:0,0:0:0:0:
431,266,116321,2,0,L|445:156,2,110.000003356934,0|0|2,3:0|3:0|0:0,0:0:0:0:
457,314,117392,5,0,1:0:0:0:
365,374,117821,1,8,0:0:0:0:
272,314,118249,2,0,L|162:328,1,110.000003356934,2|8,0:0|0:0,0:0:0:0:
71,268,119106,2,0,P|28:235|26:181,1,110.000003356934,0|8,1:0|0:0,0:0:0:0:
124,131,119963,2,0,P|166:163|168:217,1,110.000003356934,2|8,0:0|0:0,0:0:0:0:
162,327,120821,5,4,1:2:0:0:
260,277,121249,2,0,L|267:214,1,55.0000016784668,8|0,0:0|3:0,0:0:0:0:
311,191,121678,2,0,P|282:145|298:94,1,110.000003356934,2|8,0:0|0:0,0:0:0:0:
380,22,122535,2,0,L|387:77,1,55.0000016784668,0|0,1:0|1:0,0:0:0:0:
393,132,122963,1,0,3:0:0:0:
478,201,123392,2,0,L|472:256,1,55.0000016784668,8|0,0:0|3:0,0:0:0:0:
465,311,123821,1,8,0:0:0:0:
370,366,124249,6,0,P|332:326|279:328,1,110.000003356934,4|8,1:2|0:0,0:0:0:0:
231,356,124892,1,0,3:0:0:0:
139,295,125321,2,0,L|153:185,1,110.000003356934,0|2,3:0|0:0,0:0:0:0:
131,135,125963,2,0,P|175:163|227:148,1,110.000003356934,0|8,1:0|0:0,0:0:0:0:
277,122,126606,1,0,3:0:0:0:
277,122,126821,1,2,0:0:0:0:
326,23,127249,1,8,0:0:0:0:
216,31,127678,6,0,L|106:45,1,110.000003356934,0|8,1:0|0:0,0:0:0:0:
56,24,128321,1,0,3:0:0:0:
36,132,128749,2,0,P|65:176|50:228,1,110.000003356934,0|2,3:0|0:0,0:0:0:0:
4,258,129392,2,0,L|114:272,1,110.000003356934,0|8,1:0|0:0,0:0:0:0:
154,309,130035,1,0,3:0:0:0:
250,362,130463,2,0,P|303:358|336:316,1,110.000003356934,0|2,3:0|0:0,0:0:0:0:
378,281,131106,6,0,L|364:171,1,110.000003356934,0|8,1:0|0:0,0:0:0:0:
327,131,131749,1,0,3:0:0:0:
263,40,132178,2,0,P|223:77|170:71,1,110.000003356934,0|2,3:0|0:0,0:0:0:0:
129,34,132821,1,0,1:0:0:0:
47,108,133249,2,0,L|61:218,1,110.000003356934,8|2,0:0|0:0,0:0:0:0:
25,259,133892,2,0,P|76:244|121:274,1,110.000003356934,0|2,3:0|0:0,0:0:0:0:
146,322,134535,6,0,L|209:315,1,55.0000016784668,0|2,1:0|0:0,0:0:0:0:
256,309,134963,1,8,0:0:0:0:
286,203,135392,2,0,L|223:195,1,55.0000016784668,2|0,0:0|3:0,0:0:0:0:
176,190,135821,1,8,0:0:0:0:
112,100,136249,2,0,P|144:57|197:54,1,110.000003356934,0|8,1:0|0:0,0:0:0:0:
248,33,136892,1,2,0:0:0:0:
248,33,137106,2,0,L|302:39,1,55.0000016784668,4|8,3:2|0:2,0:0:0:0:
341,78,137535,2,0,L|396:72,1,55.0000016784668,0|0,1:0|3:0,0:0:0:0:
438,37,137963,6,0,P|414:85|436:134,1,110.000003356934,4|8,1:2|0:0,0:0:0:0:
472,175,138606,1,0,3:0:0:0:
377,230,139035,2,0,L|267:216,1,110.000003356934,0|2,3:0|0:0,0:0:0:0:
227,253,139678,2,0,P|252:298|234:348,1,110.000003356934,0|8,1:0|0:0,0:0:0:0:
185,377,140321,1,0,3:0:0:0:
93,315,140749,2,0,L|107:206,1,110.000003356934,0|2,3:0|0:0,0:0:0:0:
158,185,141392,6,0,P|195:146|189:93,1,110.000003356934,0|8,1:0|0:0,0:0:0:0:
154,50,142035,1,0,3:0:0:0:
258,15,142463,2,0,L|367:29,1,110.000003356934,0|2,3:0|0:0,0:0:0:0:
403,70,143106,1,0,1:0:0:0:
324,147,143535,1,8,0:0:0:0:
431,172,143963,2,0,P|438:225|401:264,1,110.000003356934,2|8,0:0|0:0,0:0:0:0:
381,316,144606,1,2,0:0:0:0:
381,316,144821,5,4,1:2:0:0:
317,225,145249,2,0,L|207:238,1,110.000003356934,8|2,0:0|0:0,0:0:0:0:
181,286,145892,1,0,3:0:0:0:
181,286,146106,2,0,L|101:276,1,55.0000016784668,8|2,0:0|0:0,0:0:0:0:
93,323,146535,2,0,P|100:271|63:232,1,110.000003356934,0|8,1:0|0:0,0:0:0:0:
28,188,147178,1,0,3:0:0:0:
112,118,147606,2,0,L|222:131,1,110.000003356934,0|2,3:0|0:0,0:0:0:0:
255,174,148249,6,0,L|318:167,1,55.0000016784668,0|2,1:0|0:0,0:0:0:0:
364,162,148678,1,8,0:0:0:0:
406,60,149106,2,0,L|343:53,1,55.0000016784668,2|0,0:0|3:0,0:0:0:0:
298,48,149535,1,12,0:2:0:0:
202,0,149963,2,0,P|168:51|110:37,1,110.000003356934,0|8,1:0|0:0,0:0:0:0:
76,23,150606,2,0,P|24:24|0:71,1,110.000003356934,2|8,0:0|0:0,0:0:0:0:
8,126,151249,1,8,0:0:0:0:
105,195,151678,6,0,L|89:322,1,119.999996337891,4|8,1:2|0:0,0:0:0:0:
133,354,152321,1,0,3:0:0:0:
189,250,152749,2,0,P|228:227|278:283,1,119.999996337891,0|2,3:0|0:0,0:0:0:0:
295,327,153392,1,4,1:2:0:0:
364,229,153821,1,8,0:0:0:0:
364,229,154035,2,0,L|349:109,1,119.999996337891,0|0,3:0|3:0,0:0:0:0:
386,62,154678,1,8,0:0:0:0:
266,52,155106,6,0,P|243:91|172:67,1,119.999996337891,4|8,1:2|0:0,0:0:0:0:
135,38,155749,1,0,3:0:0:0:
77,143,156178,2,0,L|92:270,1,119.999996337891,0|2,3:0|0:0,0:0:0:0:
77,320,156821,2,0,P|111:276|177:281,1,119.999996337891,4|8,1:2|0:0,0:0:0:0:
212,320,157463,1,0,3:0:0:0:
288,227,157892,2,0,L|272:99,1,119.999996337891,0|2,3:0|0:0,0:0:0:0:
259,50,158535,6,0,P|293:94|359:89,1,119.999996337891,4|8,1:2|0:0,0:0:0:0:
394,50,159178,1,0,3:0:0:0:
465,146,159606,2,0,L|450:265,1,119.999996337891,0|2,3:0|0:0,0:0:0:0:
480,317,160249,1,4,1:2:0:0:
377,379,160678,1,8,0:0:0:0:
274,317,161106,1,2,0:0:0:0:
274,317,161321,2,0,L|154:331,1,119.999996337891,0|2,3:0|0:0,0:0:0:0:
116,377,161963,5,4,1:2:0:0:
28,295,162392,1,8,0:0:0:0:
138,247,162821,2,0,L|145:183,1,59.9999981689454,2|0,0:0|3:0,0:0:0:0:
153,128,163249,1,8,0:0:0:0:
78,33,163678,2,0,L|197:18,1,119.999996337891,0|8,1:0|0:0,0:0:0:0:
249,54,164321,1,0,3:0:0:0:
249,54,164535,1,0,3:0:0:0:
351,116,164963,2,0,L|410:108,1,59.9999981689454,8|0,0:0|3:0,0:0:0:0:
451,63,165392,6,0,L|436:182,1,119.999996337891,4|8,1:2|0:0,0:0:0:0:
470,237,166035,1,0,3:0:0:0:
470,237,166249,1,2,0:0:0:0:
376,312,166678,1,8,0:0:0:0:
345,195,167106,1,4,1:2:0:0:
345,195,167321,2,0,P|287:192|250:237,1,119.999996337891,2|0,0:0|3:0,0:0:0:0:
238,296,167963,1,2,0:0:0:0:
139,365,168392,1,8,0:0:0:0:
137,244,168821,6,0,L|122:125,1,119.999996337891,4|8,1:2|0:0,0:0:0:0:
158,78,169463,1,0,3:0:0:0:
158,78,169678,2,0,L|237:87,1,59.9999981689454,2|0,0:0|3:0,0:0:0:0:
260,126,170106,2,0,L|319:118,1,59.9999981689454,8|2,0:0|0:0,0:0:0:0:
373,91,170535,2,0,P|338:137|356:192,1,119.999996337891,4|8,1:2|0:0,0:0:0:0:
407,223,171178,2,0,L|288:238,1,119.999996337891,0|0,3:0|3:0,0:0:0:0:
237,204,171821,1,8,0:0:0:0:
193,315,172249,6,0,L|312:330,1,119.999996337891,4|8,1:2|0:0,0:0:0:0:
409,259,173106,2,0,P|391:203|425:157,1,119.999996337891,2|8,0:0|0:0,0:0:0:0:
479,49,173963,2,0,L|360:64,1,119.999996337891,4|8,1:2|0:0,0:0:0:0:
283,156,174821,2,0,L|207:143,1,59.9999981689454,2|0,0:0|3:0,0:0:0:0:
164,138,175249,1,8,0:0:0:0:
76,219,175678,6,0,B|186:204|131:274|242:260,1,179.999994506836,12|8,1:2|1:2,0:0:0:0:
409,89,177606,6,0,P|355:85|342:155,1,119.999996337891,12|8,1:2|1:2,0:0:0:0:
299,188,178249,1,8,1:2:0:0:
