osu file format v14

[General]
AudioFilename: audio.mp3
AudioLeadIn: 0
PreviewTime: 110485
Countdown: 0
SampleSet: Soft
StackLeniency: 0.4
Mode: 0
LetterboxInBreaks: 0
WidescreenStoryboard: 1

[Editor]
Bookmarks: 821,24821,28249,41963,55678,69392,83106,96821,110535,124249,137963,151678,165392,175678,178249
DistanceSpacing: 1
BeatDivisor: 4
GridSize: 16
TimelineZoom: 1

[Metadata]
Title:This December
TitleUnicode:This December
Artist:Ricky Montgomery
ArtistUnicode:Ricky Montgomery
Creator:Xehn
Version:Noble
Source:
Tags:alternative rock indie the honeysticks english xenon- potatoboy123
BeatmapID:2048440
BeatmapSetID:966568

[Difficulty]
HPDrainRate:5
CircleSize:3.8
OverallDifficulty:7.8
ApproachRate:8.4
SliderMultiplier:1
SliderTickRate:1

[Events]
//Background and Video events
0,0,"bg.jpg",0,0
//Break Periods
//Storyboard Layer 0 (Background)
//Storyboard Layer 1 (Fail)
//Storyboard Layer 2 (Pass)
//Storyboard Layer 3 (Foreground)
//Storyboard Sound Samples

[TimingPoints]
821,428.571428571429,4,2,2,50,1,0
24821,-71.4285714285714,4,2,2,50,0,0
28249,-50,4,2,2,55,0,0
28678,-62.5,4,2,2,55,0,0
41963,-50,4,2,2,60,0,0
42285,-50,4,2,2,5,0,0
42392,-62.5,4,2,2,60,0,0
43142,-62.5,4,2,2,5,0,0
43249,-62.5,4,2,2,60,0,0
44856,-62.5,4,2,2,5,0,0
44963,-62.5,4,2,2,60,0,0
48071,-62.5,4,2,2,5,0,0
48178,-62.5,4,2,2,60,0,0
49999,-62.5,4,2,2,5,0,0
50106,-62.5,4,2,2,60,0,0
52571,-62.5,4,2,2,5,0,0
52678,-62.5,4,2,2,60,0,0
55678,-45.4545454545455,4,2,2,70,0,0
55999,-45.4545454545455,4,2,2,5,0,0
56106,-45.4545454545455,4,2,2,70,0,0
56321,-62.5,4,2,2,70,0,0
59428,-62.5,4,2,2,5,0,0
59535,-62.5,4,2,2,70,0,0
61785,-62.5,4,2,2,5,0,0
61892,-62.5,4,2,2,70,0,0
69392,-45.4545454545455,4,2,2,70,0,0
69713,-45.4545454545455,4,2,2,5,0,0
69821,-45.4545454545455,4,2,2,70,0,0
70035,-62.5,4,2,2,70,0,0
72071,-62.5,4,2,2,5,0,0
72178,-62.5,4,2,2,70,0,0
73142,-62.5,4,2,2,5,0,0
73249,-62.5,4,2,2,70,0,0
75285,-62.5,4,2,2,5,0,0
75392,-62.5,4,2,2,70,0,0
78285,-62.5,4,2,2,5,0,0
78392,-62.5,4,2,2,70,0,0
83106,-50,4,2,2,65,0,0
83428,-50,4,2,2,5,0,0
83535,-86.9565217391304,4,2,2,65,0,0
86535,-55.5555555555556,4,2,2,65,0,0
86856,-55.5555555555556,4,2,2,5,0,0
86963,-55.5555555555556,4,2,2,65,0,0
87713,-55.5555555555556,4,2,2,5,0,0
87820,-55.5555555555556,4,2,2,65,0,0
88571,-55.5555555555556,4,2,2,5,0,0
88678,-55.5555555555556,4,2,2,65,0,0
89535,-86.9565217391304,4,2,2,65,0,0
95535,-62.5,4,2,2,65,0,0
96821,-50,4,2,2,60,0,0
97249,-62.5,4,2,2,60,0,0
103678,-50,4,2,2,60,0,0
104106,-62.5,4,2,2,60,0,0
110535,-50,4,2,2,65,0,0
110856,-50,4,2,2,5,0,0
110963,-62.5,4,2,2,65,0,0
111713,-62.5,4,2,2,5,0,0
111821,-62.5,4,2,2,65,0,0
113428,-62.5,4,2,2,5,0,0
113535,-62.5,4,2,2,65,0,0
116642,-62.5,4,2,2,5,0,0
116749,-62.5,4,2,2,65,0,0
118571,-62.5,4,2,2,5,0,0
118678,-62.5,4,2,2,65,0,0
121142,-62.5,4,2,2,5,0,0
121249,-62.5,4,2,2,65,0,0
124249,-40,4,2,2,75,0,0
124571,-40,4,2,2,5,0,0
124678,-50,4,2,2,75,0,0
127999,-50,4,2,2,5,0,0
128106,-50,4,2,2,75,0,0
137963,-45.4545454545455,4,2,2,75,0,0
138285,-45.4545454545455,4,2,2,5,0,0
138392,-50,4,2,2,75,0,0
141713,-50,4,2,2,5,0,0
141820,-50,4,2,2,75,0,0
143428,-50,4,2,2,5,0,0
143535,-50,4,2,2,75,0,0
146856,-50,4,2,2,5,0,0
146963,-50,4,2,2,75,0,0
148249,-38.4615384615385,4,2,2,75,0,0
151678,-38.4615384615385,4,2,2,85,0,1
151999,-38.4615384615385,4,2,2,5,0,1
152106,-38.4615384615385,4,2,2,85,0,1
152321,-62.5,4,2,2,85,0,1
153392,-43.4782608695652,4,2,2,85,0,1
153713,-43.4782608695652,4,2,2,5,0,1
153821,-43.4782608695652,4,2,2,85,0,1
154678,-66.6666666666667,4,2,2,85,0,1
154999,-66.6666666666667,4,2,2,5,0,1
155106,-38.4615384615385,4,2,2,85,0,1
156606,-62.5,4,2,2,85,0,1
156821,-43.4782608695652,4,2,2,85,0,1
157142,-43.4782608695652,4,2,2,5,0,1
157249,-43.4782608695652,4,2,2,85,0,1
157463,-55.5555555555556,4,2,2,85,0,1
158321,-62.5,4,2,2,85,0,1
158535,-43.4782608695652,4,2,2,85,0,1
158856,-43.4782608695652,4,2,2,5,0,1
158963,-43.4782608695652,4,2,2,85,0,1
160249,-36.3636363636364,4,2,2,85,0,1
160571,-36.3636363636364,4,2,2,5,0,1
160678,-36.3636363636364,4,2,2,85,0,1
161749,-62.5,4,2,2,85,0,1
162821,-50,4,2,2,85,0,1
165392,-43.4782608695652,4,2,2,85,0,1
165713,-43.4782608695652,4,2,2,5,0,1
165821,-43.4782608695652,4,2,2,85,0,1
166892,-62.5,4,2,2,85,0,1
170535,-43.4782608695652,4,2,2,85,0,1
170856,-43.4782608695652,4,2,2,5,0,1
170963,-43.4782608695652,4,2,2,85,0,1
171178,-50,4,2,2,85,0,1
172035,-62.5,4,2,2,85,0,1
172249,-43.4782608695652,4,2,2,85,0,1
172571,-43.4782608695652,4,2,2,5,0,1
172678,-43.4782608695652,4,2,2,85,0,1
173749,-62.5,4,2,2,85,0,1
173963,-43.4782608695652,4,2,2,85,0,1
174285,-43.4782608695652,4,2,2,5,0,1
174392,-43.4782608695652,4,2,2,85,0,1
175678,-41.6666666666667,4,2,2,85,0,0
176213,-41.6666666666667,4,2,2,5,0,0
176321,-41.6666666666667,4,2,2,85,0,0
176428,-41.6666666666667,4,2,2,5,0,0
176536,-41.6666666666667,4,2,2,85,0,0
177928,-41.6666666666667,4,2,2,5,0,0
178036,-41.6666666666667,4,2,2,85,0,0
178142,-41.6666666666667,4,2,2,5,0,0
178249,-36.3636363636364,4,2,2,85,0,0
178250,-41.6666666666667,4,2,2,85,0,0
178356,-41.6666666666667,4,2,2,5,0,0
178464,-41.6666666666667,4,2,2,85,0,0

[Colours]
Combo1 : 144,215,245
Combo2 : 107,107,107
Combo3 : 46,105,203
Combo4 : 182,182,182

[HitObjects]
49,130,24821,6,0,B|179:147|115:65|244:82,1,209.999993591309,2|2,0:0|0:0,0:0:0:0:
422,106,26749,2,0,P|372:99|344:181,1,139.999995727539,2|2,0:0|0:0,0:0:0:0:
300,241,27392,1,2,0:0:0:0:
254,118,28249,6,0,L|267:-2,1,100,4|0,1:2|0:0,0:0:0:0:
119,172,28678,1,8,0:0:0:0:
98,94,28892,2,0,B|197:81|148:143|246:130,1,160,0|0,3:0|3:0,0:0:0:0:
393,8,29535,5,8,0:0:0:0:
363,82,29749,1,0,0:0:0:0:
456,221,29963,1,0,1:0:0:0:
108,256,30392,6,0,L|119:160,1,80,8|0,0:0|3:0,0:0:0:0:
96,264,30821,2,0,L|107:168,1,80,2|0,0:0|3:0,0:0:0:0:
191,378,31249,2,0,L|180:282,1,80,8|0,0:0|0:0,0:0:0:0:
329,271,31678,6,0,P|290:277|258:255,1,80,0|0,1:0|0:0,0:0:0:0:
167,149,32106,1,8,0:0:0:0:
188,71,32321,1,0,3:0:0:0:
156,159,32535,5,2,0:0:0:0:
177,237,32749,1,0,3:0:0:0:
80,122,32963,5,8,0:0:0:0:
186,56,33178,1,2,0:0:0:0:
99,267,33392,1,0,1:0:0:0:
345,43,33821,6,0,L|334:139,1,80,8|0,0:0|3:0,0:0:0:0:
423,279,34249,1,2,0:0:0:0:
352,240,34463,1,0,3:0:0:0:
348,221,34571,1,2,0:0:0:0:
358,204,34678,2,0,L|294:211,1,40,8|0,0:0|0:0,0:0:0:0:
294,212,34892,1,0,0:0:0:0:
125,107,35106,6,0,P|194:92|208:185,1,160,0|8,1:0|0:0,0:0:0:0:
70,201,35749,1,0,3:0:0:0:
147,183,35963,2,0,L|135:278,1,80,2|0,0:0|3:0,0:0:0:0:
231,378,36392,5,8,0:0:0:0:
305,348,36606,1,2,0:0:0:0:
142,272,36821,1,0,1:0:0:0:
314,29,37249,6,0,L|325:124,1,80,8|0,0:0|3:0,0:0:0:0:
458,205,37678,1,2,0:0:0:0:
404,145,37892,2,0,L|413:65,1,80,0|8,3:0|0:0,0:0:0:0:
482,25,38321,1,2,0:0:0:0:
465,214,38535,6,0,P|459:252|482:284,1,80,0|0,1:0|0:0,0:0:0:0:
293,384,38963,2,0,P|299:345|276:313,1,80,8|0,0:0|3:0,0:0:0:0:
204,278,39392,5,2,0:0:0:0:
229,136,39606,1,0,3:0:0:0:
253,213,39821,1,8,0:0:0:0:
86,191,40035,5,2,0:0:0:0:
267,225,40249,1,0,1:0:0:0:
68,0,40678,5,8,0:0:0:0:
100,197,40892,1,0,3:0:0:0:
41,142,41106,1,2,0:0:0:0:
37,123,41213,1,0,3:0:0:0:
47,106,41321,5,0,3:2:0:0:
175,233,41535,1,8,0:0:0:0:
84,377,41749,1,2,0:0:0:0:
14,342,41963,6,0,B|107:354|60:296|154:307,1,150,4|0,1:2|0:0,0:0:0:0:
162,312,42392,1,8,0:0:0:0:
319,384,42606,1,0,3:0:0:0:
382,333,42821,6,0,P|371:274|367:213,1,120,2|0,0:0|0:0,0:0:0:0:
369,204,43249,1,8,0:0:0:0:
144,9,43678,5,0,1:0:0:0:
124,167,43892,1,2,0:0:0:0:
72,227,44106,1,8,0:0:0:0:
0,112,44321,1,0,3:0:0:0:
86,234,44535,6,0,P|96:292|100:353,1,120,2|0,0:0|0:0,0:0:0:0:
99,363,44963,1,8,0:0:0:0:
383,110,45392,5,0,1:0:0:0:
319,158,45606,1,2,0:0:0:0:
209,84,45821,1,8,0:0:0:0:
82,140,46035,1,0,3:0:0:0:
218,95,46249,5,2,0:0:0:0:
303,240,46463,1,0,3:0:0:0:
164,208,46678,5,8,0:0:0:0:
159,186,46785,1,0,0:0:0:0:
167,162,46892,1,2,0:0:0:0:
224,106,47106,1,0,1:0:0:0:
438,333,47535,5,8,0:0:0:0:
375,282,47749,2,0,P|385:223|389:162,1,120,0|0,3:0|0:0,0:0:0:0:
388,153,48178,5,0,3:0:0:0:
494,270,48392,1,8,0:0:0:0:
329,352,48606,1,2,0:0:0:0:
294,279,48821,1,0,1:0:0:0:
218,50,49249,5,8,0:0:0:0:
61,74,49463,1,0,3:0:0:0:
133,35,49678,2,0,P|144:94|148:155,1,120,2|0,0:0|0:0,0:0:0:0:
146,164,50106,5,8,0:0:0:0:
96,226,50321,1,0,0:0:0:0:
123,377,50535,1,0,1:0:0:0:
256,68,50963,5,8,0:0:0:0:
229,187,51178,1,0,3:0:0:0:
390,230,51392,5,2,0:0:0:0:
341,166,51606,1,0,3:0:0:0:
185,261,51821,1,8,0:0:0:0:
27,36,52249,6,0,B|101:26|64:72|138:63,1,120,4|0,1:2|0:0,0:0:0:0:
148,60,52678,1,8,0:0:0:0:
308,42,52892,1,0,1:0:0:0:
365,97,53106,5,2,0:0:0:0:
384,101,53213,1,0,3:0:0:0:
401,91,53321,1,0,3:0:0:0:
512,194,53535,1,8,0:0:0:0:
456,251,53749,1,2,0:0:0:0:
437,255,53856,1,0,3:0:0:0:
420,245,53963,1,0,1:0:0:0:
272,381,54178,6,0,L|283:285,1,80,0|8,3:0|0:0,0:0:0:0:
282,295,54499,1,8,0:0:0:0:
282,295,54606,1,0,1:0:0:0:
134,103,54821,5,8,0:0:0:0:
191,322,55035,1,8,0:0:0:0:
133,266,55249,1,8,0:0:0:0:
130,232,55356,1,8,0:0:0:0:
140,212,55463,1,0,3:0:0:0:
356,292,55678,6,0,B|255:278|305:342|203:329,1,165.000005035401,4|0,1:2|0:0,0:0:0:0:
191,322,56106,1,8,0:0:0:0:
389,212,56321,2,0,L|468:222,1,80,0|0,3:0|0:0,0:0:0:0:
282,131,56749,5,0,3:0:0:0:
381,74,56963,1,8,0:0:0:0:
434,134,57178,1,2,0:0:0:0:
370,291,57392,1,0,1:0:0:0:
54,209,57821,5,8,0:0:0:0:
151,147,58035,1,0,3:0:0:0:
210,200,58249,5,0,0:0:0:0:
68,125,58463,1,0,3:0:0:0:
41,200,58678,2,0,L|52:295,1,80,8|0,0:0|0:0,0:0:0:0:
231,126,59106,6,0,P|281:100|324:137,1,120,0|0,1:0|0:0,0:0:0:0:
329,153,59535,1,8,0:0:0:0:
277,290,59749,1,0,3:0:0:0:
338,239,59963,1,0,0:0:0:0:
358,229,60071,1,0,3:0:0:0:
392,232,60178,1,0,3:0:0:0:
291,371,60392,5,8,0:0:0:0:
142,270,60606,1,2,0:0:0:0:
129,349,60821,1,0,1:0:0:0:
38,143,61249,5,8,0:0:0:0:
91,202,61463,2,0,P|80:143|76:82,1,120,0|0,3:0|0:0,0:0:0:0:
78,73,61892,1,0,3:0:0:0:
232,29,62106,5,8,0:0:0:0:
47,0,62321,1,2,0:0:0:0:
0,65,62535,1,0,1:0:0:0:
318,141,62963,5,8,0:0:0:0:
374,198,63178,2,0,L|362:102,1,80,0|0,3:0|0:0,0:0:0:0:
488,375,63606,2,0,L|497:295,1,80,0|8,3:0|0:0,0:0:0:0:
450,229,64035,5,2,0:0:0:0:
275,290,64249,1,0,1:0:0:0:
474,33,64678,6,0,L|464:112,1,80,8|0,0:0|3:0,0:0:0:0:
342,236,65106,1,0,0:0:0:0:
387,81,65321,5,0,3:0:0:0:
330,24,65535,1,8,0:0:0:0:
387,97,65749,5,2,0:0:0:0:
330,241,65963,1,0,1:0:0:0:
330,160,66178,5,2,0:0:0:0:
234,59,66392,1,8,0:0:0:0:
144,105,66606,1,0,3:0:0:0:
218,135,66821,5,0,0:0:0:0:
88,45,67035,1,0,3:0:0:0:
222,147,67249,1,8,0:0:0:0:
227,67,67463,1,0,0:0:0:0:
104,250,67678,5,0,1:0:0:0:
146,182,67892,1,2,0:0:0:0:
331,272,68106,1,12,0:2:0:0:
280,209,68321,5,2,0:0:0:0:
276,190,68428,1,0,3:0:0:0:
286,173,68535,1,0,1:0:0:0:
409,370,68749,1,0,3:0:0:0:
502,193,68963,5,8,0:0:0:0:
445,181,69071,1,0,3:0:0:0:
413,200,69178,1,2,0:0:0:0:
260,365,69392,6,0,B|159:379|209:315|107:328,1,165.000005035401,4|0,1:2|0:0,0:0:0:0:
95,335,69821,1,8,0:0:0:0:
0,208,70035,2,0,L|11:112,1,80,0|0,3:0|0:0,0:0:0:0:
189,12,70463,5,0,3:0:0:0:
92,150,70678,1,8,0:0:0:0:
74,72,70892,1,2,0:0:0:0:
250,193,71106,1,0,1:0:0:0:
512,107,71535,5,8,0:0:0:0:
459,48,71749,2,0,P|470:107|474:168,1,120,0|0,3:0|0:0,0:0:0:0:
472,177,72178,1,0,3:0:0:0:
311,350,72392,5,8,0:0:0:0:
445,254,72606,1,2,0:0:0:0:
506,305,72821,2,0,P|447:294|386:290,1,120,0|0,1:0|0:0,0:0:0:0:
377,292,73249,1,8,0:0:0:0:
232,384,73463,6,0,L|220:288,1,80,0|0,3:0|0:0,0:0:0:0:
268,239,73892,1,0,3:0:0:0:
244,86,74106,1,8,0:0:0:0:
309,40,74321,1,2,0:0:0:0:
442,177,74535,1,0,1:0:0:0:
115,99,74963,6,0,P|174:88|235:84,1,120,8|0,0:0|0:0,0:0:0:0:
244,86,75392,1,0,0:0:0:0:
304,138,75606,1,0,3:0:0:0:
460,100,75821,5,8,0:0:0:0:
475,21,76035,1,2,0:0:0:0:
304,150,76249,1,0,1:0:0:0:
134,279,76678,5,8,0:0:0:0:
213,267,76892,2,0,L|201:362,1,80,0|0,3:0|0:0,0:0:0:0:
395,186,77321,5,0,3:0:0:0:
252,130,77535,1,8,0:0:0:0:
160,203,77749,1,2,0:0:0:0:
336,129,77963,6,0,P|325:70|321:9,1,120,0|0,1:0|0:0,0:0:0:0:
323,0,78392,1,8,0:0:0:0:
259,143,78606,2,0,L|163:131,1,80,0|0,3:0|0:0,0:0:0:0:
123,190,79035,5,0,3:0:0:0:
192,359,79249,1,8,0:0:0:0:
46,226,79463,1,2,0:0:0:0:
263,312,79678,5,4,1:2:0:0:
247,233,79892,1,0,0:0:0:0:
323,67,80106,5,8,0:0:0:0:
259,238,80321,1,0,3:0:0:0:
327,196,80535,5,0,0:0:0:0:
346,192,80642,1,0,3:0:0:0:
363,202,80749,1,0,3:0:0:0:
183,62,80963,5,12,0:2:0:0:
247,233,81178,1,0,1:0:0:0:
161,329,81392,5,8,0:0:0:0:
183,322,81499,1,0,3:0:0:0:
198,328,81606,1,0,3:0:0:0:
225,317,81713,1,0,3:0:0:0:
225,317,81821,1,4,1:2:0:0:
387,203,82035,5,0,3:0:0:0:
365,196,82142,1,0,3:0:0:0:
350,202,82249,1,0,3:0:0:0:
323,191,82356,1,0,3:0:0:0:
323,191,82463,1,4,1:2:0:0:
204,60,82678,5,8,0:0:0:0:
136,18,82892,1,0,3:0:0:0:
114,16,82999,1,0,3:0:0:0:
83,26,83106,6,0,B|175:13|129:71|222:59,1,150,4|0,1:2|0:0,0:0:0:0:
235,59,83535,1,8,0:0:0:0:
417,31,83749,1,0,3:0:0:0:
445,106,83963,6,0,L|437:169,1,57.5000010967255,2|0,0:0|3:0,0:0:0:0:
367,94,84392,2,0,L|359:151,1,57.5000010967255,8|0,0:0|0:0,0:0:0:0:
231,265,84821,5,0,1:0:0:0:
265,337,85035,2,0,L|257:273,1,57.5000010967255,2|8,0:0|0:0,0:0:0:0:
307,216,85463,1,0,3:0:0:0:
183,347,85678,2,0,L|175:283,1,57.5000010967255,2|0,0:0|3:0,0:0:0:0:
265,337,86106,2,0,L|257:273,1,57.5000010967255,8|0,0:0|0:0,0:0:0:0:
0,191,86535,6,0,B|82:179|41:231|124:220,1,134.999995880127,0|0,1:0|0:0,0:0:0:0:
138,220,86963,1,8,0:0:0:0:
193,163,87178,1,0,3:0:0:0:
409,114,87392,6,0,B|326:102|367:154|284:143,1,134.999995880127,2|0,0:0|0:0,0:0:0:0:
271,143,87821,1,8,0:0:0:0:
216,86,88035,1,0,0:0:0:0:
0,37,88249,6,0,B|82:25|41:77|124:66,1,134.999995880127,0|0,1:0|0:0,0:0:0:0:
138,66,88678,1,8,0:0:0:0:
195,12,88892,1,0,3:0:0:0:
214,8,88999,1,2,0:0:0:0:
231,18,89106,5,2,0:0:0:0:
284,78,89321,1,0,3:0:0:0:
251,207,89535,2,0,L|243:143,1,57.5000010967255,8|0,0:0|0:0,0:0:0:0:
402,271,89963,6,0,L|394:334,1,57.5000010967255,0|0,1:0|0:0,0:0:0:0:
320,261,90392,2,0,L|312:324,1,57.5000010967255,8|0,0:0|3:0,0:0:0:0:
251,369,90821,5,2,0:0:0:0:
102,354,91035,1,0,3:0:0:0:
37,305,91249,2,0,L|44:247,1,57.5000010967255,8|0,0:0|0:0,0:0:0:0:
157,79,91678,5,0,1:0:0:0:
168,158,91892,1,0,0:0:0:0:
338,97,92106,5,8,0:0:0:0:
304,23,92321,2,0,L|296:86,1,57.5000010967255,0|2,3:0|0:0,0:0:0:0:
237,134,92749,1,0,3:0:0:0:
386,33,92963,2,0,L|378:96,1,57.5000010967255,8|0,0:0|0:0,0:0:0:0:
438,223,93392,5,0,1:0:0:0:
472,295,93606,2,0,L|464:231,1,57.5000010967255,2|8,0:0|0:0,0:0:0:0:
326,155,94035,5,0,3:0:0:0:
245,147,94249,1,2,0:0:0:0:
330,173,94463,1,0,3:0:0:0:
192,319,94678,5,8,0:0:0:0:
127,202,94892,1,2,0:0:0:0:
239,134,95106,1,0,1:0:0:0:
211,209,95321,5,8,0:0:0:0:
0,116,95535,2,0,L|11:20,1,80,8|2,0:0|0:0,0:0:0:0:
22,28,95856,1,0,3:0:0:0:
22,28,95963,1,0,3:0:0:0:
159,129,96178,1,0,3:0:0:0:
105,254,96392,5,8,0:0:0:0:
112,276,96499,1,0,3:0:0:0:
106,291,96606,1,0,3:0:0:0:
117,318,96713,1,0,3:0:0:0:
117,318,96821,6,0,L|216:328,1,100,4|0,1:2|0:0,0:0:0:0:
356,276,97249,1,8,0:0:0:0:
377,354,97463,2,0,B|278:367|327:305|229:318,1,160,0|0,3:0|3:0,0:0:0:0:
120,364,98106,5,8,0:0:0:0:
150,290,98321,1,2,0:0:0:0:
57,151,98535,1,0,1:0:0:0:
418,122,98963,6,0,L|407:218,1,80,8|0,0:0|3:0,0:0:0:0:
430,114,99392,2,0,L|419:210,1,80,2|0,0:0|3:0,0:0:0:0:
335,0,99821,2,0,L|346:96,1,80,8|0,0:0|0:0,0:0:0:0:
456,271,100249,5,0,1:0:0:0:
416,201,100463,1,2,0:0:0:0:
297,294,100678,1,8,0:0:0:0:
207,240,100892,1,0,3:0:0:0:
221,318,101106,5,2,0:0:0:0:
260,176,101321,1,0,3:0:0:0:
93,92,101535,1,8,0:0:0:0:
124,224,101749,1,2,0:0:0:0:
329,130,101963,6,0,L|319:50,1,80,0|0,1:0|0:0,0:0:0:0:
413,164,102392,1,8,0:0:0:0:
368,265,102606,1,0,3:0:0:0:
430,315,102821,5,2,0:0:0:0:
449,319,102928,1,0,3:0:0:0:
466,309,103035,1,0,3:0:0:0:
423,172,103249,1,8,0:0:0:0:
360,221,103463,1,2,0:0:0:0:
341,225,103571,1,0,3:0:0:0:
314,213,103678,6,0,L|215:223,1,100,4|2,1:2|0:0,0:0:0:0:
38,120,104106,1,8,0:0:0:0:
163,157,104321,1,0,3:0:0:0:
105,212,104535,5,2,0:0:0:0:
101,231,104642,1,0,3:0:0:0:
111,248,104749,1,0,3:0:0:0:
169,379,104963,2,0,L|179:280,1,80,8|2,0:0|0:0,0:0:0:0:
370,179,105392,5,0,1:0:0:0:
319,117,105606,1,2,0:0:0:0:
163,157,105821,1,8,0:0:0:0:
252,265,106035,1,0,3:0:0:0:
177,236,106249,6,0,L|97:227,1,80,2|0,0:0|3:0,0:0:0:0:
0,121,106678,1,8,0:0:0:0:
73,153,106892,1,2,0:0:0:0:
50,322,107106,6,0,L|129:313,1,80,0|0,1:0|0:0,0:0:0:0:
158,149,107535,2,0,L|237:157,1,80,8|0,0:0|3:0,0:0:0:0:
292,214,107963,5,2,0:0:0:0:
311,218,108071,1,0,3:0:0:0:
328,208,108178,1,0,3:0:0:0:
436,119,108392,1,8,0:0:0:0:
489,178,108606,2,0,L|481:241,1,40,2|0,0:0|3:0,0:0:0:0:
377,278,108821,5,4,1:2:0:0:
357,90,109035,1,0,3:0:0:0:
303,149,109249,5,2,0:0:0:0:
289,152,109356,1,0,3:0:0:0:
267,138,109463,1,0,3:0:0:0:
126,192,109678,5,0,3:0:0:0:
182,251,109892,1,2,0:0:0:0:
194,246,109999,1,8,3:2:0:0:
222,244,110106,1,8,0:0:0:0:
253,236,110213,1,8,3:2:0:0:
253,236,110321,1,2,0:0:0:0:
429,348,110535,6,0,B|336:360|383:302|289:313,1,150,4|0,1:2|0:0,0:0:0:0:
281,318,110963,1,8,0:0:0:0:
81,287,111178,1,0,3:0:0:0:
132,224,111392,6,0,P|191:235|252:239,1,120,2|0,0:0|0:0,0:0:0:0:
261,237,111821,1,8,0:0:0:0:
485,6,112249,5,0,1:0:0:0:
465,164,112463,1,2,0:0:0:0:
413,224,112678,1,8,0:0:0:0:
341,109,112892,1,0,3:0:0:0:
427,231,113106,6,0,P|437:289|441:350,1,120,2|0,0:0|0:0,0:0:0:0:
440,360,113535,1,8,0:0:0:0:
327,53,113963,5,0,1:0:0:0:
263,101,114178,1,2,0:0:0:0:
153,27,114392,1,8,0:0:0:0:
26,83,114606,1,0,3:0:0:0:
162,38,114821,5,2,0:0:0:0:
247,183,115035,1,0,3:0:0:0:
90,286,115249,1,8,0:0:0:0:
85,264,115356,1,0,0:0:0:0:
93,240,115463,1,2,0:0:0:0:
161,185,115678,1,0,1:0:0:0:
74,51,116106,5,8,0:0:0:0:
137,102,116321,2,0,P|127:161|123:222,1,120,0|0,3:0|0:0,0:0:0:0:
124,231,116749,5,0,3:0:0:0:
18,114,116963,1,8,0:0:0:0:
183,32,117178,1,2,0:0:0:0:
218,105,117392,1,0,1:0:0:0:
450,307,117821,5,8,0:0:0:0:
426,150,118035,1,0,3:0:0:0:
465,222,118249,2,0,P|406:233|345:237,1,120,2|0,0:0|0:0,0:0:0:0:
336,235,118678,5,8,0:0:0:0:
274,185,118892,1,0,0:0:0:0:
123,212,119106,1,0,1:0:0:0:
394,29,119535,5,8,0:0:0:0:
421,148,119749,1,0,3:0:0:0:
260,191,119963,5,2,0:0:0:0:
309,127,120178,1,0,3:0:0:0:
465,222,120392,1,8,0:0:0:0:
27,348,120821,6,0,B|101:358|64:312|138:321,1,120,4|0,1:2|0:0,0:0:0:0:
148,324,121249,1,8,0:0:0:0:
308,342,121463,1,0,3:0:0:0:
365,287,121678,5,2,0:0:0:0:
384,283,121785,1,0,3:0:0:0:
401,293,121892,1,0,3:0:0:0:
512,190,122106,1,8,0:0:0:0:
131,90,122535,5,0,1:0:0:0:
193,141,122749,1,0,1:0:0:0:
215,134,122856,1,0,3:0:0:0:
230,140,122963,1,0,3:0:0:0:
257,129,123071,1,0,3:0:0:0:
257,129,123178,1,0,1:0:0:0:
309,64,123392,5,8,0:0:0:0:
343,61,123499,1,0,3:0:0:0:
363,71,123606,1,0,3:0:0:0:
354,264,123821,1,8,0:0:0:0:
318,192,124035,1,0,3:0:0:0:
503,227,124249,6,0,B|389:243|447:170|330:185,1,187.5,4|0,1:2|0:0,0:0:0:0:
318,192,124678,1,8,0:0:0:0:
165,108,124892,2,0,L|180:-19,1,100,0|2,3:0|0:0,0:0:0:0:
184,0,125213,1,0,3:0:0:0:
184,0,125321,5,0,3:0:0:0:
228,168,125535,1,8,0:0:0:0:
86,250,125749,1,2,0:0:0:0:
116,175,125963,1,0,1:0:0:0:
372,231,126392,5,8,0:0:0:0:
281,168,126606,1,0,3:0:0:0:
211,208,126821,5,2,0:0:0:0:
286,155,127035,1,0,3:0:0:0:
455,205,127249,1,8,0:0:0:0:
392,254,127463,1,0,0:0:0:0:
233,368,127678,6,0,P|225:292|214:219,1,150,0|0,1:0|0:0,0:0:0:0:
211,208,128106,1,8,0:0:0:0:
253,41,128321,1,0,3:0:0:0:
323,79,128535,5,2,0:0:0:0:
342,83,128642,1,0,3:0:0:0:
359,73,128749,1,0,3:0:0:0:
175,16,128963,1,8,0:0:0:0:
130,82,129178,1,2,0:0:0:0:
0,197,129392,6,0,P|48:143|81:240,1,200,0|8,1:0|0:0,0:0:0:0:
174,377,130035,2,0,L|158:249,1,100,0|2,3:0|0:0,0:0:0:0:
167,268,130356,1,0,3:0:0:0:
167,268,130463,5,0,3:0:0:0:
243,111,130678,1,8,0:0:0:0:
296,170,130892,1,2,0:0:0:0:
103,76,131106,1,0,1:0:0:0:
391,48,131535,5,8,0:0:0:0:
352,118,131749,2,0,L|224:102,1,100,0|2,3:0|0:0,0:0:0:0:
243,111,132071,1,0,3:0:0:0:
243,111,132178,5,0,3:0:0:0:
167,268,132392,1,8,0:0:0:0:
114,209,132606,1,2,0:0:0:0:
307,303,132821,1,0,1:0:0:0:
512,85,133249,5,8,0:0:0:0:
332,129,133463,1,0,3:0:0:0:
390,183,133678,1,2,0:0:0:0:
394,202,133785,1,0,3:0:0:0:
384,219,133892,1,0,3:0:0:0:
272,365,134106,5,8,0:0:0:0:
330,311,134321,1,2,0:0:0:0:
334,292,134428,1,0,3:0:0:0:
324,275,134535,1,0,1:0:0:0:
472,143,134749,5,2,0:0:0:0:
356,31,134963,1,8,0:0:0:0:
256,84,135178,1,0,3:0:0:0:
213,235,135392,5,2,0:0:0:0:
232,239,135499,1,0,3:0:0:0:
249,229,135606,1,0,3:0:0:0:
260,74,135821,1,8,0:0:0:0:
312,134,136035,1,0,0:0:0:0:
130,211,136249,5,0,1:0:0:0:
172,143,136463,1,2,0:0:0:0:
357,233,136678,1,8,0:0:0:0:
306,170,136892,5,2,0:0:0:0:
302,151,136999,1,0,3:0:0:0:
312,134,137106,1,4,3:2:0:0:
432,272,137321,1,8,0:2:0:0:
277,364,137535,5,0,1:0:0:0:
250,355,137642,1,0,3:0:0:0:
232,362,137749,1,0,3:0:0:0:
200,349,137856,1,0,3:0:0:0:
200,349,137963,6,0,B|300:363|249:298|352:312,1,165.000005035401,4|0,1:2|0:0,0:0:0:0:
364,319,138392,1,8,0:0:0:0:
220,266,138606,2,0,L|236:138,1,100,0|2,3:0|0:0,0:0:0:0:
227,157,138928,1,0,3:0:0:0:
227,157,139035,5,0,3:0:0:0:
138,284,139249,1,8,0:0:0:0:
61,305,139463,2,0,L|11:298,1,50,2|0,0:0|3:0,0:0:0:0:
239,368,139678,1,0,1:0:0:0:
376,40,140106,5,8,0:0:0:0:
296,32,140321,2,0,L|312:160,1,100,0|2,3:0|0:0,0:0:0:0:
303,141,140642,1,0,3:0:0:0:
303,141,140749,5,0,3:0:0:0:
424,235,140963,1,8,0:0:0:0:
384,304,141178,2,0,L|391:367,1,50,2|0,0:0|3:0,0:0:0:0:
512,169,141392,6,0,B|420:156|467:215|372:202,1,150,0|0,1:0|0:0,0:0:0:0:
360,201,141821,1,8,0:0:0:0:
218,102,142035,1,0,3:0:0:0:
166,162,142249,1,2,0:0:0:0:
162,181,142356,1,0,3:0:0:0:
175,212,142463,5,0,3:0:0:0:
295,142,142678,1,8,0:0:0:0:
336,73,142892,2,0,L|329:23,1,50,2|0,0:0|3:0,0:0:0:0:
143,110,143106,6,0,B|234:97|187:156|282:143,1,150,0|0,1:0|0:0,0:0:0:0:
295,142,143535,1,8,0:0:0:0:
376,317,143749,1,0,3:0:0:0:
426,255,143963,5,2,0:0:0:0:
430,236,144071,1,0,3:0:0:0:
417,205,144178,1,0,3:0:0:0:
305,364,144392,1,8,0:0:0:0:
255,302,144606,1,2,0:0:0:0:
251,283,144713,1,0,3:0:0:0:
264,252,144821,5,4,1:2:0:0:
218,186,145035,1,0,0:0:0:0:
25,328,145249,2,0,B|147:310|84:390|210:373,1,200,8|2,0:0|0:0,0:0:0:0:
222,368,145785,1,0,3:0:0:0:
222,368,145892,5,0,3:0:0:0:
420,296,146106,1,8,0:0:0:0:
407,166,146321,2,0,L|400:215,1,50,2|0,0:0|3:0,0:0:0:0:
171,209,146535,6,0,B|79:196|126:255|31:242,1,150,0|0,1:0|0:0,0:0:0:0:
19,241,146963,1,8,0:0:0:0:
250,271,147178,2,0,L|266:143,1,100,0|2,3:0|0:0,0:0:0:0:
257,162,147499,1,0,3:0:0:0:
257,162,147606,5,0,3:0:0:0:
373,15,147821,1,8,0:0:0:0:
437,62,148035,2,0,L|444:125,1,50,2|0,0:0|3:0,0:0:0:0:
342,238,148249,5,0,1:0:0:0:
353,215,148356,1,2,0:0:0:0:
350,186,148463,5,2,0:0:0:0:
365,159,148571,1,2,0:0:0:0:
365,159,148678,6,0,B|361:127|361:127|362:125|362:125|358:93,1,64.9999970245363,8|2,0:0|0:0,0:0:0:0:
223,92,148892,6,0,B|219:60|219:60|220:58|220:58|216:26,1,64.9999970245363,0|2,3:0|0:0,0:0:0:0:
101,153,149106,5,2,0:0:0:0:
111,174,149213,1,0,3:0:0:0:
100,217,149321,6,0,B|103:246|103:246|101:249|101:249|105:280,1,64.9999970245363,0|2,3:0|0:0,0:0:0:0:
268,170,149535,6,0,B|264:199|264:199|266:202|266:202|262:233,1,64.9999970245363,12|2,0:2|0:0,0:0:0:0:
418,233,149749,6,0,B|422:264|422:264|420:267|420:267|424:297,1,64.9999970245363,0|2,3:0|0:0,0:0:0:0:
470,173,149963,5,0,1:0:0:0:
426,38,150178,2,0,L|346:47,1,64.9999970245363,2|0,0:0|3:0,0:0:0:0:
328,48,150392,1,8,0:0:0:0:
237,237,150606,2,0,L|316:246,1,64.9999970245363,2|0,0:0|3:0,0:0:0:0:
335,247,150821,5,8,0:0:0:0:
173,276,151035,1,8,0:0:0:0:
11,305,151249,1,8,0:0:0:0:
67,364,151463,1,2,0:0:0:0:
147,114,151678,6,0,B|264:97|202:175|327:159,1,194.999991073609,4|0,1:2|0:0,0:0:0:0:
339,152,152106,1,8,0:0:0:0:
480,224,152321,2,0,L|400:214,1,80,0|2,3:0|0:0,0:0:0:0:
392,220,152642,1,0,3:0:0:0:
392,220,152749,5,0,3:0:0:0:
318,342,152963,1,8,0:0:0:0:
238,332,153178,2,0,L|174:324,1,40,2|0,0:0|3:0,0:0:0:0:
16,284,153392,6,0,B|127:298|72:228|176:243,1,172.500003290176,4|0,1:2|0:0,0:0:0:0:
182,252,153821,1,8,0:0:0:0:
323,100,154035,1,0,3:0:0:0:
268,38,154249,1,2,0:0:0:0:
247,34,154356,1,0,3:0:0:0:
219,46,154463,1,0,3:0:0:0:
76,134,154678,6,0,B|82:184|82:184|79:188|79:188|86:244,1,112.500004291535,8|0,0:0|3:0,0:0:0:0:
92,252,155106,2,0,P|26:233|38:320,1,129.999994049073,4|0,1:2|0:0,0:0:0:0:
206,363,155535,5,8,0:0:0:0:
160,199,155749,1,0,3:0:0:0:
221,147,155963,1,2,0:0:0:0:
225,126,156071,1,0,3:0:0:0:
213,98,156178,5,0,3:0:0:0:
373,14,156392,1,8,0:0:0:0:
427,72,156606,2,0,L|419:135,1,40,2|0,0:0|3:0,0:0:0:0:
512,230,156821,6,0,B|408:214|463:284|352:269,1,172.500003290176,4|0,1:2|0:0,0:0:0:0:
340,262,157249,1,8,0:0:0:0:
173,359,157463,2,0,L|61:345,1,89.9999972534181,0|2,3:0|0:0,0:0:0:0:
76,354,157785,1,0,3:0:0:0:
76,354,157892,5,0,3:0:0:0:
246,312,158106,1,12,0:2:0:0:
313,355,158321,2,0,L|376:347,1,40,2|0,0:0|3:0,0:0:0:0:
326,95,158535,6,0,B|429:79|374:149|485:134,1,172.500003290176,4|0,1:2|0:0,0:0:0:0:
498,127,158963,1,8,0:0:0:0:
278,20,159178,2,0,L|163:34,1,115.000002193451,0|2,3:0|0:0,0:0:0:0:
156,28,159499,1,0,3:0:0:0:
156,28,159606,5,0,3:0:0:0:
19,201,159821,1,8,0:0:0:0:
129,278,160035,2,0,L|121:214,1,57.5000010967255,2|0,0:0|3:0,0:0:0:0:
364,107,160249,6,0,B|240:89|306:172|173:155,1,206.250001966953,4|0,1:2|0:0,0:0:0:0:
161,148,160678,1,8,0:0:0:0:
334,192,160892,1,0,3:0:0:0:
395,243,161106,1,2,0:0:0:0:
419,247,161213,1,0,3:0:0:0:
451,233,161321,5,0,3:0:0:0:
313,360,161535,1,8,0:0:0:0:
261,298,161749,2,0,L|197:305,1,40,2|0,0:0|3:0,0:0:0:0:
0,335,161963,5,4,1:2:0:0:
106,369,162178,1,0,0:0:0:0:
209,220,162392,5,8,0:0:0:0:
88,182,162606,1,0,3:0:0:0:
326,198,162821,6,0,L|318:261,1,50,2|0,0:0|3:0,0:0:0:0:
220,232,163035,1,0,3:0:0:0:
117,83,163249,1,8,0:0:0:0:
218,4,163463,1,0,3:0:0:0:
394,140,163678,5,0,1:0:0:0:
387,107,163785,1,0,3:0:0:0:
404,78,163892,1,0,3:0:0:0:
228,17,164106,1,8,0:0:0:0:
180,81,164321,5,0,3:0:0:0:
196,112,164428,1,0,3:0:0:0:
181,151,164535,1,0,3:0:0:0:
201,165,164642,1,0,3:0:0:0:
201,165,164749,1,4,1:2:0:0:
174,375,164963,5,8,0:0:0:0:
421,229,165178,1,0,3:0:0:0:
492,197,165392,6,0,B|381:211|436:141|332:156,1,172.500003290176,4|0,1:2|0:0,0:0:0:0:
326,165,165821,1,8,0:0:0:0:
157,84,166035,1,0,3:0:0:0:
96,139,166249,5,2,0:0:0:0:
85,159,166356,1,0,3:0:0:0:
90,182,166463,1,0,3:0:0:0:
284,96,166678,1,8,0:0:0:0:
226,40,166892,2,0,L|233:-23,1,40,2|0,0:0|3:0,0:0:0:0:
206,178,167106,5,4,1:2:0:0:
191,292,167321,1,2,0:0:0:0:
252,346,167535,5,8,0:0:0:0:
330,190,167749,1,0,3:0:0:0:
398,240,167963,5,2,0:0:0:0:
409,260,168071,1,0,3:0:0:0:
404,283,168178,1,0,3:0:0:0:
210,197,168392,1,8,0:0:0:0:
268,141,168606,2,0,L|260:77,1,40,2|0,0:0|3:0,0:0:0:0:
288,279,168821,5,4,1:2:0:0:
343,337,169035,1,2,0:0:0:0:
145,384,169249,5,8,0:0:0:0:
206,239,169463,1,0,3:0:0:0:
92,283,169678,5,2,0:0:0:0:
112,272,169785,1,0,3:0:0:0:
135,277,169892,1,0,3:0:0:0:
283,372,170106,1,8,0:0:0:0:
395,301,170321,2,0,L|391:261,1,40,2|0,0:0|3:0,0:0:0:0:
512,137,170535,6,0,B|401:123|456:193|352:178,1,172.500003290176,4|0,1:2|0:0,0:0:0:0:
346,169,170963,1,8,0:0:0:0:
164,22,171178,6,0,L|275:35,1,100,0|2,3:0|0:0,0:0:0:0:
278,30,171499,1,0,3:0:0:0:
278,30,171606,1,0,3:0:0:0:
346,169,171821,1,8,0:0:0:0:
398,230,172035,2,0,L|437:225,1,40,2|0,0:0|3:0,0:0:0:0:
271,355,172249,6,0,B|160:369|215:299|111:314,1,172.500003290176,4|0,1:2|0:0,0:0:0:0:
105,323,172678,1,8,0:0:0:0:
45,375,172892,1,0,3:0:0:0:
183,211,173106,5,2,0:0:0:0:
188,188,173213,1,0,3:0:0:0:
177,168,173321,1,0,3:0:0:0:
49,31,173535,1,8,0:0:0:0:
110,83,173749,2,0,L|105:122,1,40,2|0,0:0|3:0,0:0:0:0:
275,188,173963,6,0,B|386:202|331:132|435:147,1,172.500003290176,4|0,1:2|0:0,0:0:0:0:
441,156,174392,1,8,0:0:0:0:
501,207,174606,1,0,3:0:0:0:
380,357,174821,5,2,0:0:0:0:
375,334,174928,1,0,3:0:0:0:
386,314,175035,1,0,3:0:0:0:
275,188,175249,1,8,0:0:0:0:
250,265,175463,1,2,0:0:0:0:
56,168,175678,6,0,B|234:213|158:66|333:99,1,299.999990844727,12|0,1:2|0:0,0:0:0:0:
337,105,176321,2,0,L|329:45,1,59.9999981689454,8|0,1:2|0:0,0:0:0:0:
463,249,177606,6,0,P|371:228|357:320,1,179.999994506836,12|0,1:2|0:0,0:0:0:0:
342,302,178035,2,0,L|330:206,1,59.9999981689454,8|0,1:2|0:0,0:0:0:0:
202,186,178249,2,0,B|206:151|206:151|204:148|204:148|207:118,1,68.7500006556511,8|0,1:2|0:0,0:0:0:0:
