osu file format v14

[General]
AudioFilename: audio.mp3
AudioLeadIn: 0
PreviewTime: 110485
Countdown: 0
SampleSet: Soft
StackLeniency: 0.4
Mode: 0
LetterboxInBreaks: 0
WidescreenStoryboard: 1

[Editor]
Bookmarks: 821,24821,28249,41963,55678,69392,83106,96821,110535,124249,137963,151678,165392,175678,178249
DistanceSpacing: 1
BeatDivisor: 4
GridSize: 16
TimelineZoom: 1

[Metadata]
Title:This December
TitleUnicode:This December
Artist:Ricky Montgomery
ArtistUnicode:Ricky Montgomery
Creator:Xehn
Version:Light Insane
Source:
Tags:alternative rock indie the honeysticks english xenon- potatoboy123
BeatmapID:2023141
BeatmapSetID:966568

[Difficulty]
HPDrainRate:5
CircleSize:4
OverallDifficulty:7.5
ApproachRate:8.2
SliderMultiplier:1
SliderTickRate:1

[Events]
//Background and Video events
0,0,"bg.jpg",0,0
//Break Periods
//Storyboard Layer 0 (Background)
//Storyboard Layer 1 (Fail)
//Storyboard Layer 2 (Pass)
//Storyboard Layer 3 (Foreground)
//Storyboard Sound Samples

[TimingPoints]
821,428.571428571429,4,2,2,50,1,0
24821,-62.5,4,2,2,50,0,0
28249,-62.5,4,2,2,55,0,0
41963,-62.5,4,2,2,60,0,0
55678,-55.5555555555556,4,2,2,70,0,0
83106,-62.5,4,2,2,65,0,0
96821,-62.5,4,2,2,60,0,0
110535,-62.5,4,2,2,65,0,0
124249,-55.5555555555556,4,2,2,75,0,0
151678,-50,4,2,2,85,0,1
175678,-50,4,2,2,85,0,0

[Colours]
Combo1 : 144,215,245
Combo2 : 107,107,107
Combo3 : 46,105,203
Combo4 : 182,182,182

[HitObjects]
147,252,24821,6,0,B|224:254|219:132|100:133|54:234,1,240,2|2,0:0|0:0,0:0:0:0:
332,68,26749,6,0,P|399:62|400:151,1,160,2|2,0:0|0:0,0:0:0:0:
445,216,27392,1,2,0:0:0:0:
267,102,28249,6,0,L|255:197,1,80,4|0,1:2|0:0,0:0:0:0:
307,274,28678,1,8,0:0:0:0:
170,320,28892,2,0,B|269:333|220:271|318:284,1,160,0|0,3:0|3:0,0:0:0:0:
431,342,29535,1,8,0:0:0:0:
367,217,29749,1,0,0:0:0:0:
299,369,29963,1,0,1:0:0:0:
496,196,30392,6,0,P|472:165|433:160,1,80,8|0,0:0|3:0,0:0:0:0:
377,102,30821,2,0,P|337:100|308:127,1,80,2|0,0:0|3:0,0:0:0:0:
228,132,31249,1,8,0:0:0:0:
13,48,31678,6,0,B|112:61|63:-1|161:12,1,160,0|8,1:0|0:0,0:0:0:0:
239,51,32321,1,0,3:0:0:0:
152,159,32535,2,0,L|161:238,1,80,2|0,0:0|3:0,0:0:0:0:
97,358,32963,1,8,0:0:0:0:
230,293,33178,1,2,0:0:0:0:
82,363,33392,6,0,P|107:327|171:393,1,160,0|8,1:0|0:0,0:0:0:0:
224,281,34035,1,0,3:0:0:0:
315,373,34249,2,0,P|295:337|307:300,1,80,2|0,0:0|3:0,0:0:0:0:
392,291,34678,2,0,P|411:326|399:363,1,80,8|0,0:0|0:0,0:0:0:0:
284,221,35106,6,0,B|244:190|244:190|257:81,1,160,0|8,1:0|0:0,0:0:0:0:
388,10,35749,1,0,3:0:0:0:
339,116,35963,1,2,0:0:0:0:
285,0,36178,2,0,L|206:9,1,80,0|8,3:0|0:0,0:0:0:0:
61,23,36606,1,2,0:0:0:0:
173,90,36821,1,0,1:0:0:0:
25,271,37249,6,0,P|49:240|88:235,1,80,8|0,0:0|3:0,0:0:0:0:
185,321,37678,1,2,0:0:0:0:
156,180,37892,2,0,L|165:100,1,80,0|8,3:0|0:0,0:0:0:0:
254,19,38321,1,2,0:0:0:0:
258,168,38535,6,0,B|248:90|248:90|251:87|251:87|241:9,1,160,0|8,1:0|0:0,0:0:0:0:
334,113,39178,1,0,3:0:0:0:
396,0,39392,1,2,0:0:0:0:
494,92,39606,2,0,L|406:81,1,80,0|8,3:0|0:0,0:0:0:0:
295,184,40035,1,2,0:0:0:0:
439,233,40249,6,0,B|340:246|389:184|291:197,1,160,0|8,1:0|0:0,0:0:0:0:
236,364,40892,2,0,L|225:276,1,80,0|2,3:0|0:0,0:0:0:0:
223,264,41213,1,0,3:0:0:0:
221,244,41321,1,0,3:2:0:0:
156,119,41535,1,8,0:0:0:0:
281,189,41749,1,2,0:0:0:0:
141,286,41963,6,0,B|110:326|110:326|1:313,1,160,4|8,1:2|0:0,0:0:0:0:
105,212,42606,1,0,3:0:0:0:
207,345,42821,2,0,L|295:334,1,80,2|0,0:0|3:0,0:0:0:0:
434,315,43249,1,8,0:0:0:0:
427,303,43678,5,0,1:0:0:0:
409,163,43892,2,0,P|411:203|385:231,1,80,2|8,0:0|0:0,0:0:0:0:
267,195,44321,1,0,3:0:0:0:
344,304,44535,2,0,L|335:384,1,80,2|0,0:0|3:0,0:0:0:0:
266,277,44963,1,8,0:0:0:0:
257,284,45392,5,0,1:0:0:0:
207,152,45606,1,2,0:0:0:0:
170,306,45821,2,0,L|265:294,1,80,8|0,0:0|3:0,0:0:0:0:
39,154,46249,1,2,0:0:0:0:
89,286,46463,1,0,3:0:0:0:
126,132,46678,2,0,L|30:143,1,80,8|2,0:0|0:0,0:0:0:0:
184,195,47106,1,0,1:0:0:0:
394,277,47535,5,8,0:0:0:0:
341,169,47749,2,0,B|242:156|291:218|193:205,1,160,0|0,3:0|3:0,0:0:0:0:
142,96,48392,1,8,0:0:0:0:
111,232,48606,1,2,0:0:0:0:
11,167,48821,2,0,P|83:155|99:226,1,160,0|8,1:0|0:0,0:0:0:0:
362,164,49678,5,2,0:0:0:0:
391,281,49892,1,0,3:0:0:0:
278,146,50106,2,0,P|246:170|207:165,1,80,8|0,0:0|0:0,0:0:0:0:
13,201,50535,6,0,B|112:188|63:250|161:237,1,160,0|8,1:0|0:0,0:0:0:0:
245,137,51178,1,0,3:0:0:0:
251,297,51392,2,0,L|239:201,1,80,2|0,0:0|3:0,0:0:0:0:
324,331,51821,1,8,0:0:0:0:
199,29,52249,5,4,1:2:0:0:
207,19,52678,1,8,0:0:0:0:
285,126,52892,2,0,L|274:214,1,80,0|2,1:0|0:0,0:0:0:0:
272,226,53213,1,0,3:0:0:0:
270,246,53321,1,0,3:0:0:0:
316,373,53535,1,8,0:0:0:0:
341,290,53749,2,0,L|381:284,2,40,2|0|0,0:0|3:0|1:0,0:0:0:0:
236,351,54178,5,0,3:0:0:0:
184,251,54392,1,8,0:0:0:0:
181,272,54499,1,8,0:0:0:0:
179,292,54606,1,0,1:0:0:0:
296,221,54821,5,8,0:0:0:0:
126,187,55035,1,8,0:0:0:0:
236,166,55249,1,8,0:0:0:0:
233,145,55356,1,8,0:0:0:0:
231,125,55463,1,0,3:0:0:0:
88,88,55678,6,0,B|203:102|134:27|250:41,1,179.999994506836,4|8,1:2|0:0,0:0:0:0:
358,120,56321,2,0,L|347:209,1,89.9999972534181,0|0,3:0|0:0,0:0:0:0:
486,92,56749,2,0,L|476:3,1,89.9999972534181,0|8,3:0|0:0,0:0:0:0:
354,107,57178,1,2,0:0:0:0:
512,178,57392,1,0,1:0:0:0:
504,168,57821,5,8,0:0:0:0:
479,306,58035,1,0,3:0:0:0:
349,188,58249,2,0,P|392:182|430:206,1,89.9999972534181,0|0,0:0|3:0,0:0:0:0:
401,336,58678,2,0,P|357:341|319:317,1,89.9999972534181,8|0,0:0|0:0,0:0:0:0:
296,124,59106,6,0,B|181:110|250:185|134:171,1,179.999994506836,0|8,1:0|0:0,0:0:0:0:
22,72,59749,1,0,3:0:0:0:
135,118,59963,2,0,L|129:162,1,44.999998626709,0|0,0:0|3:0,0:0:0:0:
57,236,60178,2,0,L|46:146,1,89.9999972534181,0|8,3:0|0:0,0:0:0:0:
134,268,60606,1,2,0:0:0:0:
229,134,60821,1,0,1:0:0:0:
222,125,61249,5,8,0:0:0:0:
375,171,61463,2,0,P|344:138|301:136,1,89.9999972534181,0|0,3:0|0:0,0:0:0:0:
249,290,61892,2,0,L|238:200,1,89.9999972534181,0|8,3:0|0:0,0:0:0:0:
181,351,62321,1,2,0:0:0:0:
332,261,62535,1,0,1:0:0:0:
341,269,62963,5,8,0:0:0:0:
478,174,63178,2,0,P|447:207|404:209,1,89.9999972534181,0|0,3:0|0:0,0:0:0:0:
352,55,63606,2,0,L|341:145,1,89.9999972534181,0|8,3:0|0:0,0:0:0:0:
184,234,64035,1,2,0:0:0:0:
268,92,64249,1,0,1:0:0:0:
258,100,64678,6,0,B|143:114|212:39|96:53,1,179.999994506836,8|0,0:0|0:0,0:0:0:0:
192,178,65321,2,0,L|181:268,1,89.9999972534181,0|8,3:0|0:0,0:0:0:0:
97,366,65749,1,2,0:0:0:0:
239,332,65963,1,0,1:0:0:0:
105,220,66178,5,2,0:0:0:0:
274,177,66392,2,0,L|262:81,1,89.9999972534181,8|0,0:0|3:0,0:0:0:0:
167,0,66821,1,0,0:0:0:0:
332,43,67035,1,0,3:0:0:0:
184,119,67249,1,8,0:0:0:0:
175,110,67678,5,0,1:0:0:0:
325,181,67892,1,2,0:0:0:0:
185,257,68106,1,12,0:2:0:0:
257,96,68321,6,0,L|251:48,2,44.999998626709,2|0|0,0:0|3:0|1:0,0:0:0:0:
326,231,68749,1,0,3:0:0:0:
170,163,68963,1,8,0:0:0:0:
172,183,69071,1,0,3:0:0:0:
174,203,69178,1,2,0:0:0:0:
95,319,69392,6,0,B|210:333|141:258|257:272,1,179.999994506836,4|8,1:2|0:0,0:0:0:0:
320,134,70035,2,0,L|330:223,1,89.9999972534181,0|0,3:0|0:0,0:0:0:0:
398,354,70463,2,0,L|408:264,1,89.9999972534181,0|8,3:0|0:0,0:0:0:0:
426,114,70892,1,2,0:0:0:0:
487,245,71106,1,0,1:0:0:0:
477,236,71535,5,8,0:0:0:0:
360,304,71749,2,0,P|329:275|285:280,1,89.9999972534181,0|0,3:0|0:0,0:0:0:0:
288,140,72178,2,0,P|281:183|244:206,1,89.9999972534181,0|8,3:0|0:0,0:0:0:0:
132,192,72606,1,2,0:0:0:0:
175,293,72821,6,0,P|138:221|70:265,1,179.999994506836,0|8,1:0|0:0,0:0:0:0:
62,153,73463,2,0,L|52:64,1,89.9999972534181,0|0,3:0|0:0,0:0:0:0:
153,0,73892,2,0,L|143:89,1,89.9999972534181,0|8,3:0|0:0,0:0:0:0:
211,219,74321,1,2,0:0:0:0:
223,90,74535,1,0,1:0:0:0:
230,97,74963,6,0,B|345:83|276:158|392:144,1,179.999994506836,8|0,0:0|0:0,0:0:0:0:
457,75,75606,1,0,3:0:0:0:
434,209,75821,1,8,0:0:0:0:
450,88,76035,1,2,0:0:0:0:
512,225,76249,1,0,1:0:0:0:
507,235,76678,5,8,0:0:0:0:
432,286,76892,2,0,L|444:382,1,89.9999972534181,0|0,3:0|0:0,0:0:0:0:
277,270,77321,1,0,3:0:0:0:
362,238,77535,2,0,L|373:141,1,89.9999972534181,8|2,0:0|0:0,0:0:0:0:
220,52,77963,6,0,P|296:39|274:125,1,179.999994506836,0|8,1:0|0:0,0:0:0:0:
138,59,78606,2,0,L|148:148,1,89.9999972534181,0|0,3:0|0:0,0:0:0:0:
218,194,79035,2,0,L|207:283,1,89.9999972534181,0|8,3:0|0:0,0:0:0:0:
113,357,79463,1,2,0:0:0:0:
286,302,79678,6,0,B|171:288|240:363|124:349,1,179.999994506836,4|8,1:2|0:0,0:0:0:0:
55,207,80321,1,0,3:0:0:0:
12,318,80535,2,0,L|5:262,2,44.999998626709,0|0|0,0:0|3:0|3:0,0:0:0:0:
198,230,80963,1,12,0:2:0:0:
123,348,81178,1,0,1:0:0:0:
209,237,81392,6,0,L|201:173,3,44.999998626709,8|0|0|0,0:0|3:0|3:0|3:0,0:0:0:0:
210,185,81821,1,4,1:2:0:0:
291,103,82035,1,0,3:0:0:0:
289,114,82142,1,0,3:0:0:0:
288,125,82249,1,0,3:0:0:0:
286,136,82356,1,0,3:0:0:0:
285,147,82463,1,4,1:2:0:0:
397,90,82678,5,8,0:0:0:0:
355,214,82892,1,0,3:0:0:0:
357,234,82999,1,0,3:0:0:0:
359,254,83106,6,0,B|259:239|309:302|208:289,1,160,4|8,1:2|0:0,0:0:0:0:
143,334,83749,1,0,3:0:0:0:
55,239,83963,2,0,P|45:201|65:167,1,80,2|0,0:0|3:0,0:0:0:0:
147,180,84392,2,0,P|156:217|136:251,1,80,8|0,0:0|0:0,0:0:0:0:
85,85,84821,5,0,1:0:0:0:
207,117,85035,2,0,P|242:133|254:170,1,80,2|8,0:0|0:0,0:0:0:0:
92,95,85463,1,0,3:0:0:0:
197,30,85678,2,0,P|232:13|268:28,1,80,2|0,0:0|3:0,0:0:0:0:
346,8,86106,2,0,P|381:24|393:61,1,80,8|0,0:0|0:0,0:0:0:0:
512,181,86535,6,0,B|412:196|462:133|361:146,1,160,0|8,1:0|0:0,0:0:0:0:
311,206,87178,1,0,3:0:0:0:
222,249,87392,6,0,P|273:222|311:313,1,160,2|8,0:0|0:0,0:0:0:0:
259,343,88035,1,0,0:0:0:0:
212,237,88249,6,0,B|112:252|162:189|61:202,1,160,0|8,1:0|0:0,0:0:0:0:
6,145,88892,1,0,3:0:0:0:
8,125,88999,1,2,0:0:0:0:
10,105,89106,2,0,P|45:121|81:106,1,80,2|0,0:0|3:0,0:0:0:0:
159,85,89535,2,0,P|195:70|230:86,1,80,8|0,0:0|0:0,0:0:0:0:
359,137,89963,6,0,B|259:122|309:185|208:172,1,160,0|8,1:0|0:0,0:0:0:0:
71,214,90606,1,0,3:0:0:0:
141,313,90821,2,0,P|131:275|151:241,1,80,2|0,0:0|3:0,0:0:0:0:
233,254,91249,2,0,P|242:291|222:325,1,80,8|0,0:0|0:0,0:0:0:0:
206,178,91678,1,0,1:0:0:0:
213,186,92106,5,8,0:0:0:0:
343,152,92321,2,0,P|304:155|275:129,1,80,0|2,3:0|0:0,0:0:0:0:
408,207,92749,1,0,3:0:0:0:
373,71,92963,2,0,P|344:44|305:48,1,80,8|0,0:0|0:0,0:0:0:0:
194,129,93392,5,0,1:0:0:0:
92,33,93606,2,0,P|117:62|114:100,1,80,2|8,0:0|0:0,0:0:0:0:
32,219,94035,2,0,L|41:139,2,80,0|2|0,3:0|0:0|3:0,0:0:0:0:
176,300,94678,1,8,0:0:0:0:
117,182,94892,1,2,0:0:0:0:
168,312,95106,5,0,1:0:0:0:
248,194,95321,1,8,0:0:0:0:
246,343,95535,2,0,L|334:332,1,80,8|2,0:0|0:0,0:0:0:0:
346,330,95856,1,0,3:0:0:0:
366,328,95963,5,0,3:0:0:0:
419,210,96178,1,0,3:0:0:0:
501,321,96392,2,0,L|508:257,3,40,8|0|0|0,0:0|3:0|3:0|3:0,0:0:0:0:
512,274,96821,6,0,L|500:178,1,80,4|0,1:2|0:0,0:0:0:0:
445,98,97249,1,8,0:0:0:0:
351,146,97463,2,0,P|417:165|416:79,1,160,0|0,3:0|3:0,0:0:0:0:
273,126,98106,1,8,0:0:0:0:
339,240,98321,1,2,0:0:0:0:
332,69,98535,1,0,1:0:0:0:
339,62,98963,6,0,P|300:56|276:25,1,80,8|0,0:0|3:0,0:0:0:0:
195,127,99392,2,0,P|209:90|195:54,1,80,2|0,0:0|3:0,0:0:0:0:
292,156,99821,2,0,L|278:267,1,80,8|0,0:0|0:0,0:0:0:0:
370,360,100249,5,0,1:0:0:0:
274,316,100463,1,2,0:0:0:0:
382,348,100678,2,0,L|372:268,1,80,8|0,0:0|3:0,0:0:0:0:
238,243,101106,1,2,0:0:0:0:
334,199,101321,1,0,3:0:0:0:
226,231,101535,2,0,L|235:151,1,80,8|2,0:0|0:0,0:0:0:0:
105,103,101963,6,0,B|204:116|155:54|253:67,1,160,0|8,1:0|0:0,0:0:0:0:
380,0,102606,1,0,3:0:0:0:
342,116,102821,1,2,0:0:0:0:
338,95,102928,1,0,3:0:0:0:
336,75,103035,1,0,3:0:0:0:
419,155,103249,2,0,L|408:243,1,80,8|2,0:0|0:0,0:0:0:0:
406,255,103571,1,0,3:0:0:0:
404,275,103678,6,0,P|351:263|312:301,1,80,4|2,1:2|0:0,0:0:0:0:
333,138,104106,2,0,P|322:175|289:197,1,80,8|0,0:0|3:0,0:0:0:0:
177,161,104535,1,2,0:0:0:0:
198,157,104642,1,0,3:0:0:0:
218,155,104749,1,0,3:0:0:0:
132,233,104963,1,8,0:0:0:0:
158,85,105178,1,2,0:0:0:0:
125,242,105392,6,0,B|224:229|175:291|273:278,1,160,0|8,1:0|0:0,0:0:0:0:
368,315,106035,1,0,3:0:0:0:
473,246,106249,2,0,L|463:166,1,80,2|0,0:0|3:0,0:0:0:0:
364,304,106678,2,0,L|354:383,1,80,8|2,0:0|0:0,0:0:0:0:
482,255,107106,6,0,P|467:194|406:249,1,160,0|8,1:0|0:0,0:0:0:0:
478,338,107749,1,0,3:0:0:0:
364,304,107963,1,2,0:0:0:0:
344,306,108071,1,0,3:0:0:0:
323,310,108178,1,0,3:0:0:0:
333,184,108392,2,0,L|245:173,1,80,8|2,0:0|0:0,0:0:0:0:
233,171,108713,1,0,3:0:0:0:
213,169,108821,5,4,1:2:0:0:
128,238,109035,1,0,3:0:0:0:
68,184,109249,2,0,L|73:136,2,40,2|0|0,0:0|3:0|3:0,0:0:0:0:
0,287,109678,2,0,P|37:276|70:296,1,80,0|2,3:0|0:0,0:0:0:0:
81,313,109999,1,8,3:2:0:0:
87,332,110106,2,0,L|79:395,1,40,8|8,0:0|3:2,0:0:0:0:
158,291,110321,1,2,0:0:0:0:
260,370,110535,6,0,B|359:383|310:321|408:334,1,160,4|8,1:2|0:0,0:0:0:0:
499,219,111178,1,0,3:0:0:0:
347,256,111392,2,0,L|259:245,1,80,2|0,0:0|3:0,0:0:0:0:
120,226,111821,1,8,0:0:0:0:
112,239,112249,5,0,1:0:0:0:
130,379,112463,2,0,P|128:339|154:311,1,80,2|8,0:0|0:0,0:0:0:0:
256,214,112892,1,0,3:0:0:0:
106,249,113106,2,0,L|115:169,1,80,2|0,0:0|3:0,0:0:0:0:
237,296,113535,1,8,0:0:0:0:
223,288,113963,5,0,1:0:0:0:
355,238,114178,1,2,0:0:0:0:
201,201,114392,2,0,L|213:296,1,80,8|0,0:0|3:0,0:0:0:0:
81,192,114821,2,0,L|92:96,1,80,2|0,0:0|3:0,0:0:0:0:
182,6,115249,1,8,0:0:0:0:
42,47,115463,1,2,0:0:0:0:
213,85,115678,1,0,1:0:0:0:
204,77,116106,5,8,0:0:0:0:
257,185,116321,2,0,B|356:198|307:136|405:149,1,160,0|0,3:0|3:0,0:0:0:0:
498,250,116963,1,8,0:0:0:0:
487,122,117178,1,2,0:0:0:0:
386,234,117392,2,0,P|425:294|488:258,1,160,0|8,1:0|0:0,0:0:0:0:
273,87,118249,5,2,0:0:0:0:
302,204,118463,1,0,3:0:0:0:
189,69,118678,2,0,P|157:93|118:88,1,80,8|0,0:0|0:0,0:0:0:0:
0,142,119106,6,0,B|99:129|50:191|148:178,1,160,0|8,1:0|0:0,0:0:0:0:
264,109,119749,1,0,3:0:0:0:
242,268,119963,2,0,L|230:172,1,80,2|0,0:0|3:0,0:0:0:0:
315,302,120392,1,8,0:0:0:0:
427,137,120821,5,4,1:2:0:0:
437,145,121249,1,8,0:0:0:0:
330,223,121463,2,0,L|242:212,1,80,0|2,3:0|0:0,0:0:0:0:
230,210,121785,1,0,3:0:0:0:
210,208,121892,1,0,3:0:0:0:
128,304,122106,2,0,L|207:294,1,80,8|0,0:0|0:0,0:0:0:0:
69,180,122535,5,0,1:0:0:0:
50,335,122749,2,0,L|42:271,3,40,0|0|0|0,1:0|3:0|3:0|3:0,0:0:0:0:
38,288,123178,1,0,1:0:0:0:
132,377,123392,1,8,0:0:0:0:
134,357,123499,1,0,3:0:0:0:
136,337,123606,1,0,3:0:0:0:
221,259,123821,2,0,L|211:180,1,80,8|0,0:0|3:0,0:0:0:0:
431,285,124249,6,0,B|316:271|385:346|269:332,1,179.999994506836,4|8,1:2|0:0,0:0:0:0:
139,266,124892,2,0,L|128:177,1,89.9999972534181,0|2,3:0|0:0,0:0:0:0:
126,156,125213,1,0,3:0:0:0:
123,136,125321,2,0,P|165:147|201:123,1,89.9999972534181,0|8,3:0|0:0,0:0:0:0:
281,0,125749,1,2,0:0:0:0:
281,156,125963,1,0,1:0:0:0:
289,146,126392,5,8,0:0:0:0:
314,284,126606,1,0,3:0:0:0:
444,166,126821,2,0,P|401:160|363:184,1,89.9999972534181,2|0,0:0|3:0,0:0:0:0:
392,314,127249,2,0,P|436:319|474:295,1,89.9999972534181,8|0,0:0|0:0,0:0:0:0:
308,295,127678,6,0,B|193:309|262:234|146:248,1,179.999994506836,0|8,1:0|0:0,0:0:0:0:
34,347,128321,1,0,3:0:0:0:
146,301,128535,2,0,L|140:257,1,44.999998626709,2|0,0:0|3:0,0:0:0:0:
69,183,128749,2,0,L|58:273,1,89.9999972534181,0|8,3:0|0:0,0:0:0:0:
146,151,129178,1,2,0:0:0:0:
241,286,129392,1,0,1:0:0:0:
233,275,129821,5,8,0:0:0:0:
324,153,130035,2,0,P|296:189|302:231,1,89.9999972534181,0|2,3:0|0:0,0:0:0:0:
311,250,130356,1,0,3:0:0:0:
323,266,130463,2,0,L|413:255,1,89.9999972534181,0|8,3:0|0:0,0:0:0:0:
285,368,130892,1,2,0:0:0:0:
218,221,131106,1,0,1:0:0:0:
228,227,131535,5,8,0:0:0:0:
91,132,131749,2,0,P|122:165|165:167,1,89.9999972534181,0|2,3:0|0:0,0:0:0:0:
184,160,132071,1,0,3:0:0:0:
201,149,132178,2,0,L|212:59,1,89.9999972534181,0|8,3:0|0:0,0:0:0:0:
363,0,132606,1,2,0:0:0:0:
286,119,132821,1,0,1:0:0:0:
282,107,133249,6,0,B|397:93|328:168|444:154,1,179.999994506836,8|2,0:0|0:0,0:0:0:0:
463,145,133785,1,0,3:0:0:0:
481,136,133892,2,0,L|470:226,1,89.9999972534181,0|8,3:0|0:0,0:0:0:0:
429,330,134321,1,2,0:0:0:0:
427,310,134428,1,0,3:0:0:0:
425,290,134535,1,0,1:0:0:0:
326,161,134749,5,2,0:0:0:0:
347,310,134963,2,0,L|257:298,1,89.9999972534181,8|0,0:0|3:0,0:0:0:0:
144,337,135392,1,2,0:0:0:0:
164,335,135499,1,0,3:0:0:0:
184,333,135606,1,0,3:0:0:0:
285,218,135821,1,8,0:0:0:0:
293,230,136249,5,0,1:0:0:0:
143,159,136463,1,2,0:0:0:0:
283,83,136678,1,8,0:0:0:0:
211,244,136892,6,0,L|217:292,2,44.999998626709,2|0|4,0:0|3:0|3:2,0:0:0:0:
142,109,137321,1,8,0:2:0:0:
298,177,137535,1,0,1:0:0:0:
296,157,137642,1,0,3:0:0:0:
294,137,137749,2,0,L|289:93,1,44.999998626709,0|0,3:0|3:0,0:0:0:0:
402,21,137963,6,0,B|286:7|355:82|240:68,1,179.999994506836,4|8,1:2|0:0,0:0:0:0:
88,161,138606,2,0,L|177:150,1,89.9999972534181,0|2,3:0|0:0,0:0:0:0:
198,148,138928,1,0,3:0:0:0:
218,145,139035,2,0,P|207:187|231:223,1,89.9999972534181,0|8,3:0|0:0,0:0:0:0:
355,321,139463,2,0,L|310:315,1,44.999998626709,2|0,0:0|3:0,0:0:0:0:
230,306,139678,1,0,1:0:0:0:
221,317,140106,5,8,0:0:0:0:
153,200,140321,2,0,P|182:169|177:125,1,89.9999972534181,0|2,3:0|0:0,0:0:0:0:
168,106,140642,1,0,3:0:0:0:
157,89,140749,2,0,L|246:99,1,89.9999972534181,0|8,3:0|0:0,0:0:0:0:
359,44,141178,2,0,L|295:51,1,44.999998626709,2|0,0:0|3:0,0:0:0:0:
407,198,141392,6,0,P|370:126|302:170,1,179.999994506836,0|8,1:0|0:0,0:0:0:0:
233,287,142035,2,0,L|223:198,1,89.9999972534181,0|2,3:0|0:0,0:0:0:0:
220,178,142356,1,0,3:0:0:0:
217,158,142463,2,0,P|184:187|141:181,1,89.9999972534181,0|8,3:0|0:0,0:0:0:0:
92,75,142892,2,0,L|84:138,1,44.999998626709,2|0,0:0|3:0,0:0:0:0:
72,223,143106,1,0,1:0:0:0:
64,215,143535,6,0,B|179:201|110:276|226:262,1,179.999994506836,8|2,0:0|0:0,0:0:0:0:
247,260,144071,1,0,3:0:0:0:
266,254,144178,1,0,3:0:0:0:
367,353,144392,1,8,0:0:0:0:
348,231,144606,2,0,L|340:294,1,44.999998626709,2|0,0:0|3:0,0:0:0:0:
466,333,144821,6,0,L|376:343,1,89.9999972534181,4|0,1:2|0:0,0:0:0:0:
294,169,145249,2,0,B|179:155|248:230|132:216,1,179.999994506836,8|2,0:0|0:0,0:0:0:0:
113,208,145785,1,0,3:0:0:0:
93,202,145892,1,0,3:0:0:0:
31,75,146106,1,8,0:0:0:0:
18,233,146321,2,0,L|12:188,1,44.999998626709,2|0,0:0|3:0,0:0:0:0:
39,85,146535,6,0,P|56:50|125:126,1,179.999994506836,0|8,1:0|0:0,0:0:0:0:
204,249,147178,2,0,L|214:160,1,89.9999972534181,0|2,3:0|0:0,0:0:0:0:
217,140,147499,1,0,3:0:0:0:
220,120,147606,2,0,P|253:149|296:143,1,89.9999972534181,0|8,3:0|0:0,0:0:0:0:
372,71,148035,1,2,0:0:0:0:
345,210,148249,6,0,L|350:257,3,44.999998626709,0|2|2|2,1:0|0:0|0:0|0:0,0:0:0:0:
357,261,148678,2,0,L|420:268,1,44.999998626709,8|2,0:0|0:0,0:0:0:0:
394,346,148892,2,0,L|349:340,1,44.999998626709,0|2,3:0|0:0,0:0:0:0:
269,232,149106,5,2,0:0:0:0:
248,234,149213,1,0,3:0:0:0:
228,236,149321,2,0,L|183:241,1,44.999998626709,0|2,3:0|0:0,0:0:0:0:
74,325,149535,6,0,L|81:388,1,44.999998626709,12|2,0:2|0:0,0:0:0:0:
159,362,149749,2,0,L|153:317,1,44.999998626709,0|2,3:0|0:0,0:0:0:0:
21,259,149963,6,0,B|29:193|29:193|26:190|26:190|34:125,1,134.999995880127,0|0,1:0|3:0,0:0:0:0:
28,118,150392,1,8,0:0:0:0:
93,0,150606,2,0,L|101:63,1,44.999998626709,2|0,0:0|3:0,0:0:0:0:
113,148,150821,5,8,0:0:0:0:
14,36,151035,1,8,0:0:0:0:
122,137,151249,1,8,0:0:0:0:
19,132,151463,1,2,0:0:0:0:
178,74,151678,6,0,B|305:57|242:138|362:121,1,200,4|8,1:2|0:0,0:0:0:0:
459,2,152321,2,0,L|443:129,1,100,0|2,3:0|0:0,0:0:0:0:
444,120,152642,1,0,3:0:0:0:
442,141,152749,1,0,3:0:0:0:
510,294,152963,1,8,0:0:0:0:
381,201,153178,2,0,L|373:264,1,50,2|0,0:0|3:0,0:0:0:0:
425,368,153392,6,0,P|430:310|311:324,1,200,4|8,1:2|0:0,0:0:0:0:
107,324,154035,2,0,L|234:339,1,100,0|2,3:0|0:0,0:0:0:0:
226,339,154356,1,0,3:0:0:0:
246,341,154463,1,0,3:0:0:0:
122,244,154678,2,0,P|140:198|118:155,1,100,8|2,0:0|0:0,0:0:0:0:
105,141,154999,1,0,3:0:0:0:
87,133,155106,6,0,B|214:150|151:69|271:86,1,200,4|8,1:2|0:0,0:0:0:0:
429,29,155749,2,0,L|302:14,1,100,0|2,3:0|0:0,0:0:0:0:
310,14,156071,1,0,3:0:0:0:
290,12,156178,1,0,3:0:0:0:
424,109,156392,1,8,0:0:0:0:
275,97,156606,2,0,L|282:160,1,50,2|0,0:0|3:0,0:0:0:0:
331,264,156821,6,0,P|336:206|217:220,1,200,4|8,1:2|0:0,0:0:0:0:
159,336,157463,2,0,L|144:209,1,100,0|2,3:0|0:0,0:0:0:0:
144,217,157785,1,0,3:0:0:0:
142,197,157892,1,0,3:0:0:0:
37,121,158106,1,12,0:2:0:0:
210,129,158321,1,2,0:0:0:0:
212,108,158428,1,0,3:0:0:0:
214,87,158535,6,0,B|94:70|157:151|30:134,1,200,4|8,1:2|0:0,0:0:0:0:
186,172,159178,2,0,L|171:299,1,100,0|2,3:0|0:0,0:0:0:0:
171,291,159499,1,0,3:0:0:0:
169,311,159606,1,0,3:0:0:0:
345,224,159821,2,0,P|304:199|266:226,1,100,8|2,0:0|0:0,0:0:0:0:
262,246,160142,1,0,3:0:0:0:
263,266,160249,6,0,B|383:249|320:330|447:313,1,200,4|8,1:2|0:0,0:0:0:0:
508,226,160892,1,0,3:0:0:0:
366,196,161106,1,2,0:0:0:0:
364,175,161213,1,0,3:0:0:0:
362,154,161321,1,0,3:0:0:0:
500,235,161535,1,8,0:0:0:0:
447,97,161749,2,0,L|440:148,1,50,2|0,0:0|3:0,0:0:0:0:
423,258,161963,6,0,P|382:226|336:244,1,100,4|0,1:2|0:0,0:0:0:0:
323,86,162392,2,0,P|327:133|290:164,1,100,8|0,0:0|3:0,0:0:0:0:
177,123,162821,1,2,0:0:0:0:
198,121,162928,1,0,3:0:0:0:
219,119,163035,1,0,3:0:0:0:
259,245,163249,2,0,L|245:356,1,100,8|0,0:0|3:0,0:0:0:0:
152,167,163678,6,0,L|161:246,1,50,0|0,1:0|3:0,0:0:0:0:
169,309,163892,1,0,3:0:0:0:
72,177,164106,1,8,0:0:0:0:
1,284,164321,1,0,3:0:0:0:
22,282,164428,1,0,3:0:0:0:
43,280,164535,6,0,L|122:270,1,50,0|0,3:0|3:0,0:0:0:0:
185,263,164749,1,4,1:2:0:0:
76,166,164963,1,8,0:0:0:0:
148,336,165178,1,0,3:0:0:0:
157,180,165392,6,0,B|284:197|221:116|341:133,1,200,4|8,1:2|0:0,0:0:0:0:
474,77,166035,1,0,3:0:0:0:
418,169,166249,1,2,0:0:0:0:
420,190,166356,1,0,3:0:0:0:
422,211,166463,1,0,3:0:0:0:
392,61,166678,2,0,L|265:46,1,100,8|2,0:0|0:0,0:0:0:0:
273,46,166999,1,0,3:0:0:0:
253,44,167106,5,4,1:2:0:0:
120,141,167321,2,0,P|147:101|195:99,1,100,2|8,0:0|0:0,0:0:0:0:
292,212,167749,1,0,3:0:0:0:
277,92,167963,1,2,0:0:0:0:
275,113,168071,1,0,3:0:0:0:
273,134,168178,1,0,3:0:0:0:
347,30,168392,2,0,L|362:157,1,100,8|2,0:0|0:0,0:0:0:0:
362,149,168713,1,0,3:0:0:0:
364,169,168821,5,4,1:2:0:0:
482,250,169035,1,2,0:0:0:0:
328,259,169249,2,0,P|375:252|409:287,1,100,8|0,0:0|3:0,0:0:0:0:
270,362,169678,1,2,0:0:0:0:
272,341,169785,1,0,3:0:0:0:
274,320,169892,1,0,3:0:0:0:
230,194,170106,1,8,0:0:0:0:
192,333,170321,2,0,L|182:253,1,50,2|0,0:0|3:0,0:0:0:0:
34,246,170535,6,0,B|154:263|91:182|218:199,1,200,4|8,1:2|0:0,0:0:0:0:
379,109,171178,2,0,P|332:102|298:137,1,100,0|2,3:0|0:0,0:0:0:0:
295,157,171499,1,0,3:0:0:0:
298,177,171606,1,0,3:0:0:0:
139,52,171821,2,0,P|186:45|220:80,1,100,8|2,0:0|0:0,0:0:0:0:
223,100,172142,1,0,3:0:0:0:
220,120,172249,6,0,B|100:137|163:56|36:73,1,200,4|8,1:2|0:0,0:0:0:0:
144,5,172892,1,0,3:0:0:0:
67,156,173106,1,2,0:0:0:0:
70,175,173213,1,0,3:0:0:0:
72,195,173321,1,0,3:0:0:0:
208,130,173535,2,0,L|193:257,1,100,8|2,0:0|0:0,0:0:0:0:
193,248,173856,1,0,3:0:0:0:
191,269,173963,6,0,B|318:252|255:333|375:316,1,200,4|8,1:2|0:0,0:0:0:0:
270,384,174606,1,0,3:0:0:0:
347,235,174821,1,2,0:0:0:0:
345,215,174928,1,0,3:0:0:0:
342,196,175035,1,0,3:0:0:0:
206,261,175249,2,0,L|221:134,1,100,8|2,0:0|0:0,0:0:0:0:
230,47,175678,6,0,B|323:49|305:191|166:177|122:67,1,300,12|8,1:2|1:2,0:0:0:0:
476,270,177606,6,0,P|416:236|374:344,1,200,12|8,1:2|1:2,0:0:0:0:
305,208,178249,1,8,1:2:0:0:
