osu file format v14

[General]
AudioFilename: audio.mp3
AudioLeadIn: 0
PreviewTime: 27717
Countdown: 0
SampleSet: Drum
StackLeniency: 1
Mode: 3
LetterboxInBreaks: 0
SpecialStyle: 0
WidescreenStoryboard: 0

[Editor]
DistanceSpacing: 2.2
BeatDivisor: 4
GridSize: 4
TimelineZoom: 1

[Metadata]
Title:This December
TitleUnicode:This December
Artist:Ricky Montgomery
ArtistUnicode:Ricky Montgomery
Creator:Feerum
Version:Easy
Source:osu!
Tags:FA featured artist mappers' guild mg Alternative Rock Indie English The Honeysticks
BeatmapID:2234956
BeatmapSetID:1067499

[Difficulty]
HPDrainRate:6
CircleSize:4
OverallDifficulty:6
ApproachRate:10
SliderMultiplier:1.4
SliderTickRate:1

[Events]
//Background and Video events
0,0,"BG.jpg",0,0
//Break Periods
//Storyboard Layer 0 (Background)
//Storyboard Layer 1 (Fail)
//Storyboard Layer 2 (Pass)
//Storyboard Layer 3 (Foreground)
//Storyboard Layer 4 (Overlay)
//Storyboard Sound Samples

[TimingPoints]
717,428.571428571429,4,3,1,70,1,0
55574,-100,4,3,1,70,0,1
83002,-100,4,3,1,70,0,0
124145,-100,4,3,1,70,0,1
148145,-100,4,3,1,70,0,0
151574,-100,4,3,1,70,0,1
175574,-100,4,3,1,70,0,0

[HitObjects]
320,192,717,128,0,2431:0:0:0:0:
64,192,2431,128,0,4145:0:0:0:0:
448,192,4145,128,0,5002:0:0:0:0:
320,192,5002,128,0,5859:0:0:0:0:
192,192,5859,128,0,7574:0:0:0:0:
64,192,7574,128,0,9288:0:0:0:0:
320,192,9288,128,0,11002:0:0:0:0:
192,192,11002,128,0,11859:0:0:0:0:
448,192,11859,128,0,12717:0:0:0:0:
64,192,12717,128,0,14431:0:0:0:0:
320,192,14431,128,0,16145:0:0:0:0:
192,192,16145,128,0,17859:0:0:0:0:
64,192,17859,128,0,18717:0:0:0:0:
320,192,18717,128,0,19574:0:0:0:0:
192,192,19574,128,0,21288:0:0:0:0:
448,192,21288,128,0,23002:0:0:0:0:
64,192,23002,128,0,24717:0:0:0:0:
320,192,24717,1,2,2:0:0:0:
320,192,25359,1,2,2:0:0:0:
192,192,26645,1,2,2:0:0:0:
320,192,27074,1,2,2:0:0:0:
192,192,27288,1,2,2:0:0:0:
448,192,28145,1,4,1:0:0:0:
320,192,28145,1,0,0:0:0:0:
64,192,28574,1,0,1:0:0:0:
320,192,28788,1,4,0:0:0:0:
448,192,29217,1,4,0:0:0:0:
192,192,29431,1,0,1:0:0:0:
320,192,29859,1,4,0:0:0:0:
64,192,30288,1,0,1:0:0:0:
448,192,30502,1,4,0:0:0:0:
192,192,30931,1,4,0:0:0:0:
320,192,31145,1,0,1:0:0:0:
64,192,31574,128,4,32002:0:0:0:0:
448,192,32002,128,0,32431:1:0:0:0:
192,192,32431,128,0,32859:0:0:0:0:
320,192,32859,1,0,1:0:0:0:
64,192,33074,1,0,0:0:0:0:
448,192,33288,1,4,0:0:0:0:
192,192,33717,1,0,1:0:0:0:
320,192,33931,1,4,0:0:0:0:
448,192,34359,1,4,0:0:0:0:
64,192,34574,1,0,1:0:0:0:
192,192,34788,1,0,0:0:0:0:
320,192,35002,1,4,0:0:0:0:
448,192,35431,1,0,1:0:0:0:
64,192,35645,1,4,0:0:0:0:
192,192,36074,1,4,0:0:0:0:
320,192,36288,1,0,1:0:0:0:
64,192,36717,1,4,0:0:0:0:
448,192,37145,1,0,1:0:0:0:
192,192,37359,1,4,0:0:0:0:
320,192,37788,1,4,0:0:0:0:
64,192,38002,1,0,1:0:0:0:
448,192,38431,1,4,0:0:0:0:
192,192,38859,1,0,1:0:0:0:
320,192,39074,1,4,0:0:0:0:
448,192,39502,1,4,0:0:0:0:
64,192,39717,1,0,1:0:0:0:
320,192,40145,1,4,0:0:0:0:
192,192,40574,1,0,1:0:0:0:
448,192,40788,1,4,0:0:0:0:
64,192,41002,1,0,0:0:0:0:
320,192,41217,1,4,0:0:0:0:
192,192,41431,1,0,1:0:0:0:
448,192,41859,1,4,1:0:0:0:
320,192,41859,1,4,0:0:0:0:
64,192,42288,1,0,1:0:0:0:
448,192,42502,1,4,0:0:0:0:
320,192,42931,1,4,0:0:0:0:
192,192,43145,1,0,1:0:0:0:
448,192,43574,1,4,0:0:0:0:
64,192,44002,1,0,1:0:0:0:
320,192,44217,1,4,0:0:0:0:
448,192,44645,1,4,0:0:0:0:
192,192,44859,1,0,1:0:0:0:
320,192,45288,1,4,0:0:0:0:
64,192,45717,1,0,1:0:0:0:
448,192,45931,1,4,0:0:0:0:
320,192,46359,1,4,0:0:0:0:
64,192,46574,1,0,1:0:0:0:
192,192,47002,1,4,0:0:0:0:
64,192,47431,1,0,1:0:0:0:
320,192,47645,128,4,48074:0:0:0:0:
192,192,48074,128,4,48502:0:0:0:0:
448,192,48502,1,0,0:0:0:0:
64,192,48717,1,4,0:0:0:0:
320,192,49145,1,0,1:0:0:0:
192,192,49359,1,4,0:0:0:0:
320,192,49788,1,4,0:0:0:0:
64,192,50002,1,0,1:0:0:0:
448,192,50431,1,4,0:0:0:0:
192,192,50859,1,0,1:0:0:0:
320,192,51074,1,4,0:0:0:0:
64,192,51502,1,4,0:0:0:0:
448,192,51717,1,0,1:0:0:0:
320,192,51931,1,0,0:0:0:0:
64,192,52145,1,2,2:0:0:0:
192,192,52145,1,0,0:0:0:0:
192,192,52788,1,2,2:0:0:0:
448,192,53002,1,0,0:0:0:0:
64,192,53217,1,4,0:0:0:0:
320,192,53431,1,0,1:0:0:0:
192,192,53859,1,4,0:0:0:0:
448,192,54074,1,2,2:0:0:0:
64,192,54288,1,4,0:0:0:0:
448,192,54502,1,2,2:0:0:0:
192,192,54717,128,2,55145:2:0:0:0:
320,192,55145,128,0,55574:1:0:0:0:
64,192,55574,1,4,1:0:0:0:
192,192,55574,1,4,0:0:0:0:
448,192,56002,1,0,1:0:0:0:
192,192,56217,1,4,0:0:0:0:
320,192,56431,1,0,0:0:0:0:
64,192,56645,1,4,0:0:0:0:
448,192,56859,1,0,1:0:0:0:
192,192,57288,1,4,0:0:0:0:
320,192,57717,1,0,1:0:0:0:
64,192,57931,1,4,0:0:0:0:
192,192,58359,1,4,0:0:0:0:
448,192,58574,1,0,1:0:0:0:
320,192,59002,1,4,0:0:0:0:
64,192,59431,1,0,1:0:0:0:
192,192,59645,1,4,0:0:0:0:
448,192,59859,1,0,0:0:0:0:
320,192,60074,1,4,0:0:0:0:
64,192,60288,1,0,1:0:0:0:
192,192,60717,1,4,0:0:0:0:
448,192,61145,1,0,1:0:0:0:
64,192,61359,1,4,0:0:0:0:
192,192,61788,1,4,0:0:0:0:
320,192,62002,1,0,1:0:0:0:
448,192,62431,1,4,0:0:0:0:
64,192,62859,1,0,1:0:0:0:
320,192,63074,1,4,0:0:0:0:
192,192,63288,1,0,0:0:0:0:
448,192,63502,1,4,0:0:0:0:
64,192,63717,1,0,1:0:0:0:
320,192,64145,1,4,0:0:0:0:
192,192,64574,1,0,1:0:0:0:
448,192,64788,1,4,0:0:0:0:
320,192,65217,1,4,0:0:0:0:
64,192,65431,1,0,1:0:0:0:
192,192,65859,1,4,0:0:0:0:
448,192,66288,1,0,1:0:0:0:
64,192,66502,1,4,0:0:0:0:
320,192,66717,1,0,0:0:0:0:
192,192,66931,1,4,0:0:0:0:
448,192,67145,1,0,1:0:0:0:
64,192,67574,1,4,0:0:0:0:
320,192,68002,1,0,1:0:0:0:
448,192,68217,1,0,0:0:0:0:
64,192,68431,1,4,0:0:0:0:
320,192,68645,1,0,1:0:0:0:
192,192,68859,128,0,69288:1:0:0:0:
448,192,69288,1,4,1:0:0:0:
320,192,69288,1,4,0:0:0:0:
64,192,69717,1,0,1:0:0:0:
448,192,69931,1,4,0:0:0:0:
192,192,70145,1,0,0:0:0:0:
320,192,70359,1,4,0:0:0:0:
64,192,70574,1,0,1:0:0:0:
448,192,71002,1,4,0:0:0:0:
192,192,71431,1,0,1:0:0:0:
320,192,71645,1,4,0:0:0:0:
448,192,72074,1,4,0:0:0:0:
64,192,72288,1,0,1:0:0:0:
320,192,72717,1,4,0:0:0:0:
192,192,73145,1,0,1:0:0:0:
448,192,73359,1,4,0:0:0:0:
64,192,73574,1,0,0:0:0:0:
320,192,73788,1,4,0:0:0:0:
192,192,74002,1,0,1:0:0:0:
448,192,74431,1,4,0:0:0:0:
64,192,74859,1,0,1:0:0:0:
320,192,75074,1,4,0:0:0:0:
448,192,75502,1,4,0:0:0:0:
192,192,75717,1,0,1:0:0:0:
320,192,76145,1,4,0:0:0:0:
64,192,76574,1,0,1:0:0:0:
192,192,76788,1,4,0:0:0:0:
448,192,77002,1,0,0:0:0:0:
320,192,77217,1,4,0:0:0:0:
64,192,77431,1,0,1:0:0:0:
192,192,77859,1,4,0:0:0:0:
320,192,78288,1,0,1:0:0:0:
64,192,78502,1,4,0:0:0:0:
192,192,78931,1,4,0:0:0:0:
448,192,79145,1,0,1:0:0:0:
320,192,79574,128,4,80431:0:0:0:0:
64,192,79574,1,4,1:0:0:0:
192,192,80431,128,4,81288:0:0:0:0:
64,192,81288,128,4,82145:0:0:0:0:
448,192,82145,1,4,0:0:0:0:
192,192,82359,1,4,0:0:0:0:
320,192,82574,5,0,1:0:0:0:
192,192,83002,5,2,2:0:0:0:
192,192,83431,1,2,2:0:0:0:
320,192,83859,1,2,2:0:0:0:
192,192,84288,1,2,2:0:0:0:
64,192,84931,1,2,2:0:0:0:
64,192,85359,1,2,2:0:0:0:
320,192,85574,1,2,2:0:0:0:
192,192,86002,1,2,2:0:0:0:
448,192,86431,128,2,87288:2:0:0:0:
192,192,87288,128,2,88145:2:0:0:0:
64,192,88145,128,2,88788:2:0:0:0:
320,192,88788,1,2,2:0:0:0:
192,192,89002,128,2,89431:2:0:0:0:
448,192,89431,128,2,89859:2:0:0:0:
64,192,89859,1,2,2:0:0:0:
64,192,90288,1,2,2:0:0:0:
320,192,90717,1,2,2:0:0:0:
192,192,91145,1,2,2:0:0:0:
64,192,92002,1,2,2:0:0:0:
448,192,92217,1,2,2:0:0:0:
320,192,92859,1,2,2:0:0:0:
192,192,93288,1,2,2:0:0:0:
448,192,93502,1,2,2:0:0:0:
64,192,93931,1,2,2:0:0:0:
320,192,94145,1,2,2:0:0:0:
192,192,94359,1,2,2:0:0:0:
448,192,94574,1,2,2:0:0:0:
64,192,95002,128,2,95859:2:0:0:0:
448,192,95859,128,2,96717:2:0:0:0:
192,192,96717,1,4,0:0:0:0:
64,192,96717,1,4,1:0:0:0:
320,192,97145,1,0,1:0:0:0:
64,192,97359,1,4,0:0:0:0:
192,192,97788,1,4,0:0:0:0:
448,192,98002,1,0,1:0:0:0:
320,192,98431,1,4,0:0:0:0:
448,192,98859,1,0,1:0:0:0:
64,192,99074,1,4,0:0:0:0:
320,192,99502,1,4,0:0:0:0:
192,192,99717,1,0,1:0:0:0:
448,192,100145,1,4,0:0:0:0:
64,192,100574,1,0,1:0:0:0:
320,192,100788,1,4,0:0:0:0:
192,192,101217,1,4,0:0:0:0:
448,192,101431,1,0,1:0:0:0:
320,192,101859,1,4,0:0:0:0:
64,192,102288,1,0,1:0:0:0:
192,192,102502,1,4,0:0:0:0:
448,192,102931,1,4,0:0:0:0:
320,192,103145,1,0,1:0:0:0:
192,192,103574,1,4,0:0:0:0:
64,192,103574,1,4,1:0:0:0:
448,192,104002,1,0,1:0:0:0:
192,192,104217,1,4,0:0:0:0:
64,192,104645,1,4,0:0:0:0:
320,192,104859,1,0,1:0:0:0:
192,192,105288,1,4,0:0:0:0:
448,192,105717,1,0,1:0:0:0:
64,192,105931,1,4,0:0:0:0:
320,192,106359,1,4,0:0:0:0:
192,192,106574,1,0,1:0:0:0:
448,192,107002,1,4,0:0:0:0:
64,192,107431,1,0,1:0:0:0:
320,192,107645,1,4,0:0:0:0:
448,192,108074,1,4,0:0:0:0:
192,192,108288,1,0,1:0:0:0:
320,192,108502,1,0,0:0:0:0:
64,192,108717,1,4,0:0:0:0:
448,192,109145,1,0,0:0:0:0:
192,192,109359,1,0,1:0:0:0:
320,192,109574,1,4,0:0:0:0:
64,192,109788,1,0,0:0:0:0:
448,192,110002,1,0,1:0:0:0:
192,192,110431,1,4,0:0:0:0:
64,192,110431,1,4,1:0:0:0:
320,192,110859,1,0,1:0:0:0:
192,192,111074,1,4,0:0:0:0:
64,192,111502,1,4,0:0:0:0:
448,192,111717,1,0,1:0:0:0:
320,192,112145,1,4,0:0:0:0:
192,192,112574,1,0,1:0:0:0:
448,192,112788,1,4,0:0:0:0:
64,192,113217,1,4,0:0:0:0:
320,192,113431,1,0,1:0:0:0:
192,192,113859,1,4,0:0:0:0:
448,192,114288,1,0,1:0:0:0:
64,192,114502,1,4,0:0:0:0:
320,192,114931,1,4,0:0:0:0:
192,192,115145,1,0,1:0:0:0:
448,192,115574,1,4,0:0:0:0:
64,192,116002,1,0,1:0:0:0:
320,192,116217,1,4,0:0:0:0:
192,192,116645,1,4,0:0:0:0:
448,192,116859,1,0,1:0:0:0:
64,192,117288,1,4,0:0:0:0:
320,192,117717,1,0,1:0:0:0:
192,192,117931,1,4,0:0:0:0:
448,192,118359,1,4,0:0:0:0:
64,192,118574,1,0,1:0:0:0:
320,192,119002,1,4,0:0:0:0:
192,192,119431,1,0,1:0:0:0:
448,192,119645,1,4,0:0:0:0:
64,192,120074,1,4,0:0:0:0:
320,192,120288,1,0,1:0:0:0:
448,192,120502,1,0,0:0:0:0:
192,192,120717,1,2,2:0:0:0:
64,192,120717,1,4,1:0:0:0:
192,192,121359,1,2,2:0:0:0:
448,192,121574,1,0,0:0:0:0:
320,192,121788,1,4,0:0:0:0:
64,192,122002,1,0,1:0:0:0:
192,192,122431,1,4,0:0:0:0:
448,192,122645,1,2,2:0:0:0:
64,192,122859,1,4,0:0:0:0:
320,192,123074,1,2,2:0:0:0:
64,192,123288,128,2,123717:2:0:0:0:
448,192,123717,128,0,124145:1:0:0:0:
320,192,124145,1,4,1:0:0:0:
192,192,124145,1,4,0:0:0:0:
64,192,124574,1,0,1:0:0:0:
448,192,124788,1,4,0:0:0:0:
192,192,125002,1,0,0:0:0:0:
320,192,125217,1,4,0:0:0:0:
64,192,125431,1,0,1:0:0:0:
448,192,125859,1,4,0:0:0:0:
192,192,126288,1,0,1:0:0:0:
320,192,126502,1,4,0:0:0:0:
448,192,126931,1,4,0:0:0:0:
64,192,127145,1,0,1:0:0:0:
320,192,127574,1,4,0:0:0:0:
192,192,128002,1,0,1:0:0:0:
448,192,128217,1,4,0:0:0:0:
64,192,128431,1,0,0:0:0:0:
320,192,128645,1,4,0:0:0:0:
64,192,128859,1,0,1:0:0:0:
192,192,129288,1,4,0:0:0:0:
448,192,129717,1,0,1:0:0:0:
64,192,129931,1,4,0:0:0:0:
192,192,130359,1,4,0:0:0:0:
448,192,130574,1,0,1:0:0:0:
320,192,131002,1,4,0:0:0:0:
64,192,131431,1,0,1:0:0:0:
448,192,131645,1,4,0:0:0:0:
320,192,131859,1,0,0:0:0:0:
192,192,132074,1,4,0:0:0:0:
64,192,132288,1,0,1:0:0:0:
320,192,132717,1,4,0:0:0:0:
64,192,133145,1,0,1:0:0:0:
192,192,133359,1,4,0:0:0:0:
448,192,133788,1,4,0:0:0:0:
320,192,134002,1,0,1:0:0:0:
192,192,134431,1,4,0:0:0:0:
64,192,134859,1,0,1:0:0:0:
448,192,135074,1,4,0:0:0:0:
192,192,135288,1,0,0:0:0:0:
320,192,135502,1,4,0:0:0:0:
64,192,135717,1,0,1:0:0:0:
448,192,136145,1,4,0:0:0:0:
192,192,136574,1,0,1:0:0:0:
320,192,136788,1,0,0:0:0:0:
64,192,137002,1,4,0:0:0:0:
192,192,137217,1,0,1:0:0:0:
448,192,137431,128,4,137859:0:0:0:0:
192,192,137859,1,4,0:0:0:0:
64,192,137859,1,4,1:0:0:0:
320,192,138288,1,0,1:0:0:0:
64,192,138502,1,4,0:0:0:0:
448,192,138717,1,0,0:0:0:0:
192,192,138931,1,4,0:0:0:0:
320,192,139145,1,0,1:0:0:0:
64,192,139574,1,4,0:0:0:0:
448,192,140002,1,0,1:0:0:0:
192,192,140217,1,4,0:0:0:0:
320,192,140645,1,4,0:0:0:0:
64,192,140859,1,0,1:0:0:0:
192,192,141288,1,4,0:0:0:0:
64,192,141717,1,0,1:0:0:0:
192,192,141931,1,4,0:0:0:0:
320,192,142145,1,0,0:0:0:0:
64,192,142359,1,4,0:0:0:0:
448,192,142574,1,0,1:0:0:0:
192,192,143002,1,4,0:0:0:0:
320,192,143431,1,0,1:0:0:0:
64,192,143645,1,4,0:0:0:0:
448,192,144074,1,4,0:0:0:0:
192,192,144288,1,0,1:0:0:0:
320,192,144717,1,4,0:0:0:0:
448,192,144717,1,4,1:0:0:0:
64,192,145145,1,0,1:0:0:0:
320,192,145359,1,4,0:0:0:0:
192,192,145574,1,0,0:0:0:0:
448,192,145788,1,4,0:0:0:0:
64,192,146002,1,0,1:0:0:0:
320,192,146431,1,4,0:0:0:0:
192,192,146859,1,0,1:0:0:0:
448,192,147074,1,4,0:0:0:0:
320,192,147502,1,4,0:0:0:0:
64,192,147717,1,0,1:0:0:0:
448,192,148145,128,0,149002:0:0:0:0:
192,192,149002,128,0,149859:0:0:0:0:
320,192,149859,128,0,150502:0:0:0:0:
192,192,150502,1,0,0:0:0:0:
64,192,150717,1,0,0:0:0:0:
448,192,150931,1,0,0:0:0:0:
192,192,151145,1,0,0:0:0:0:
448,192,151574,1,4,1:0:0:0:
320,192,151574,1,4,0:0:0:0:
64,192,152002,1,0,1:0:0:0:
192,192,152217,1,4,0:0:0:0:
320,192,152431,1,0,0:0:0:0:
64,192,152645,1,4,0:0:0:0:
448,192,152859,1,0,1:0:0:0:
192,192,153288,1,4,0:0:0:0:
320,192,153717,1,0,1:0:0:0:
64,192,153931,1,4,0:0:0:0:
192,192,154359,1,4,0:0:0:0:
448,192,154574,1,0,1:0:0:0:
320,192,155002,1,4,0:0:0:0:
64,192,155431,1,0,1:0:0:0:
448,192,155645,1,4,0:0:0:0:
320,192,155859,1,0,0:0:0:0:
192,192,156074,1,4,0:0:0:0:
448,192,156288,1,0,1:0:0:0:
64,192,156717,1,4,0:0:0:0:
320,192,157145,1,0,1:0:0:0:
192,192,157359,1,4,0:0:0:0:
64,192,157788,1,4,0:0:0:0:
448,192,158002,1,4,1:0:0:0:
320,192,158002,1,0,1:0:0:0:
64,192,158431,1,4,1:0:0:0:
192,192,158431,1,4,0:0:0:0:
448,192,158859,1,0,1:0:0:0:
192,192,159074,1,4,0:0:0:0:
320,192,159288,1,0,0:0:0:0:
64,192,159502,1,4,0:0:0:0:
448,192,159717,1,0,1:0:0:0:
192,192,160145,1,4,0:0:0:0:
320,192,160574,1,0,1:0:0:0:
64,192,160788,1,4,0:0:0:0:
192,192,161217,1,4,0:0:0:0:
448,192,161431,1,0,1:0:0:0:
64,192,161859,1,4,1:0:0:0:
192,192,161859,1,4,0:0:0:0:
320,192,162288,1,0,1:0:0:0:
448,192,162502,1,4,0:0:0:0:
64,192,162717,1,0,0:0:0:0:
192,192,162931,1,4,0:0:0:0:
320,192,163145,1,0,1:0:0:0:
448,192,163574,1,4,0:0:0:0:
192,192,164002,1,4,0:0:0:0:
64,192,164217,1,0,1:0:0:0:
320,192,164431,1,4,0:0:0:0:
192,192,164645,1,4,0:0:0:0:
448,192,164859,128,0,165288:1:0:0:0:
64,192,165288,1,4,1:0:0:0:
192,192,165288,1,4,0:0:0:0:
320,192,165717,1,0,1:0:0:0:
448,192,165931,1,4,0:0:0:0:
192,192,166145,1,0,0:0:0:0:
64,192,166359,1,4,0:0:0:0:
320,192,166574,1,0,1:0:0:0:
192,192,167002,1,4,0:0:0:0:
448,192,167431,1,0,1:0:0:0:
64,192,167645,1,4,0:0:0:0:
192,192,168074,1,4,0:0:0:0:
320,192,168288,1,0,1:0:0:0:
64,192,168717,1,4,0:0:0:0:
448,192,169145,1,0,1:0:0:0:
192,192,169359,1,4,0:0:0:0:
320,192,169574,1,0,0:0:0:0:
64,192,169788,1,4,0:0:0:0:
448,192,170002,1,0,1:0:0:0:
320,192,170431,1,4,0:0:0:0:
192,192,170859,1,0,1:0:0:0:
448,192,171074,1,4,0:0:0:0:
64,192,171502,1,4,0:0:0:0:
320,192,171717,1,0,1:0:0:0:
192,192,172145,1,4,0:0:0:0:
64,192,172145,1,4,1:0:0:0:
448,192,172574,1,0,1:0:0:0:
192,192,172788,1,4,0:0:0:0:
320,192,173002,1,0,0:0:0:0:
448,192,173217,1,4,0:0:0:0:
64,192,173431,1,0,1:0:0:0:
448,192,173859,1,4,0:0:0:0:
192,192,174288,1,0,1:0:0:0:
320,192,174502,1,4,0:0:0:0:
448,192,174931,1,4,0:0:0:0:
64,192,175145,5,0,1:0:0:0:
448,192,175574,5,2,2:0:0:0:
320,192,175574,1,0,0:0:0:0:
192,192,176217,1,2,2:0:0:0:
64,192,176217,1,0,0:0:0:0:
448,192,177502,1,0,0:0:0:0:
320,192,177502,1,2,2:0:0:0:
192,192,177931,1,2,2:0:0:0:
320,192,178145,1,2,2:0:0:0:
448,192,178145,1,0,0:0:0:0:
