osu file format v14

[General]
AudioFilename: audio.mp3
AudioLeadIn: 0
PreviewTime: 167394
Countdown: 0
SampleSet: Soft
StackLeniency: 0.3
Mode: 0
LetterboxInBreaks: 0
WidescreenStoryboard: 1

[Editor]
Bookmarks: 139494,139568
DistanceSpacing: 1.2
BeatDivisor: 4
GridSize: 8
TimelineZoom: 0.6999999

[Metadata]
Title:Snow
TitleUnicode:Snow
Artist:Ricky Montgomery
ArtistUnicode:Ricky Montgomery
Creator:jiebi
Version:Deserted
Source:osu!
Tags:rock fa featured artist yuuya_ke indie the honeysticks alternative english and & gibee games astronic
BeatmapID:2444025
BeatmapSetID:1106176

[Difficulty]
HPDrainRate:5
CircleSize:5
OverallDifficulty:7
ApproachRate:8.2
SliderMultiplier:0.999999999999998
SliderTickRate:1

[Events]
//Background and Video events
0,0,"6.jpg",0,0
//Break Periods
2,227294,231174
2,232094,233374
//Storyboard Layer 0 (Background)
//Storyboard Layer 1 (Fail)
//Storyboard Layer 2 (Pass)
//Storyboard Layer 3 (Foreground)
//Storyboard Layer 4 (Overlay)
//Storyboard Sound Samples

[TimingPoints]
294,400,3,2,1,30,1,0
294,-100,2,2,1,30,0,0
27294,-125,3,2,1,30,0,0
27894,-142.857142857143,3,2,1,30,0,0
29094,-66.6666666666667,3,2,1,40,0,0
31294,-66.6666666666667,3,2,2,40,0,0
31494,-66.6666666666667,3,2,1,40,0,0
33494,-66.6666666666667,3,2,2,40,0,0
33894,-66.6666666666667,3,2,1,40,0,0
36094,-66.6666666666667,3,2,2,40,0,0
36294,-66.6666666666667,3,2,1,40,0,0
38294,-66.6666666666667,3,2,2,40,0,0
38694,-66.6666666666667,3,2,1,40,0,0
40894,-66.6666666666667,3,2,2,40,0,0
41094,-66.6666666666667,3,2,1,40,0,0
43094,-66.6666666666667,3,2,2,40,0,0
43494,-66.6666666666667,3,2,1,40,0,0
45694,-66.6666666666667,3,2,2,40,0,0
45894,-58.8235294117647,3,2,1,50,0,0
47494,-52.6315789473684,3,2,1,50,0,0
47894,-45.4545454545455,3,2,1,50,0,0
48294,-62.5,3,2,1,50,0,0
67494,-50,3,2,1,70,0,1
76994,-50,3,2,1,70,0,0
77094,-50,3,2,1,70,0,1
84594,-50,3,2,1,5,0,1
84694,-50,3,2,1,70,0,1
84994,-50,3,2,1,5,0,1
85094,-50,3,2,1,70,0,1
85394,-50,3,2,1,5,0,1
85494,-47.6190476190476,3,2,1,70,0,0
86694,-100,3,2,1,30,0,0
91094,-100,3,2,1,50,0,0
91494,-55.5555555555556,3,2,1,50,0,0
110694,-62.5,3,2,1,40,0,0
110994,-62.5,3,2,1,5,0,0
111094,-62.5,3,2,1,40,0,0
111394,-62.5,3,2,1,5,0,0
111494,-62.5,3,2,1,40,0,0
111794,-62.5,3,2,1,5,0,0
111894,-62.5,3,2,1,40,0,0
112194,-62.5,3,2,1,5,0,0
112294,-62.5,3,2,1,40,0,0
112594,-62.5,3,2,1,5,0,0
112694,-62.5,3,2,1,40,0,0
112994,-62.5,3,2,1,5,0,0
113094,-62.5,3,2,1,40,0,0
113394,-62.5,3,2,1,5,0,0
113494,-62.5,3,2,1,40,0,0
113794,-62.5,3,2,1,5,0,0
113894,-62.5,3,2,1,40,0,0
114194,-62.5,3,2,1,5,0,0
114294,-62.5,3,2,1,40,0,0
114594,-62.5,3,2,1,5,0,0
114694,-62.5,3,2,1,40,0,0
114994,-62.5,3,2,1,5,0,0
115094,-62.5,3,2,1,40,0,0
115394,-62.5,3,2,1,5,0,0
115494,-62.5,3,2,1,40,0,0
115794,-62.5,3,2,1,5,0,0
115894,-62.5,3,2,1,40,0,0
116194,-62.5,3,2,1,5,0,0
116294,-62.5,3,2,1,40,0,0
116594,-62.5,3,2,1,5,0,0
116694,-62.5,3,2,1,40,0,0
116994,-62.5,3,2,1,5,0,0
117094,-62.5,3,2,1,40,0,0
117394,-62.5,3,2,1,5,0,0
117494,-62.5,3,2,1,40,0,0
117794,-62.5,3,2,1,5,0,0
117894,-62.5,3,2,1,40,0,0
118194,-62.5,3,2,1,5,0,0
118294,-62.5,3,2,1,40,0,0
118594,-62.5,3,2,1,5,0,0
118694,-62.5,3,2,1,40,0,0
118994,-62.5,3,2,1,5,0,0
119094,-62.5,3,2,1,40,0,0
119394,-62.5,3,2,1,5,0,0
119494,-62.5,3,2,1,40,0,0
119994,-62.5,3,2,1,5,0,0
120294,-62.5,3,2,1,40,0,0
120394,-62.5,3,2,1,5,0,0
120694,-62.5,3,2,1,40,0,0
120794,-62.5,3,2,1,5,0,0
121094,-62.5,3,2,1,40,0,0
121194,-62.5,3,2,1,5,0,0
121494,-62.5,3,2,1,40,0,0
121594,-62.5,3,2,1,5,0,0
121894,-62.5,3,2,1,40,0,0
121994,-62.5,3,2,1,5,0,0
122294,-62.5,3,2,1,40,0,0
122394,-62.5,3,2,1,5,0,0
122694,-62.5,3,2,1,40,0,0
122794,-62.5,3,2,1,5,0,0
123094,-62.5,3,2,1,40,0,0
123194,-62.5,3,2,1,5,0,0
123494,-62.5,3,2,1,40,0,0
123594,-62.5,3,2,1,5,0,0
123894,-62.5,3,2,1,40,0,0
123994,-62.5,3,2,1,5,0,0
124094,-62.5,3,2,1,40,0,0
124394,-62.5,3,2,1,5,0,0
124694,-62.5,3,2,1,40,0,0
124794,-62.5,3,2,1,5,0,0
125094,-62.5,3,2,1,40,0,0
125194,-62.5,3,2,1,5,0,0
125494,-62.5,3,2,1,40,0,0
125594,-62.5,3,2,1,5,0,0
125894,-62.5,3,2,1,40,0,0
125994,-62.5,3,2,1,5,0,0
126294,-62.5,3,2,1,40,0,0
126394,-62.5,3,2,1,5,0,0
126694,-62.5,3,2,1,40,0,0
126794,-62.5,3,2,1,5,0,0
127094,-62.5,3,2,1,40,0,0
127194,-62.5,3,2,1,5,0,0
127494,-62.5,3,2,1,50,0,0
129894,-55.5555555555556,3,2,1,50,0,0
147894,-55.5555555555556,3,2,1,60,0,0
148594,-55.5555555555556,3,2,1,5,0,0
148694,-55.5555555555556,3,2,1,60,0,0
149094,-50,3,2,1,70,0,1
157794,-50,3,2,1,5,0,1
157894,-50,3,2,1,70,0,1
158594,-50,3,2,1,70,0,0
158694,-50,3,2,1,70,0,1
166194,-50,3,2,1,5,0,1
166294,-50,3,2,1,70,0,1
166594,-50,3,2,1,5,0,1
166694,-50,3,2,1,70,0,1
166994,-50,3,2,1,5,0,1
167094,-50,3,2,1,70,0,1
167294,-50,3,2,1,70,0,1
168294,-55.5555555555556,3,2,1,50,0,0
169494,-55.5555555555556,3,2,1,50,0,0
169694,-55.5555555555556,3,2,1,50,0,0
172294,-35.7142857142857,3,2,1,50,0,0
172594,-35.7142857142857,3,2,1,5,0,0
172694,-26.3157894736842,3,2,1,50,0,0
172994,-26.3157894736842,3,2,1,5,0,0
173094,-55.5555555555556,3,2,1,50,0,0
185094,-55.5555555555556,3,2,1,60,0,1
185394,-55.5555555555556,3,2,1,5,0,0
185494,-54.054054054054,3,2,1,60,0,1
185794,-55.5555555555556,3,2,1,5,0,0
185894,-52.6315789473684,3,2,1,60,0,1
186194,-55.5555555555556,3,2,1,5,0,0
186294,-51.2820512820513,3,2,1,60,0,1
186594,-55.5555555555556,3,2,1,5,0,0
186694,-50,2,2,1,60,0,1
186994,-55.5555555555556,3,2,1,5,0,0
187094,-45.4545454545455,3,2,1,60,0,1
187294,-45.4545454545455,3,2,1,60,0,1
187394,-55.5555555555556,3,2,1,5,0,0
187494,-55.5555555555556,3,2,1,20,0,0
187694,-50,3,2,1,24,0,0
187894,-45.4545454545455,3,2,1,28,0,0
188094,-41.6666666666667,3,2,1,32,0,0
188294,-38.4615384615385,3,2,1,36,0,0
188494,-35.7142857142857,3,2,1,40,0,0
188694,-52.6315789473684,3,2,1,50,0,1
188794,-52.6315789473684,3,2,1,50,0,0
189894,-52.6315789473684,3,2,1,50,0,0
190094,-52.6315789473684,3,2,1,50,0,0
197094,-52.6315789473684,3,2,1,50,0,0
197394,-52.6315789473684,3,2,1,5,0,0
197494,-52.6315789473684,3,2,1,50,0,0
197694,-52.6315789473684,3,2,2,50,0,0
197894,-52.6315789473684,3,2,1,50,0,0
206694,-52.6315789473684,3,2,1,60,0,0
207894,-50,3,2,1,70,0,1
216594,-50,3,2,1,5,0,1
216694,-50,3,2,1,70,0,1
216894,-50,3,2,2,70,0,1
216994,-50,3,2,1,70,0,1
217294,-50,3,2,2,70,0,1
217394,-50,3,2,2,70,0,0
217494,-50,3,2,1,70,0,1
218694,-50,3,2,1,70,0,1
218894,-50,3,2,1,70,0,1
224994,-50,3,2,1,5,0,1
225094,-50,3,2,1,70,0,1
225394,-50,3,2,1,5,0,1
225494,-50,3,2,1,70,0,1
225794,-50,3,2,1,5,0,1
225894,-66.6666666666667,3,2,1,70,0,0
225994,-50,3,2,1,70,0,0
226294,-50,3,2,1,5,0,0
227094,-133.333333333333,3,2,1,30,0,0
234294,-76.9230769230769,3,2,1,40,0,0
235794,-76.9230769230769,3,2,1,5,0,0
235894,-76.9230769230769,3,2,1,40,0,0
236694,-50,3,2,1,70,0,1
236994,-50,3,2,1,5,0,1
237094,-50,3,2,1,70,0,1
238194,-50,3,2,1,5,0,1
238294,-50,3,2,1,70,0,1
241394,-50,3,2,1,70,0,0
241494,-50,3,2,1,70,0,1
241794,-50,3,2,1,5,0,1
241894,-50,3,2,1,70,0,1
245094,-50,3,2,1,70,0,1
245294,-50,3,2,1,70,0,1
245394,-50,3,2,1,5,0,1
245494,-50,3,2,1,70,0,1
246194,-50,3,2,1,70,0,0
246294,-50,3,2,1,70,0,1
246594,-50,3,2,1,5,0,1
246694,-50,3,2,1,70,0,1
248194,-50,3,2,1,5,0,1
248294,-50,3,2,1,70,0,1
250994,-50,3,2,1,70,0,0
251094,-50,3,2,1,70,0,1
251394,-50,3,2,1,5,0,1
251494,-50,3,2,1,70,0,1
253394,-50,3,2,1,5,0,1
253494,-50,3,2,1,70,0,1
254694,-50,3,2,1,70,0,1
254994,-50,3,2,1,5,0,1
255094,-50,3,2,1,70,0,1
255794,-50,3,2,1,70,0,0
255894,-50,3,2,1,70,0,1
256194,-50,3,2,1,5,0,1
256294,-50,3,2,1,70,0,1
260594,-50,3,2,1,70,0,0
260694,-50,3,2,1,70,0,1
260994,-50,3,2,1,5,0,1
261094,-50,3,2,1,70,0,1
262994,-50,3,2,1,5,0,1
263094,-50,3,2,1,50,0,0
264394,-50,3,2,1,5,0,0
264894,-50,3,2,1,50,0,0
265494,-333.333333333333,3,2,1,50,0,0
265694,-333.333333333333,3,2,1,10,0,0
269094,-333.333333333333,3,2,1,8,0,0
271094,-333.333333333333,3,2,1,7,0,0
271494,-333.333333333333,3,2,1,6,0,0
273894,-333.333333333333,3,2,1,5,0,0

[Colours]
Combo1 : 158,154,148
Combo2 : 119,125,111
Combo3 : 168,169,167
Combo4 : 139,129,122

[HitObjects]
49,235,294,6,0,B|57:209|57:209|50:182,1,49.9999999999999,2|0,0:0|0:0,0:0:0:0:
132,140,694,2,0,B|124:166|124:166|131:193,1,49.9999999999999,0|0,0:0|0:0,0:0:0:0:
201,256,1094,2,0,B|209:230|209:230|202:203,1,49.9999999999999,0|0,0:0|0:0,0:0:0:0:
284,161,1494,2,0,B|276:187|276:187|283:214,1,49.9999999999999,0|2,0:0|0:0,0:0:0:0:
353,277,1894,2,0,B|361:251|361:251|354:224,1,49.9999999999999,0|0,0:0|0:0,0:0:0:0:
436,182,2294,2,0,B|428:208|428:208|435:235,1,49.9999999999999,0|0,0:0|0:0,0:0:0:0:
490,121,2694,6,0,L|432:98,1,49.9999999999999,2|0,0:0|0:0,0:0:0:0:
408,33,3094,2,0,L|352:54,1,49.9999999999999,0|0,0:0|0:0,0:0:0:0:
325,118,3494,2,0,L|270:99,1,49.9999999999999,0|0,0:0|0:0,0:0:0:0:
244,31,3894,2,0,L|188:54,1,49.9999999999999,0|2,0:0|0:0,0:0:0:0:
163,119,4294,2,0,L|108:100,1,49.9999999999999,0|0,0:0|0:0,0:0:0:0:
81,32,4694,2,0,L|21:53,1,49.9999999999999,0|0,0:0|0:0,0:0:0:0:
104,180,5094,6,0,L|93:235,1,49.9999999999999,2|0,0:0|0:0,0:0:0:0:
159,300,5494,2,0,L|170:245,1,49.9999999999999,0|0,0:0|0:0,0:0:0:0:
256,206,5894,2,0,L|245:261,1,49.9999999999999,0|0,0:0|0:0,0:0:0:0:
311,326,6294,2,0,L|322:271,1,49.9999999999999,0|2,0:0|0:0,0:0:0:0:
408,232,6694,2,0,L|397:287,1,49.9999999999999,0|0,0:0|0:0,0:0:0:0:
463,352,7094,2,0,L|474:297,1,49.9999999999999,0|0,0:0|0:0,0:0:0:0:
437,159,7494,6,0,B|411:151|411:151|384:158,1,49.9999999999999,2|0,0:0|0:0,0:0:0:0:
382,80,7894,2,0,B|359:85|359:85|333:77,1,49.9999999999999,0|0,0:0|0:0,0:0:0:0:
316,148,8294,2,0,B|290:140|290:140|263:147,1,49.9999999999999,0|0,0:0|0:0,0:0:0:0:
261,69,8694,2,0,B|238:74|238:74|212:66,1,49.9999999999999,0|2,0:0|0:0,0:0:0:0:
195,137,9094,2,0,B|169:129|169:129|142:136,1,49.9999999999999,0|0,0:0|0:0,0:0:0:0:
140,58,9494,2,0,B|117:63|117:63|91:55,1,49.9999999999999,2|0,0:0|0:0,0:0:0:0:
21,133,9894,5,2,0:0:0:0:
21,133,10094,2,0,L|37:198,1,49.9999999999999,2|0,0:0|0:0,0:0:0:0:
97,228,10494,2,0,L|74:335,1,99.9999999999998,2|0,0:0|0:0,0:0:0:0:
146,363,11094,2,0,L|158:311,1,49.9999999999999,2|0,0:0|0:0,0:0:0:0:
224,274,11494,2,0,B|262:270|262:270|285:274|285:274|329:268,1,99.9999999999998,2|2,0:0|0:0,0:0:0:0:
323,268,12294,5,2,0:0:0:0:
373,210,12494,2,0,L|362:150,1,49.9999999999999,2|0,0:0|0:0,0:0:0:0:
437,127,12894,2,0,L|455:237,1,99.9999999999998,2|0,0:0|0:0,0:0:0:0:
506,281,13494,2,0,L|497:336,1,49.9999999999999,2|0,0:0|0:0,0:0:0:0:
434,374,13894,1,2,0:0:0:0:
434,374,14094,2,0,B|396:370|396:370|373:374|373:374|329:368,1,99.9999999999998,2|0,0:0|0:0,0:0:0:0:
272,322,14694,6,0,L|259:222,1,99.9999999999998,2|2,0:0|0:0,0:0:0:0:
186,193,15294,2,0,L|199:93,1,99.9999999999998,2|0,0:0|0:0,0:0:0:0:
263,54,15894,1,2,0:0:0:0:
263,54,16894,1,2,0:0:0:0:
328,97,17094,6,0,L|381:87,1,49.9999999999999,2|0,0:0|0:0,0:0:0:0:
423,178,17494,2,0,L|368:169,1,49.9999999999999,2|0,0:0|0:0,0:0:0:0:
327,259,17894,2,0,L|384:248,1,49.9999999999999,2|0,0:0|0:0,0:0:0:0:
423,341,18294,2,0,L|370:329,1,49.9999999999999,2|0,0:0|0:0,0:0:0:0:
246,237,18694,2,0,L|196:244,1,49.9999999999999,2|0,0:0|0:0,0:0:0:0:
107,351,19094,2,0,L|157:344,1,49.9999999999999,2|0,0:0|0:0,0:0:0:0:
20,238,19494,6,0,L|12:300,1,49.9999999999999,2|0,0:0|0:0,0:0:0:0:
123,217,19894,2,0,L|132:157,1,49.9999999999999,2|0,0:0|0:0,0:0:0:0:
81,75,20294,1,2,0:0:0:0:
81,75,20494,2,0,L|186:60,1,99.9999999999998,2|0,0:0|0:0,0:0:0:0:
179,60,21494,2,0,L|190:115,1,49.9999999999999,2|0,0:0|0:0,0:0:0:0:
257,152,21894,5,2,0:0:0:0:
257,152,22094,2,0,L|235:256,1,99.9999999999998,2|0,0:0|0:0,0:0:0:0:
230,277,22594,2,0,L|311:266,1,74.9999999999999,2|0,0:0|0:0,0:0:0:0:
361,322,23094,2,0,L|417:331,1,49.9999999999999,2|0,0:0|0:0,0:0:0:0:
487,252,23494,2,0,L|422:240,1,49.9999999999999,2|0,0:0|0:0,0:0:0:0:
390,178,23894,1,0,0:0:0:0:
435,111,24094,1,0,0:0:0:0:
368,43,24294,6,0,B|330:39|330:39|307:43|307:43|263:37,1,99.9999999999998,2|2,0:0|0:0,0:0:0:0:
201,0,24894,2,0,P|226:43|204:90,1,99.9999999999998,2|0,0:0|0:0,0:0:0:0:
168,153,25494,2,0,L|183:212,1,49.9999999999999,2|0,0:0|0:0,0:0:0:0:
243,246,25894,2,0,L|228:308,1,49.9999999999999,2|0,0:0|0:0,0:0:0:0:
235,371,26294,2,0,L|297:357,1,49.9999999999999,2|0,0:0|0:0,0:0:0:0:
358,337,26694,6,0,L|381:235,1,99.9999999999998,2|0,0:0|0:0,0:0:0:0:
322,184,27294,2,0,L|301:57,1,120,2|2,0:0|0:0,0:0:0:0:
302,65,29094,6,0,B|244:57|244:57|210:68|210:68|143:58,1,150.000005722046,2|2,1:0|0:0,0:0:0:0:
245,203,29694,2,0,B|265:172|265:172|256:135,1,75.000002861023,2|0,1:0|0:0,0:0:0:0:
175,158,30094,1,2,1:0:0:0:
209,280,30294,6,0,B|250:294|280:278|280:278|316:258|358:274,1,150.000005722046,8|2,0:0|0:0,0:0:0:0:
424,339,30894,2,0,P|394:269|449:214,1,150.000005722046,2|0,0:0|1:0,0:0:0:0:
472,278,31394,1,0,1:0:0:0:
463,282,31494,6,0,L|304:256,1,150.000005722046,2|2,1:0|0:0,0:0:0:0:
215,189,32094,2,0,B|222:245|222:245|210:276|210:276|216:344,1,150.000005722046,2|0,1:0|1:0,0:0:0:0:
371,182,32694,6,0,L|290:171,1,75.000002861023,10|0,0:0|0:0,0:0:0:0:
342,362,33094,2,0,L|428:349,1,75.000002861023,2|0,0:0|0:0,0:0:0:0:
493,184,33494,1,2,1:0:0:0:
467,211,33594,1,0,1:0:0:0:
431,220,33694,1,0,1:0:0:0:
395,210,33794,1,0,1:0:0:0:
371,182,33894,6,0,P|321:137|241:163,1,150.000005722046,2|2,1:0|0:0,0:0:0:0:
343,27,34494,2,0,B|349:66|349:66|330:101,1,75.000002861023,0|2,1:0|0:0,0:0:0:0:
430,79,34894,1,0,1:0:0:0:
301,207,35094,6,0,P|247:230|174:169,1,150.000005722046,10|0,0:0|0:0,0:0:0:0:
104,87,35694,2,0,B|116:122|116:122|100:162,1,75.000002861023,0|0,0:0|0:0,0:0:0:0:
19,242,36094,1,2,1:0:0:0:
25,278,36194,1,0,1:0:0:0:
31,315,36294,6,0,B|87:311|87:311|125:323|125:323|194:315,1,150.000005722046,2|2,1:0|0:0,0:0:0:0:
270,266,36894,2,0,P|197:276|178:196,1,150.000005722046,2|0,1:0|1:0,0:0:0:0:
245,96,37494,6,0,B|286:82|316:98|316:98|352:118|394:102,1,150.000005722046,10|0,0:0|0:0,0:0:0:0:
358,28,38094,1,0,0:0:0:0:
275,169,38294,1,0,1:0:0:0:
250,197,38394,1,0,1:0:0:0:
244,233,38494,1,0,1:0:0:0:
257,268,38594,1,0,1:0:0:0:
287,290,38694,6,0,B|302:255|302:255|260:250|260:250|234:258|234:258|191:251,1,150.000005722046,2|0,1:0|0:0,0:0:0:0:
80,270,39294,2,0,P|148:235|108:163,1,150.000005722046,2|0,1:0|1:0,0:0:0:0:
41,71,39894,5,8,0:0:0:0:
41,71,40094,2,0,B|30:109|30:109|45:144,1,75.000002861023,0|0,0:0|0:0,0:0:0:0:
183,55,40494,2,0,B|254:49|254:49|290:65|290:65|333:61,1,150.000005722046,0|0,0:0|1:0,0:0:0:0:
449,123,40994,1,0,1:0:0:0:
445,135,41094,6,0,P|392:123|370:208,1,150.000005722046,0|0,1:0|0:0,0:0:0:0:
481,273,41694,2,0,B|440:259|410:275|410:275|374:295|335:280,1,150.000005722046,0|0,1:0|1:0,0:0:0:0:
207,201,42294,6,0,B|220:238|220:238|207:280,1,75.000002861023,8|0,0:0|0:0,0:0:0:0:
280,167,42694,1,2,0:0:0:0:
157,133,42894,1,2,0:0:0:0:
338,99,43094,1,2,1:0:0:0:
367,122,43194,1,0,1:0:0:0:
379,156,43294,1,0,1:0:0:0:
372,193,43394,1,0,1:0:0:0:
347,220,43494,6,0,P|303:280|350:354,1,150.000005722046,2|0,1:0|0:0,0:0:0:0:
508,305,44094,2,0,B|477:268|477:268|365:288,1,150.000005722046,0|0,1:0|1:0,0:0:0:0:
231,308,44694,5,8,0:0:0:0:
231,308,44894,2,0,B|219:269|219:269|230:236,1,75.000002861023,0|0,0:0|0:0,0:0:0:0:
310,179,45294,2,0,P|237:198|185:123,1,150.000005722046,0|0,0:0|1:0,0:0:0:0:
262,45,45794,1,0,1:0:0:0:
273,51,45894,6,0,B|281:95|281:95|256:133,1,85.0000016212464,2|2,1:0|0:0,0:0:0:0:
137,246,46294,1,0,0:0:0:0:
102,91,46494,2,0,B|94:135|94:135|119:173,1,85.0000016212464,2|0,1:0|0:0,0:0:0:0:
231,308,46894,1,0,1:0:0:0:
458,56,47094,6,0,L|326:79,1,127.50000243187,10|0,0:0|0:0,0:0:0:0:
471,44,47494,6,0,L|316:19,1,142.49999619484,10|0,0:0|0:0,0:0:0:0:
474,62,47894,6,0,L|350:208,1,165.000005035401,8|0,0:0|0:0,0:0:0:0:
316,248,48294,6,0,B|259:241|259:241|217:256|217:256|154:244,1,160,6|0,1:2|1:0,0:0:0:0:
210,90,48894,2,0,B|223:130|223:130|209:173,1,79.9999999999999,0|0,1:0|0:0,0:0:0:0:
135,132,49294,1,0,1:0:0:0:
289,57,49494,6,0,B|330:37|367:58|367:58|404:79|443:61,1,160,2|2,1:0|1:0,0:0:0:0:
328,201,50094,2,0,B|315:164|315:164|328:121,1,79.9999999999999,2|0,1:0|0:0,0:0:0:0:
403,161,50494,1,0,1:0:0:0:
342,285,50694,6,0,L|174:253,1,160,0|0,1:0|1:0,0:0:0:0:
41,229,51294,1,0,1:0:0:0:
82,155,51494,1,0,0:0:0:0:
26,93,51694,1,0,1:0:0:0:
187,99,51894,6,0,B|178:154|178:154|193:197|193:197|182:267,1,160,2|2,1:0|1:0,0:0:0:0:
265,144,52494,1,2,0:0:0:0:
339,183,52694,1,0,0:0:0:0:
404,133,52894,1,0,1:0:0:0:
466,305,53094,6,0,B|408:296|408:296|361:309|361:309|291:298,1,160,2|0,1:0|1:0,0:0:0:0:
176,364,53694,2,0,B|217:376|217:376|255:366,1,79.9999999999998,2|0,1:0|0:0,0:0:0:0:
220,287,54094,1,0,1:0:0:0:
86,351,54294,6,0,L|73:178,1,160,2|0,1:0|1:0,0:0:0:0:
263,135,54894,2,0,B|275:173|275:173|264:215,1,79.9999999999998,2|0,0:0|0:0,0:0:0:0:
185,180,55294,1,0,1:0:0:0:
225,59,55494,6,0,B|266:39|303:60|303:60|340:81|379:63,1,160,2|0,1:0|1:0,0:0:0:0:
468,138,56094,1,2,1:0:0:0:
411,198,56294,1,0,0:0:0:0:
450,269,56494,1,0,1:0:0:0:
313,328,56694,6,0,B|255:320|255:320|213:332|213:332|147:321,1,160,0|0,1:0|1:0,0:0:0:0:
56,234,57294,1,0,1:0:0:0:
112,157,57494,1,0,1:0:0:0:
52,64,57694,1,0,0:0:0:0:
285,50,57894,6,0,B|293:106|293:106|277:144|277:144|289:232,1,160,6|0,1:2|0:0,0:0:0:0:
438,160,58494,2,0,B|399:148|399:148|361:159,1,79.9999999999998,0|0,1:0|0:0,0:0:0:0:
399,237,58894,1,2,1:0:0:0:
265,363,59094,6,0,L|285:205,1,160,2|2,1:0|1:0,0:0:0:0:
121,273,59694,2,0,B|159:285|159:285|202:272,1,79.9999999999998,2|0,1:0|0:0,0:0:0:0:
159,199,60094,1,0,0:0:0:0:
301,122,60294,6,0,B|356:116|356:116|399:133|399:133|468:125,1,160,0|0,1:0|1:0,0:0:0:0:
399,237,60894,1,2,0:0:0:0:
441,307,61094,1,0,0:0:0:0:
379,364,61294,1,0,1:0:0:0:
285,205,61494,6,0,P|206:182|151:240,1,160,2|2,1:0|0:0,0:0:0:0:
203,358,62094,1,0,1:0:0:0:
76,299,62294,1,2,1:0:0:0:
227,255,62494,1,0,0:0:0:0:
172,85,62694,6,0,B|136:122|136:122|154:233,1,160,2|0,1:0|1:0,0:0:0:0:
304,273,63294,2,0,B|343:284|343:284|381:269,1,79.9999999999998,0|0,0:0|0:0,0:0:0:0:
341,195,63694,1,0,0:0:0:0:
453,110,63894,6,0,B|393:102|393:102|353:114|353:114|287:103,1,160,2|0,1:0|1:0,0:0:0:0:
170,38,64494,2,0,B|208:23|208:23|246:34,1,79.9999999999998,0|0,0:0|0:0,0:0:0:0:
211,115,64894,1,0,0:0:0:0:
85,22,65094,6,0,B|60:6|60:6|51:53|51:53|61:86|61:86|48:144,1,160,0|2,1:0|1:0,0:0:0:0:
136,246,65694,2,0,B|149:208|149:208|134:170,2,79.9999999999998,2|0|0,1:0|0:0|1:0,0:0:0:0:
46,335,66294,5,8,0:0:0:0:
46,335,66694,1,8,0:0:0:0:
124,380,66894,1,0,1:0:0:0:
249,300,67094,1,0,1:0:0:0:
404,384,67294,1,0,1:0:0:0:
238,189,67494,5,6,3:2:0:0:
309,143,67694,2,0,B|324:175|324:175|307:239,1,99.9999999999998,2|0,0:0|0:0,0:0:0:0:
175,137,68094,2,0,B|160:105|160:105|177:41,1,99.9999999999998,2|0,3:0|0:0,0:0:0:0:
283,11,68494,1,0,3:0:0:0:
394,173,68694,5,10,0:0:0:0:
307,237,68894,2,0,B|275:252|275:252|211:235,1,99.9999999999998,2|0,0:0|0:0,0:0:0:0:
350,67,69294,2,0,B|382:52|382:52|446:69,1,99.9999999999998,2|8,0:0|0:3,0:0:0:0:
364,328,69694,1,0,0:0:0:0:
113,143,69894,6,0,B|186:134|186:134|232:152|232:152|318:141,1,200,2|10,3:0|0:3,0:0:0:0:
166,321,70494,2,0,B|147:273|147:273|166:224,1,99.9999999999998,2|0,3:0|0:0,0:0:0:0:
308,142,70894,1,0,3:0:0:0:
46,47,71094,2,0,B|3:99|3:99|40:237,1,200,10|0,0:0|0:0,0:0:0:0:
70,363,71694,1,2,0:0:0:0:
113,143,71894,1,8,0:3:0:0:
37,227,72094,1,0,3:0:0:0:
247,274,72294,6,0,B|276:297|276:297|296:240|296:240|287:197|287:197|312:129,1,200,6|8,3:2|0:3,0:0:0:0:
465,264,72894,2,0,B|443:283|443:283|355:267,1,99.9999999999998,2|0,3:0|0:0,0:0:0:0:
422,188,73294,1,0,3:0:0:0:
294,42,73494,6,0,L|312:179,1,99.9999999999998,10|0,0:0|0:0,0:0:0:0:
384,81,73894,1,0,0:0:0:0:
209,57,74094,2,0,L|227:194,1,99.9999999999998,2|8,0:0|0:3,0:0:0:0:
276,297,74494,1,0,3:0:0:0:
34,149,74694,6,0,B|79:120|127:151|127:151|174:184|223:155,1,200,2|8,3:0|0:3,0:0:0:0:
79,306,75294,2,0,B|63:280|63:280|81:199,1,99.9999999999998,0|0,3:0|0:0,0:0:0:0:
178,91,75694,1,0,3:0:0:0:
373,270,75894,2,0,B|389:244|389:244|371:163,1,99.9999999999998,10|0,0:0|0:0,0:0:0:0:
253,357,76294,1,8,3:0:0:0:
450,314,76494,1,0,3:0:0:0:
294,221,76694,1,8,0:0:0:0:
384,81,76894,1,8,0:0:0:0:
373,270,77094,5,6,3:2:0:0:
178,91,77294,2,0,B|204:69|204:69|278:81,1,99.9999999999998,2|0,0:0|0:0,0:0:0:0:
294,221,77694,2,0,B|268:243|268:243|194:231,1,99.9999999999998,2|0,3:0|0:0,0:0:0:0:
107,192,78094,1,0,3:0:0:0:
269,79,78294,5,10,0:0:0:0:
373,270,78494,2,0,B|384:301|384:301|348:367,1,99.9999999999998,2|0,0:0|0:0,0:0:0:0:
202,232,78894,2,0,B|190:200|190:200|226:134,1,99.9999999999998,2|8,0:0|0:3,0:0:0:0:
384,81,79294,1,0,3:0:0:0:
112,0,79494,6,0,B|99:62|99:62|123:118|123:118|107:193,1,200,2|10,3:0|0:3,0:0:0:0:
23,353,80094,2,0,B|68:369|68:369|117:353,1,99.9999999999998,2|0,3:0|0:0,0:0:0:0:
202,232,80494,1,0,3:0:0:0:
395,345,80694,2,0,B|366:300|397:252|397:252|430:205|401:156,1,200,10|0,0:0|0:0,0:0:0:0:
465,301,81294,1,2,0:0:0:0:
330,202,81494,1,8,0:3:0:0:
465,105,81694,1,0,3:0:0:0:
395,345,81894,6,0,B|368:361|368:361|346:311|346:311|355:263|355:263|330:200,1,200,6|0,3:2|0:0,0:0:0:0:
87,325,82494,2,0,B|109:344|109:344|197:328,1,99.9999999999998,2|0,3:0|0:0,0:0:0:0:
110,191,82894,1,0,3:0:0:0:
259,62,83094,6,0,P|275:109|260:158,1,99.9999999999998,10|0,0:0|0:0,0:0:0:0:
197,111,83494,1,8,0:3:0:0:
331,307,83694,2,0,P|315:260|330:211,1,99.9999999999998,10|8,0:0|0:3,0:0:0:0:
239,259,84094,1,0,3:0:0:0:
438,375,84294,6,0,B|399:355|365:375|365:375|331:395|295:377,1,150,0|0,3:0|0:0,0:0:0:0:
452,364,84694,6,0,B|417:337|380:351|380:351|343:365|310:341,1,150,2|0,3:0|0:0,0:0:0:0:
467,355,85094,6,0,B|437:322|398:330|398:330|359:337|331:307,1,150,0|0,3:0|0:0,0:0:0:0:
328,213,85494,5,8,0:0:0:0:
328,213,86694,6,0,L|317:158,1,49.9999999999999,2|0,0:0|0:0,0:0:0:0:
252,118,87094,2,0,L|263:63,1,49.9999999999999,0|0,0:0|0:0,0:0:0:0:
199,18,87494,1,0,0:0:0:0:
137,66,87694,1,0,0:0:0:0:
71,29,87894,5,0,0:0:0:0:
71,29,88094,2,0,B|95:58|95:58|75:135,1,99.9999999999998,2|0,0:0|0:0,0:0:0:0:
59,192,88694,2,0,L|116:182,1,49.9999999999999,0|0,0:0|0:0,0:0:0:0:
174,144,89094,6,0,L|231:154,1,49.9999999999999,2|0,0:0|0:0,0:0:0:0:
284,197,89494,2,0,L|354:184,1,49.9999999999999,0|0,0:0|0:0,0:0:0:0:
408,213,89894,1,0,0:0:0:0:
382,286,90094,1,0,0:0:0:0:
437,342,90294,5,2,0:0:0:0:
437,342,90494,2,0,B|402:326|402:326|336:341,1,99.9999999999998,0|0,0:0|3:0,0:0:0:0:
197,377,91094,1,8,0:0:0:0:
275,303,91294,1,0,3:0:0:0:
93,256,91494,6,0,B|82:187|82:187|100:148|100:148|89:79,1,179.999994506836,6|0,3:2|0:0,0:0:0:0:
243,191,92094,2,0,B|204:210|204:210|160:197,1,89.9999972534179,2|0,3:0|0:0,0:0:0:0:
25,133,92494,1,0,3:0:0:0:
182,18,92694,6,0,L|157:212,1,179.999994506836,10|8,0:0|0:3,0:0:0:0:
325,98,93294,2,0,B|282:83|282:83|239:100,1,89.9999972534179,2|8,0:0|0:3,0:0:0:0:
282,174,93694,1,0,0:0:0:0:
476,58,93894,6,0,P|406:119|446:179,1,179.999994506836,2|8,3:0|0:3,0:0:0:0:
497,246,94494,1,2,3:0:0:0:
429,290,94694,1,0,0:0:0:0:
470,121,94894,1,0,3:0:0:0:
334,246,95094,6,0,B|294:273|250:243|250:243|205:212|163:242,1,179.999994506836,10|8,0:0|0:3,0:0:0:0:
206,304,95694,1,2,0:0:0:0:
299,187,95894,1,8,0:3:0:0:
189,114,96094,1,0,3:0:0:0:
336,70,96294,6,0,B|342:136|342:136|324:174|324:174|335:260,1,179.999994506836,6|0,3:2|0:0,0:0:0:0:
133,161,96894,2,0,B|115:119|115:119|131:78,1,89.9999972534179,2|0,3:0|0:0,0:0:0:0:
200,184,97294,1,0,3:0:0:0:
84,240,97494,6,0,B|42:258|42:258|1:242,1,89.9999972534179,10|0,0:0|0:0,0:0:0:0:
133,161,97894,1,8,0:3:0:0:
315,238,98094,2,0,B|357:220|357:220|398:236,1,89.9999972534179,2|8,0:0|0:3,0:0:0:0:
360,305,98494,1,0,0:0:0:0:
259,136,98694,6,0,B|299:109|343:139|343:139|386:169|430:140,1,179.999994506836,2|8,3:0|0:3,0:0:0:0:
201,94,99294,2,0,B|184:136|184:136|202:183,1,89.9999972534179,0|8,3:0|0:3,0:0:0:0:
388,83,99694,1,0,3:0:0:0:
243,5,99894,6,0,B|180:-3|180:-3|134:25|134:25|68:15,1,179.999994506836,10|10,0:0|0:3,0:0:0:0:
16,86,100494,1,10,0:3:0:0:
199,177,100694,1,8,0:0:0:0:
28,357,100894,1,8,0:0:0:0:
298,267,101094,6,0,B|355:244|355:244|334:109,1,179.999994506836,6|10,3:2|0:3,0:0:0:0:
254,324,101694,2,0,P|301:340|342:323,1,89.9999972534179,0|2,3:0|0:0,0:0:0:0:
417,174,102094,1,0,3:0:0:0:
201,3,102294,6,0,B|190:64|190:64|210:110|210:110|198:181,1,179.999994506836,8|0,0:0|0:0,0:0:0:0:
276,49,102894,1,0,0:0:0:0:
125,132,103094,2,0,P|82:147|40:131,1,89.9999972534179,10|2,0:3|0:0,0:0:0:0:
199,345,103494,6,0,B|227:302|199:258|199:258|169:216|202:170,1,179.999994506836,2|10,3:0|0:3,0:0:0:0:
136,302,104094,2,0,P|94:316|46:295,1,89.9999972534179,2|0,3:0|0:0,0:0:0:0:
125,132,104494,1,0,3:0:0:0:
261,215,104694,6,0,P|303:201|351:222,1,89.9999972534179,10|0,0:0|0:0,0:0:0:0:
201,3,105094,1,2,0:0:0:0:
41,132,105294,2,0,B|26:175|26:175|45:219,1,89.9999972534179,2|8,0:0|0:3,0:0:0:0:
88,54,105694,1,0,3:0:0:0:
335,131,105894,6,0,P|384:210|320:271,1,179.999994506836,6|10,3:2|0:3,0:0:0:0:
258,334,106494,1,2,3:0:0:0:
172,283,106694,1,0,0:0:0:0:
89,338,106894,1,0,3:0:0:0:
14,196,107094,6,0,B|70:189|70:189|130:209|130:209|191:199,1,179.999994506836,8|8,0:0|0:3,0:0:0:0:
135,46,107694,2,0,P|121:88|139:133,1,89.9999972534179,2|10,0:0|0:3,0:0:0:0:
272,210,108094,1,0,3:0:0:0:
201,85,108294,6,0,B|257:79|257:79|307:105|307:105|374:94,1,179.999994506836,2|0,3:0|3:0,0:0:0:0:
465,249,108894,2,0,B|422:262|422:262|377:246,1,89.9999972534179,10|8,0:0|0:3,0:0:0:0:
272,210,109294,1,0,3:0:0:0:
393,34,109494,6,0,B|450:56|450:56|424:189,1,179.999994506836,14|0,0:0|3:0,0:0:0:0:
335,313,110094,1,2,0:0:0:0:
120,190,110294,2,0,L|216:153,1,89.9999972534179,8|0,0:0|0:0,0:0:0:0:
367,103,110694,6,0,L|329:221,1,120,0|0,3:0|0:0,0:0:0:0:
293,197,111094,2,0,L|367:103,1,120,0|0,3:0|0:0,0:0:0:0:
367,103,111494,2,0,L|262:169,1,120,0|0,3:0|0:0,0:0:0:0:
249,128,111894,2,0,L|367:103,1,120,0|0,3:0|0:0,0:0:0:0:
367,103,112294,2,0,L|244:86,1,120,0|0,3:0|0:0,0:0:0:0:
260,46,112694,2,0,L|365:102,1,120,0|0,3:0|0:0,0:0:0:0:
145,281,113094,6,0,L|183:163,1,120,0|0,3:0|0:0,0:0:0:0:
218,186,113494,2,0,L|145:281,1,120,0|0,3:0|0:0,0:0:0:0:
145,281,113894,2,0,L|250:214,1,120,0|0,3:0|0:0,0:0:0:0:
262,255,114294,2,0,L|145:281,1,120,0|0,3:0|0:0,0:0:0:0:
145,281,114694,2,0,L|267:297,1,120,0|0,3:0|0:0,0:0:0:0:
252,338,115094,2,0,L|146:281,1,120,0|0,3:0|0:0,0:0:0:0:
367,281,115494,6,0,L|329:163,1,120,0|0,3:0|0:0,0:0:0:0:
293,186,115894,2,0,L|367:281,1,120,0|0,3:0|0:0,0:0:0:0:
367,281,116294,2,0,L|262:214,1,120,0|0,3:0|0:0,0:0:0:0:
249,255,116694,2,0,L|367:281,1,120,0|0,3:0|0:0,0:0:0:0:
367,281,117094,2,0,L|244:297,1,120,0|0,3:0|0:0,0:0:0:0:
260,338,117494,2,0,L|365:281,1,120,0|0,3:0|0:0,0:0:0:0:
145,103,117894,6,0,L|183:221,1,120,0|0,3:0|0:0,0:0:0:0:
218,197,118294,2,0,L|145:103,1,120,0|0,3:0|0:0,0:0:0:0:
145,103,118694,2,0,L|250:169,1,120,0|0,3:0|0:0,0:0:0:0:
262,128,119094,2,0,L|145:103,1,120,0|0,3:0|0:0,0:0:0:0:
80,89,119494,1,0,3:0:0:0:
218,197,119694,1,0,0:0:0:0:
206,16,119894,2,0,L|255:4,1,39.9999999999999,0|0,3:0|0:0,0:0:0:0:
206,16,120294,6,0,L|255:4,1,39.9999999999999,0|0,3:0|0:0,0:0:0:0:
206,16,120694,2,0,L|255:4,1,39.9999999999999,0|0,3:0|0:0,0:0:0:0:
206,16,121094,2,0,L|255:4,1,39.9999999999999,0|0,3:0|0:0,0:0:0:0:
206,16,121494,2,0,L|255:4,1,39.9999999999999,0|0,3:0|0:0,0:0:0:0:
206,16,121894,2,0,L|255:4,1,39.9999999999999,0|0,3:0|0:0,0:0:0:0:
206,16,122294,2,0,L|255:4,1,39.9999999999999,0|0,3:0|0:0,0:0:0:0:
306,368,122694,6,0,L|257:380,1,39.9999999999999,0|0,3:0|0:0,0:0:0:0:
306,368,123094,2,0,L|257:380,1,39.9999999999999,0|0,3:0|0:0,0:0:0:0:
306,368,123494,2,0,L|257:380,1,39.9999999999999,0|0,3:0|0:0,0:0:0:0:
306,368,123894,2,0,L|257:380,1,39.9999999999999,0|0,3:0|0:0,0:0:0:0:
306,368,124294,2,0,L|257:380,1,39.9999999999999,0|0,3:0|0:0,0:0:0:0:
306,368,124694,2,0,L|257:380,1,39.9999999999999,0|0,3:0|0:0,0:0:0:0:
306,47,125094,6,0,L|355:59,1,39.9999999999999,0|0,3:0|0:0,0:0:0:0:
306,47,125494,2,0,L|355:59,1,39.9999999999999,0|0,3:0|0:0,0:0:0:0:
306,47,125894,2,0,L|355:59,1,39.9999999999999,0|0,3:0|0:0,0:0:0:0:
306,47,126294,2,0,L|355:59,1,39.9999999999999,0|0,3:0|0:0,0:0:0:0:
306,47,126694,2,0,L|355:59,1,39.9999999999999,0|0,3:0|0:0,0:0:0:0:
306,47,127094,2,0,L|355:59,1,39.9999999999999,0|0,3:0|0:0,0:0:0:0:
206,337,127494,5,8,0:0:0:0:
206,337,127894,5,8,0:0:0:0:
303,285,128094,1,8,0:0:0:0:
182,226,128294,1,0,3:0:0:0:
311,173,128494,1,8,0:0:0:0:
157,109,128694,5,8,0:0:0:0:
157,109,129094,5,8,0:0:0:0:
326,44,129294,1,0,3:0:0:0:
206,337,129494,1,0,3:0:0:0:
206,337,129894,6,0,B|268:326|268:326|316:352|316:352|377:341,1,179.999994506836,6|0,3:2|0:0,0:0:0:0:
277,167,130494,2,0,B|260:208|260:208|278:252,1,89.9999972534179,0|0,0:0|0:0,0:0:0:0:
356,205,130894,1,0,3:0:0:0:
286,47,131094,6,0,B|158:34|158:34|109:59,1,179.999994506836,10|2,0:0|0:0,0:0:0:0:
62,187,131694,1,2,0:0:0:0:
174,113,131894,1,8,0:3:0:0:
36,36,132094,1,0,0:0:0:0:
139,237,132294,6,0,B|201:230|201:230|251:248|251:248|316:239,1,179.999994506836,0|8,3:0|0:3,0:0:0:0:
429,133,132894,2,0,B|413:176|413:176|431:216,1,89.9999972534179,0|0,3:0|0:0,0:0:0:0:
328,78,133294,1,0,3:0:0:0:
495,0,133494,6,0,B|511:120|511:120|488:182,1,179.999994506836,10|2,0:0|0:0,0:0:0:0:
372,17,134094,1,2,0:0:0:0:
253,92,134294,1,8,0:3:0:0:
161,39,134494,1,0,3:0:0:0:
27,164,134694,6,0,B|137:139|137:139|203:165,1,179.999994506836,6|8,3:2|0:3,0:0:0:0:
128,303,135294,2,0,B|113:260|113:260|127:217,1,89.9999972534179,2|0,3:0|0:0,0:0:0:0:
224,290,135694,1,0,3:0:0:0:
315,172,135894,6,0,B|377:164|377:164|427:184|427:184|489:174,1,179.999994506836,10|0,0:0|0:0,0:0:0:0:
383,88,136494,1,2,0:0:0:0:
468,31,136694,1,8,0:3:0:0:
325,5,136894,1,0,0:0:0:0:
230,127,137094,6,0,B|104:108|104:108|48:129,1,179.999994506836,2|8,3:0|0:3,0:0:0:0:
103,360,137694,2,0,B|116:286|136:335|88:219|91:256|117:179,1,179.999994506836,2|0,3:0|0:0,0:0:0:0:
33,309,138294,5,8,0:0:0:0:
33,309,138694,1,0,3:0:0:0:
179,228,138894,1,0,3:0:0:0:
294,313,139094,1,8,0:0:0:0:
399,256,139294,1,0,3:0:0:0:
465,297,139494,6,0,B|423:192|423:192|443:118,1,179.999994506836,6|8,3:2|0:3,0:0:0:0:
496,48,140094,2,0,B|448:16|400:48|400:48|352:80|304:48,1,179.999994506836,0|2,3:0|3:0,0:0:0:0:
256,40,140594,1,0,0:0:0:0:
256,40,140694,2,0,L|248:136,1,89.9999972534179,10|0,0:0|0:0,0:0:0:0:
244,200,141094,1,2,0:0:0:0:
114,287,141294,2,0,B|82:255|82:255|74:119,1,179.999994506836,2|0,0:0|0:0,0:0:0:0:
181,246,141894,6,0,P|243:279|322:208,1,179.999994506836,0|8,3:0|0:3,0:0:0:0:
352,104,142494,2,0,P|384:64|424:144,1,179.999994506836,2|0,3:0|3:0,0:0:0:0:
327,307,143094,2,0,L|319:211,1,89.9999972534179,10|0,0:0|0:0,0:0:0:0:
174,335,143494,2,0,L|180:245,1,89.9999972534179,10|0,0:3|0:0,0:0:0:0:
358,329,143894,2,0,L|350:233,1,89.9999972534179,2|0,3:0|3:0,0:0:0:0:
148,354,144294,6,0,L|164:162,1,179.999994506836,6|0,3:2|0:0,0:0:0:0:
112,123,144894,2,0,P|205:115|234:184,1,179.999994506836,0|0,3:0|3:0,0:0:0:0:
85,192,145494,2,0,L|77:8,1,179.999994506836,10|0,0:0|0:0,0:0:0:0:
152,64,146094,1,0,0:0:0:0:
256,0,146294,1,8,0:3:0:0:
360,80,146494,1,0,0:0:0:0:
496,24,146694,6,0,L|504:120,1,89.9999972534179,8|0,3:3|0:0,0:0:0:0:
448,224,147094,1,10,3:3:0:0:
431,76,147294,1,10,0:0:0:0:
503,113,147494,1,0,0:0:0:0:
378,197,147694,1,8,3:3:0:0:
455,296,147894,1,8,0:0:0:0:
438,150,148094,1,4,3:2:0:0:
400,344,148294,6,0,P|352:368|280:336,1,134.999995880127,8|0,0:0|0:0,0:0:0:0:
262,327,148694,2,0,P|298:364|352:378,1,89.9999972534179,8|0,0:0|3:0,0:0:0:0:
333,143,149094,5,6,3:2:0:0:
210,264,149294,2,0,L|322:256,1,99.9999999999998,2|8,0:0|0:3,0:0:0:0:
283,92,149694,2,0,L|183:99,1,99.9999999999998,2|0,3:0|0:0,0:0:0:0:
139,154,150094,1,0,0:0:0:0:
295,23,150294,1,10,0:0:0:0:
109,91,150494,2,0,P|72:132|74:183,1,99.9999999999998,2|0,0:0|0:0,0:0:0:0:
149,300,150894,2,0,B|197:324|253:300|253:300|301:276|357:300,1,200,2|0,0:0|0:0,0:0:0:0:
464,150,151494,6,0,L|472:254,1,99.9999999999998,2|0,3:0|0:0,0:0:0:0:
342,294,151894,1,10,0:3:0:0:
330,123,152094,2,0,L|338:227,1,99.9999999999998,2|0,3:0|0:0,0:0:0:0:
402,256,152494,1,0,3:0:0:0:
389,83,152694,2,0,P|312:53|264:145,1,200,10|0,0:0|3:0,0:0:0:0:
337,222,153294,1,2,3:0:0:0:
197,335,153494,1,8,0:0:0:0:
64,272,153694,1,0,3:0:0:0:
224,112,153894,6,0,B|264:144|264:144|256:296,1,200,6|8,3:2|0:3,0:0:0:0:
51,202,154494,2,0,B|43:53|43:53|83:21,1,200,2|0,3:0|3:0,0:0:0:0:
232,0,155094,2,0,B|312:8|312:8|344:48|344:48|424:56,1,200,10|0,0:0|0:0,0:0:0:0:
504,96,155694,1,10,0:0:0:0:
392,224,155894,1,8,0:3:0:0:
480,344,156094,1,0,3:0:0:0:
400,152,156294,5,2,3:0:0:0:
408,344,156494,1,8,0:0:0:0:
491,216,156694,2,0,L|379:224,1,99.9999999999998,8|0,0:3|3:2,0:0:0:0:
263,298,157094,2,0,L|362:290,1,99.9999999999998,8|0,3:3|0:0,0:0:0:0:
208,168,157494,2,0,P|208:232|144:280,1,150,10|0,0:0|0:0,0:0:0:0:
118,292,157894,2,0,P|168:284|214:246,1,99.9999999999998,0|0,3:0|0:0,0:0:0:0:
285,182,158194,1,8,0:0:0:0:
285,182,158294,2,0,L|277:30,1,150,8|0,0:0|0:0,0:0:0:0:
275,5,158694,5,6,3:2:0:0:
114,188,158894,2,0,P|170:188|218:156,1,99.9999999999998,2|0,0:0|0:0,0:0:0:0:
418,81,159294,2,0,B|378:49|322:81|322:81|266:113|218:81,1,200,2|0,3:0|3:0,0:0:0:0:
64,24,159894,1,10,0:0:0:0:
208,168,160094,2,0,L|216:272,1,99.9999999999998,2|0,0:0|0:0,0:0:0:0:
64,360,160494,2,0,B|32:328|32:328|48:160,1,200,2|0,0:0|0:0,0:0:0:0:
136,352,161094,6,0,P|176:336|240:352,1,99.9999999999998,2|0,3:0|0:0,0:0:0:0:
376,384,161494,1,10,0:3:0:0:
229,149,161694,2,0,B|221:221|221:221|237:277|237:277|229:357,1,200,2|0,3:0|3:0,0:0:0:0:
488,216,162294,2,0,B|448:184|392:208|392:208|336:232|288:208,1,200,10|8,0:0|0:3,0:0:0:0:
152,184,162894,1,2,3:0:0:0:
221,49,163094,2,0,L|229:153,1,99.9999999999998,8|0,0:3|3:0,0:0:0:0:
56,312,163494,6,0,L|72:112,1,200,6|8,3:2|0:3,0:0:0:0:
80,42,164094,1,2,3:0:0:0:
221,17,164294,1,0,0:0:0:0:
153,111,164494,1,0,3:0:0:0:
237,283,164694,2,0,B|285:315|349:291|349:291|389:315|389:379,1,200,10|8,0:0|0:3,0:0:0:0:
296,228,165294,1,10,0:0:0:0:
188,342,165494,1,8,0:3:0:0:
388,360,165694,1,0,3:0:0:0:
296,152,165894,6,0,B|248:136|248:136|152:176,1,150,4|0,3:2|0:0,0:0:0:0:
170,243,166294,2,0,B|147:197|147:197|51:158,1,150,6|0,3:2|0:0,0:0:0:0:
32,227,166694,2,0,B|48:179|48:179|8:82,1,150,4|0,3:2|0:0,0:0:0:0:
40,24,167094,1,12,0:0:0:0:
40,24,167494,5,2,3:0:0:0:
112,104,167694,1,8,0:0:0:0:
248,24,167894,1,10,0:0:0:0:
352,176,168094,1,8,0:0:0:0:
256,352,168294,2,0,B|120:344|120:344|160:320,1,179.999994506836,6|0,3:2|0:0,0:0:0:0:
312,240,168894,1,0,3:0:0:0:
312,240,169094,2,0,L|320:336,1,89.9999972534179,0|0,0:0|3:0,0:0:0:0:
160,248,169494,1,12,0:0:0:0:
160,248,169894,6,0,P|144:208|160:152,1,89.9999972534179,10|0,0:3|0:0,0:0:0:0:
214,29,170294,2,0,P|254:46|282:97,1,89.9999972534179,10|0,0:3|0:0,0:0:0:0:
238,264,170694,2,0,B|286:288|334:264|334:264|382:240|430:264,1,179.999994506836,10|8,3:3|0:3,0:0:0:0:
384,368,171294,2,0,B|360:336|360:336|368:192,1,179.999994506836,2|0,3:0|3:0,0:0:0:0:
376,32,171894,1,12,0:0:0:0:
376,32,172294,6,0,P|328:88|208:32,1,209.999993591308,10|0,0:0|0:0,0:0:0:0:
193,30,172694,6,0,P|293:108|396:16,1,284.999992389679,10|0,0:0|0:0,0:0:0:0:
406,7,173094,6,0,P|398:53|356:97,1,89.9999972534179,4|0,3:2|0:0,0:0:0:0:
447,192,173494,2,0,P|408:218|348:220,1,89.9999972534179,2|0,0:0|3:0,0:0:0:0:
373,353,173894,2,0,P|327:345|283:303,1,89.9999972534179,10|0,0:3|3:0,0:0:0:0:
200,104,174294,2,0,P|200:184|104:208,1,179.999994506836,10|8,0:0|0:3,0:0:0:0:
152,40,174894,2,0,B|200:16|240:40|240:40|288:64|328:40,1,179.999994506836,2|0,0:0|3:0,0:0:0:0:
488,32,175494,6,0,P|408:0|336:64,1,179.999994506836,2|8,3:0|0:3,0:0:0:0:
416,208,176094,2,0,B|424:72|424:72|400:120,1,179.999994506836,2|0,3:0|3:0,0:0:0:0:
360,256,176694,2,0,P|312:288|192:272,1,179.999994506836,10|0,0:0|3:0,0:0:0:0:
139,233,177294,1,2,3:0:0:0:
192,88,177494,1,8,0:0:0:0:
195,274,177694,1,8,0:0:0:0:
24,328,177894,6,0,L|8:144,1,179.999994506836,6|0,3:2|0:0,0:0:0:0:
29,33,178494,2,0,B|101:41|101:41|141:81|141:81|205:89,1,179.999994506836,2|0,3:0|3:0,0:0:0:0:
320,192,179094,2,0,P|368:184|416:64,1,179.999994506836,10|8,0:0|0:3,0:0:0:0:
384,272,179694,2,0,B|352:240|352:240|344:104,1,179.999994506836,2|0,0:0|3:0,0:0:0:0:
264,256,180294,6,0,P|224:184|136:208,1,179.999994506836,6|0,3:2|0:0,0:0:0:0:
152,352,180894,2,0,B|296:344|296:344|320:304,1,179.999994506836,2|0,3:0|3:0,0:0:0:0:
432,216,181494,2,0,L|416:32,1,179.999994506836,10|8,0:0|3:3,0:0:0:0:
349,176,182094,1,10,0:0:0:0:
254,98,182294,2,0,L|350:106,1,89.9999972534179,8|0,0:3|3:0,0:0:0:0:
112,48,182694,6,0,B|88:96|112:136|112:136|136:176|112:224,1,179.999994506836,6|0,3:2|3:0,0:0:0:0:
40,360,183294,1,8,0:0:0:0:
49,182,183494,1,0,0:0:0:0:
180,247,183694,1,0,3:0:0:0:
254,98,183894,2,0,P|302:82|350:98,1,89.9999972534179,10|0,0:0|0:0,0:0:0:0:
400,269,184294,1,2,3:0:0:0:
384,32,184494,2,0,B|416:64|416:64|408:216,1,179.999994506836,10|0,0:0|3:0,0:0:0:0:
187,381,185094,6,0,L|179:237,1,134.999995880127,4|0,3:2|0:0,0:0:0:0:
200,224,185494,6,0,L|208:368,1,138.74999947071,0|0,3:0|0:0,0:0:0:0:
232,360,185894,2,0,L|224:217,1,142.499996194839,0|0,3:0|0:0,0:0:0:0:
255,354,186294,6,0,L|248:208,1,146.250000557899,4|0,3:2|0:0,0:0:0:0:
272,194,186694,6,0,L|280:344,1,150,0|0,3:0|0:0,0:0:0:0:
303,348,187094,6,0,L|296:184,1,165.0000050354,12|0,0:0|0:0,0:0:0:0:
303,348,188694,6,0,P|399:372|455:300,1,189.999994926452,4|0,3:2|0:0,0:0:0:0:
464,168,189294,2,0,B|440:136|440:136|288:152,1,189.999994926452,0|0,3:0|3:0,0:0:0:0:
115,250,189894,2,0,P|163:250|203:218,1,94.9999974632262,14|0,0:0|0:0,0:0:0:0:
272,80,190294,1,2,0:0:0:0:
136,0,190494,2,0,B|112:48|136:88|136:88|160:136|136:192,1,189.999994926452,2|0,0:0|0:0,0:0:0:0:
40,328,191094,6,0,P|96:360|216:328,1,189.999994926452,0|8,3:0|0:3,0:0:0:0:
304,240,191694,1,0,3:0:0:0:
376,328,191894,2,0,P|320:312|272:328,1,94.9999974632262,8|0,0:3|3:0,0:0:0:0:
455,265,192294,2,0,L|448:360,1,94.9999974632262,10|0,0:0|0:0,0:0:0:0:
384,251,192694,1,10,0:3:0:0:
474,91,192894,1,2,0:0:0:0:
504,168,193094,1,8,0:0:0:0:
320,168,193294,1,8,0:0:0:0:
448,16,193494,6,0,B|400:32|352:16|352:16|296:0|256:16,1,189.999994926452,6|0,3:2|0:0,0:0:0:0:
96,48,194094,2,0,P|160:0|272:48,1,189.999994926452,2|0,3:0|3:0,0:0:0:0:
104,230,194694,2,0,B|80:190|80:190|96:38,1,189.999994926452,10|0,0:0|0:0,0:0:0:0:
248,104,195294,1,2,0:0:0:0:
276,225,195494,2,0,L|172:233,1,94.9999974632262,8|0,0:3|3:0,0:0:0:0:
312,152,195894,6,0,B|464:160|464:160|496:200,1,189.999994926452,2|0,3:0|3:0,0:0:0:0:
326,279,196494,1,10,0:0:0:0:
384,120,196694,1,8,0:3:0:0:
432,232,196894,1,0,3:0:0:0:
320,72,197094,2,0,L|176:80,1,142.499996194839,12|0,0:0|0:0,0:0:0:0:
168,74,197494,2,0,L|234:69,1,47.4999987316131,0|0,3:0|0:0,0:0:0:0:
272,148,197694,2,0,L|224:151,1,47.4999987316131,0|0,1:0|1:0,0:0:0:0:
111,163,197894,1,8,0:0:0:0:
180,3,198094,1,8,0:0:0:0:
48,129,198294,6,0,P|59:212|155:218,1,189.999994926452,6|0,3:2|0:0,0:0:0:0:
184,328,198894,2,0,P|240:304|288:320,1,94.9999974632262,0|8,3:0|0:3,0:0:0:0:
408,360,199294,1,2,3:0:0:0:
337,237,199494,2,0,L|345:333,1,94.9999974632262,10|0,0:0|0:0,0:0:0:0:
464,272,199894,1,10,0:3:0:0:
328,168,200094,2,0,L|232:160,1,94.9999974632262,2|8,0:0|0:3,0:0:0:0:
163,153,200494,1,0,0:0:0:0:
327,14,200694,6,0,P|372:51|289:74,1,189.999994926452,8|8,3:3|0:3,0:0:0:0:
168,16,201294,2,0,P|74:0|26:84,1,189.999994926452,2|0,0:0|3:0,0:0:0:0:
96,216,201894,2,0,L|88:120,1,94.9999974632262,10|0,0:0|0:0,0:0:0:0:
225,254,202294,2,0,L|233:158,1,94.9999974632262,2|0,0:0|0:0,0:0:0:0:
72,232,202694,2,0,L|64:136,1,94.9999974632262,10|0,0:3|3:0,0:0:0:0:
248,264,203094,6,0,L|264:62,1,189.999994926452,6|0,3:2|0:0,0:0:0:0:
160,160,203694,2,0,B|200:184|256:160|256:160|312:144|352:160,1,189.999994926452,0|0,3:0|3:0,0:0:0:0:
360,312,204294,2,0,P|320:224|384:152,1,189.999994926452,10|8,0:0|0:3,0:0:0:0:
480,128,204894,1,0,0:0:0:0:
496,232,205094,2,0,L|392:240,1,94.9999974632262,8|0,0:3|3:0,0:0:0:0:
264,328,205494,6,0,L|160:320,1,94.9999974632262,8|0,0:0|3:0,0:0:0:0:
97,316,205894,1,10,3:3:0:0:
208,184,206094,1,10,0:0:0:0:
169,320,206294,1,8,0:3:0:0:
40,272,206494,1,0,3:0:0:0:
16,128,206694,2,0,P|64:120|112:144,1,94.9999974632262,8|0,0:0|0:0,0:0:0:0:
248,64,207094,2,0,P|201:55|158:73,1,94.9999974632262,0|0,3:0|0:0,0:0:0:0:
136,208,207494,1,8,0:0:0:0:
312,96,207694,1,8,0:0:0:0:
355,330,207894,6,0,P|307:346|259:322,1,99.9999999999998,6|2,3:2|0:0,0:0:0:0:
208,216,208294,1,0,0:0:0:0:
392,64,208494,2,0,L|376:264,1,200,2|0,3:0|3:0,0:0:0:0:
224,144,209094,2,0,P|256:128|320:144,1,99.9999999999998,6|2,3:2|3:0,0:0:0:0:
376,263,209494,1,8,0:3:0:0:
192,328,209694,2,0,L|208:128,1,200,2|0,3:0|3:0,0:0:0:0:
8,24,210294,6,0,L|16:128,1,99.9999999999998,6|0,3:2|0:0,0:0:0:0:
120,288,210694,1,2,0:0:0:0:
280,128,210894,2,0,P|216:56|136:120,1,200,2|0,3:0|3:0,0:0:0:0:
184,328,211494,2,0,B|224:352|280:328|280:328|336:304|384:328,1,200,10|8,0:0|0:3,0:0:0:0:
496,360,212094,1,2,0:0:0:0:
392,192,212294,2,0,P|344:184|288:208,1,99.9999999999998,0|0,0:0|3:0,0:0:0:0:
400,344,212694,6,0,L|408:136,1,200,6|8,3:2|0:3,0:0:0:0:
184,24,213294,2,0,L|200:224,1,200,2|0,3:0|3:0,0:0:0:0:
406,227,213894,2,0,P|398:187|270:195,1,200,10|0,0:0|3:0,0:0:0:0:
207,296,214494,1,10,0:0:0:0:
128,137,214694,1,8,0:3:0:0:
270,192,214894,1,0,3:0:0:0:
80,352,215094,6,0,B|56:328|56:328|64:152,1,200,6|0,3:2|3:0,0:0:0:0:
104,8,215694,1,8,0:0:0:0:
272,120,215894,1,8,0:3:0:0:
136,216,216094,1,0,3:0:0:0:
336,72,216294,2,0,B|360:104|360:104|352:224,1,150,14|0,0:0|0:0,0:0:0:0:
360,224,216694,2,0,L|368:120,1,99.9999999999998,0|0,3:0|1:0,0:0:0:0:
432,96,216994,1,8,0:0:0:0:
432,96,217094,2,0,L|424:40,1,49.9999999999999,8|0,0:0|0:0,0:0:0:0:
419,15,217294,1,0,1:0:0:0:
272,120,217494,5,6,3:2:0:0:
432,264,217694,2,0,L|440:160,1,99.9999999999998,2|0,0:0|0:0,0:0:0:0:
224,368,218094,2,0,L|208:160,1,200,2|0,3:0|3:0,0:0:0:0:
192,16,218694,1,14,0:0:0:0:
136,216,218894,2,0,P|176:224|232:200,1,99.9999999999998,2|0,0:0|0:0,0:0:0:0:
376,16,219294,2,0,B|224:8|224:8|192:48,1,200,2|0,0:0|3:0,0:0:0:0:
64,184,219894,6,0,L|72:288,1,99.9999999999998,2|0,3:0|0:0,0:0:0:0:
184,376,220294,1,10,0:3:0:0:
322,203,220494,2,0,P|274:187|218:211,1,99.9999999999998,2|8,3:0|0:3,0:0:0:0:
176,296,220894,1,0,3:0:0:0:
408,352,221094,6,0,L|392:152,1,200,10|8,0:0|3:3,0:0:0:0:
416,32,221694,1,2,3:0:0:0:
312,120,221894,1,0,3:0:0:0:
168,40,222094,1,8,0:0:0:0:
24,200,222294,2,0,P|48:256|176:288,1,200,6|0,3:2|0:0,0:0:0:0:
322,203,222894,2,0,B|402:179|474:219|474:219|426:243,1,200,2|0,3:0|3:0,0:0:0:0:
193,359,223494,6,0,L|177:151,1,200,10|8,0:0|0:3,0:0:0:0:
304,48,224094,1,10,0:0:0:0:
256,168,224294,1,8,0:3:0:0:
168,40,224494,1,0,3:0:0:0:
216,226,224694,2,0,P|288:232|326:164,1,150,4|0,3:2|0:0,0:0:0:0:
335,168,225094,2,0,P|311:224|223:240,1,150,6|0,3:2|0:0,0:0:0:0:
235,252,225494,2,0,P|304:239|341:170,1,150,4|0,3:2|0:0,0:0:0:0:
347,179,225894,6,0,P|312:242|241:257,1,150,4|0,3:2|0:0,0:0:0:0:
241,257,227094,5,2,0:0:0:0:
241,257,231894,5,2,0:0:0:0:
241,257,234094,5,0,3:0:0:0:
221,328,234294,2,0,P|189:312|171:281,1,64.9999970245361,8|0,0:0|0:0,0:0:0:0:
120,136,234694,1,8,0:0:0:0:
88,200,234894,1,0,3:0:0:0:
224,120,235094,1,0,3:0:0:0:
256,184,235294,1,0,3:0:0:0:
191,55,235494,2,0,P|236:47|287:87,1,97.4999955368042,8|0,0:0|0:0,0:0:0:0:
294,100,235894,5,0,3:0:0:0:
392,144,236094,1,0,3:0:0:0:
424,288,236294,1,0,3:0:0:0:
424,288,236694,6,0,B|400:320|400:320|288:328,1,150,4|0,3:2|0:0,0:0:0:0:
256,320,237094,2,0,L|367:314,1,99.9999999999998,2|0,0:0|3:0,0:0:0:0:
187,207,237494,2,0,L|87:199,1,99.9999999999998,2|0,0:0|3:0,0:0:0:0:
232,75,237894,2,0,B|264:107|264:107|256:227,1,150,8|0,0:0|0:0,0:0:0:0:
264,240,238294,2,0,L|273:132,1,99.9999999999998,2|0,0:0|0:0,0:0:0:0:
160,32,238694,2,0,L|168:144,1,99.9999999999998,10|0,0:3|0:0,0:0:0:0:
336,208,239094,6,0,L|344:104,1,99.9999999999998,0|0,3:0|0:0,0:0:0:0:
194,306,239494,2,0,L|186:202,1,99.9999999999998,10|0,0:3|0:0,0:0:0:0:
384,360,239894,2,0,L|392:256,1,99.9999999999998,10|0,0:3|0:0,0:0:0:0:
408,80,240294,2,0,P|352:88|304:64,1,99.9999999999998,8|0,0:0|0:0,0:0:0:0:
176,16,240694,5,10,0:3:0:0:
328,8,240894,1,0,0:0:0:0:
376,160,241094,1,10,0:0:0:0:
256,240,241294,1,8,0:0:0:0:
112,168,241494,2,0,B|144:184|192:168|192:168|232:152|272:168,1,150,4|0,3:2|0:0,0:0:0:0:
288,175,241894,1,10,0:3:0:0:
104,267,242094,1,0,3:0:0:0:
104,267,242294,2,0,L|112:163,1,99.9999999999998,10|0,0:3|3:0,0:0:0:0:
248,16,242694,2,0,L|256:128,1,99.9999999999998,8|0,0:0|0:0,0:0:0:0:
256,240,243094,5,10,0:3:0:0:
176,144,243294,1,8,0:0:0:0:
232,312,243494,2,0,P|289:308|328:265,1,99.9999999999998,10|0,0:3|3:0,0:0:0:0:
414,110,243894,2,0,P|326:62|254:118,1,200,10|8,3:3|3:3,0:0:0:0:
352,336,244494,2,0,L|336:128,1,200,10|0,0:0|3:0,0:0:0:0:
128,48,245094,6,0,B|104:160|104:160|120:208,1,150,14|0,0:0|0:0,0:0:0:0:
132,221,245494,1,0,3:0:0:0:
255,115,245694,1,2,3:0:0:0:
232,312,245894,1,8,0:0:0:0:
72,256,246094,1,0,0:0:0:0:
295,178,246294,6,0,B|351:154|391:178|391:178|439:202|495:178,1,200,4|2,3:2|0:0,0:0:0:0:
440,112,246894,1,0,3:0:0:0:
372,268,247094,2,0,L|364:164,1,99.9999999999998,2|0,0:0|3:0,0:0:0:0:
264,16,247494,2,0,L|256:120,1,99.9999999999998,8|0,0:0|0:0,0:0:0:0:
171,354,247894,2,0,B|139:330|139:330|131:210,1,150,2|0,0:0|0:0,0:0:0:0:
141,189,248294,2,0,L|148:303,1,99.9999999999998,10|0,0:3|0:0,0:0:0:0:
312,379,248694,6,0,L|320:280,1,99.9999999999998,0|0,3:0|0:0,0:0:0:0:
160,168,249094,2,0,L|168:272,1,99.9999999999998,10|0,0:3|3:0,0:0:0:0:
372,68,249494,2,0,L|364:172,1,99.9999999999998,10|0,0:3|0:0,0:0:0:0:
190,101,249894,2,0,P|136:96|94:133,1,99.9999999999998,8|0,0:0|0:0,0:0:0:0:
248,215,250294,2,0,L|256:111,1,99.9999999999998,10|0,0:3|0:0,0:0:0:0:
72,184,250694,1,10,0:0:0:0:
240,288,250894,1,8,0:0:0:0:
328,120,251094,5,4,3:2:0:0:
328,120,251494,2,0,L|432:112,1,99.9999999999998,10|0,0:3|3:0,0:0:0:0:
339,295,251894,2,0,L|235:287,1,99.9999999999998,10|0,0:3|3:0,0:0:0:0:
72,184,252294,2,0,L|184:176,1,99.9999999999998,8|0,0:0|0:0,0:0:0:0:
320,216,252694,1,10,0:3:0:0:
192,344,252894,1,8,0:0:0:0:
200,92,253094,2,0,B|240:108|240:108|248:220,1,150,10|0,0:3|0:0,0:0:0:0:
240,224,253494,6,0,L|224:24,1,200,2|8,3:0|0:3,0:0:0:0:
400,80,254094,1,10,0:0:0:0:
388,237,254294,1,8,0:3:0:0:
304,136,254494,1,0,3:0:0:0:
256,360,254694,2,0,B|368:352|368:352|384:312,1,150,14|0,0:0|0:0,0:0:0:0:
383,309,255094,2,0,L|278:316,1,99.9999999999998,8|2,0:0|0:0,0:0:0:0:
144,328,255494,2,0,L|152:272,1,49.9999999999999,0|0,3:0|0:0,0:0:0:0:
72,128,255694,2,0,L|116:162,1,49.9999999999999,8|0,0:0|0:0,0:0:0:0:
272,160,255894,5,4,3:2:0:0:
272,160,256294,2,0,P|232:152|176:176,1,99.9999999999998,10|0,0:3|3:0,0:0:0:0:
256,360,256694,2,0,P|304:367|349:346,1,99.9999999999998,2|0,0:0|3:0,0:0:0:0:
488,256,257094,2,0,L|480:152,1,99.9999999999998,8|0,0:0|0:0,0:0:0:0:
352,24,257494,2,0,L|344:128,1,99.9999999999998,10|0,0:3|0:0,0:0:0:0:
248,288,257894,6,0,L|232:88,1,200,10|0,0:3|3:0,0:0:0:0:
232,88,258694,2,0,P|176:96|128:72,1,99.9999999999998,10|0,0:3|3:0,0:0:0:0:
1,155,259094,2,0,P|57:163|105:139,1,99.9999999999998,10|0,0:3|3:0,0:0:0:0:
192,26,259494,1,8,0:0:0:0:
192,26,259894,1,10,0:3:0:0:
169,167,260094,1,8,0:0:0:0:
39,93,260294,1,10,0:3:0:0:
120,218,260494,1,0,3:0:0:0:
346,269,260694,6,0,B|362:229|346:189|346:189|330:157|346:117,1,150,4|0,3:2|0:0,0:0:0:0:
352,96,261094,1,10,3:3:0:0:
280,296,261294,1,8,0:0:0:0:
496,184,261494,2,0,P|464:160|392:168,1,99.9999999999998,10|0,0:3|3:0,0:0:0:0:
335,341,261894,2,0,L|439:333,1,99.9999999999998,8|0,0:0|0:0,0:0:0:0:
405,160,262294,1,10,3:3:0:0:
226,231,262494,1,8,0:0:0:0:
72,120,262694,2,0,B|112:104|144:120|144:120|176:144|224:120,1,150,10|0,0:3|0:0,0:0:0:0:
224,128,263094,6,0,P|174:139|128:120,1,99.9999999999998,4|0,3:2|0:0,0:0:0:0:
130,121,263694,1,0,0:0:0:0:
160,352,264294,2,0,L|152:302,1,49.9999999999999,4|0,3:2|0:0,0:0:0:0:
116,49,264894,1,0,0:0:0:0:
344,336,265494,6,0,B|352:291|344:255|344:255|326:219|344:183|344:183|299:120|370:57|460:111|424:219|344:183|344:183|236:165|281:228|173:210|173:210|110:183|48:228,1,719.999978027343,4|0,3:2|0:0,0:0:0:0:
