osu file format v14

[General]
AudioFilename: audio.mp3
AudioLeadIn: 0
PreviewTime: 167483
Countdown: 0
SampleSet: Soft
StackLeniency: 0.5
Mode: 0
LetterboxInBreaks: 0
WidescreenStoryboard: 0

[Editor]
Bookmarks: 283,29083,48283,67483,91483,110683,129883,149083,168283,188683,207883,227083,246283,265483,275083
DistanceSpacing: 2.2
BeatDivisor: 4
GridSize: 32
TimelineZoom: 1

[Metadata]
Title:Snow
TitleUnicode:Snow
Artist:Ricky Montgomery
ArtistUnicode:Ricky Montgomery
Creator:eiri-
Version:Together
Source:osu!
Tags:Ayyri Trynna Featured Artist FA Mappers' Guild English Rock
BeatmapID:2272128
BeatmapSetID:1086534

[Difficulty]
HPDrainRate:5
CircleSize:5
OverallDifficulty:8.5
ApproachRate:9
SliderMultiplier:1.6
SliderTickRate:1

[Events]
//Background and Video events
0,0,"Snow.jpg",0,0
//Break Periods
//Storyboard Layer 0 (Background)
//Storyboard Layer 1 (Fail)
//Storyboard Layer 2 (Pass)
//Storyboard Layer 3 (Foreground)
//Storyboard Layer 4 (Overlay)
//Storyboard Sound Samples

[TimingPoints]
283,400,3,2,1,50,1,0
283,-200,3,2,1,50,0,0
9483,-200,3,2,1,60,0,0
26683,-200,3,2,1,70,0,0
27283,-200,3,2,1,80,0,0
27883,-200,3,2,1,90,0,0
28483,-200,3,2,1,60,0,0
29083,-133.333333333333,3,2,1,75,0,0
45883,-133.333333333333,3,2,1,90,0,0
48283,-100,3,2,1,85,0,0
67483,-83.3333333333333,3,2,1,100,0,1
85483,-83.3333333333333,3,2,1,100,0,0
86683,-200,3,2,1,60,0,0
90283,-200,3,2,1,65,0,0
91083,-200,3,2,1,70,0,0
91483,-100,3,2,1,80,0,0
110683,-100,3,2,1,85,0,0
127483,-133.333333333333,3,2,1,90,0,0
129883,-100,3,2,1,85,0,0
149083,-83.3333333333333,3,2,1,100,0,1
167083,-83.3333333333333,3,2,1,100,0,0
167483,-83.3333333333333,3,2,1,90,0,0
168283,-90.9090909090909,3,2,1,85,0,0
171883,-90.9090909090909,3,2,1,90,0,0
173083,-90.9090909090909,3,2,1,85,0,0
185083,-90.9090909090909,3,2,1,90,0,0
188683,-90.9090909090909,3,2,1,95,0,0
207883,-83.3333333333333,3,2,1,100,0,1
225883,-83.3333333333333,3,2,1,100,0,0
227083,-200,3,2,1,50,0,0
231883,-200,3,2,1,60,0,0
234083,-200,3,2,1,70,0,0
234283,-100,3,2,1,75,0,0
236683,-83.3333333333333,3,2,1,80,0,0
246283,-83.3333333333333,3,2,1,90,0,0
263083,-83.3333333333333,3,2,1,100,0,0
263683,-83.3333333333333,3,2,1,75,0,0
264283,-83.3333333333333,3,2,1,100,0,0
264883,-83.3333333333333,3,2,1,75,0,0
265483,-83.3333333333333,3,2,1,80,0,0
266683,-83.3333333333333,3,2,1,70,0,0
267883,-83.3333333333333,3,2,1,60,0,0
269083,-83.3333333333333,3,2,1,50,0,0
270283,-83.3333333333333,3,2,1,40,0,0
271483,-83.3333333333333,3,2,1,30,0,0
272683,-83.3333333333333,3,2,1,20,0,0
273883,-83.3333333333333,3,2,1,10,0,0
275083,-83.3333333333333,3,2,1,5,0,0

[Colours]
Combo1 : 236,187,142
Combo2 : 249,155,209
Combo3 : 209,167,248
Combo4 : 245,146,146

[HitObjects]
448,320,283,6,0,L|455:267,1,40,2|0,0:0|0:0,0:0:0:0:
430,296,683,2,0,L|413:245,1,40,2|0,0:0|0:0,0:0:0:0:
403,281,1083,2,0,L|367:239,1,40,2|0,0:0|0:0,0:0:0:0:
372,279,1483,1,2,0:0:0:0:
285,250,1683,2,0,L|234:227,1,40,2|0,0:0|0:0,0:0:0:0:
196,182,2083,2,0,L|145:204,1,40,2|0,0:0|0:0,0:0:0:0:
114,247,2483,2,0,L|63:224,1,40,2|0,0:0|0:0,0:0:0:0:
43,245,2883,1,2,0:0:0:0:
43,245,3083,6,0,L|27:193,1,40,2|0,0:0|0:0,0:0:0:0:
50,165,3483,2,0,L|34:113,1,40,2|0,0:0|0:0,0:0:0:0:
57,85,3883,2,0,L|41:33,1,40,2|0,0:0|0:0,0:0:0:0:
64,5,4283,1,2,0:0:0:0:
147,34,4483,2,0,L|194:23,1,40,2|0,0:0|0:0,0:0:0:0:
255,54,4883,2,0,L|302:65,1,40,2|0,0:0|0:0,0:0:0:0:
350,27,5283,2,0,L|397:16,1,40,2|0,0:0|0:0,0:0:0:0:
421,36,5683,1,2,0:0:0:0:
421,36,5883,6,0,L|413:88,1,40,2|0,0:0|0:0,0:0:0:0:
461,135,6283,1,2,0:0:0:0:
461,135,6483,6,0,L|418:166,1,40,2|0,0:0|0:0,0:0:0:0:
405,230,6883,2,0,L|362:261,1,40,2|0,0:0|0:0,0:0:0:0:
349,325,7283,1,2,0:0:0:0:
349,325,7483,6,0,L|335:274,1,40,2|0,0:0|0:0,0:0:0:0:
297,225,7883,2,0,L|311:174,1,40,2|0,0:0|0:0,0:0:0:0:
349,125,8283,2,0,L|335:74,1,40,2|0,0:0|0:0,0:0:0:0:
327,47,8683,1,2,0:0:0:0:
327,47,8883,6,0,L|276:64,1,40,2|0,0:0|0:0,0:0:0:0:
230,126,9283,2,0,L|179:109,1,40,2|0,0:0|0:0,0:0:0:0:
149,35,9683,1,2,0:0:0:0:
149,35,9883,6,0,L|98:52,1,40,2|0,0:0|0:0,0:0:0:0:
40,25,10283,1,2,0:0:0:0:
40,25,10483,2,0,L|56:116,1,80,2|0,0:0|0:0,0:0:0:0:
99,162,11083,2,0,L|89:216,1,40,2|0,0:0|0:0,0:0:0:0:
125,267,11483,2,0,L|115:321,1,40,2|0,0:0|0:0,0:0:0:0:
151,372,11883,1,2,0:0:0:0:
179,347,12283,5,2,0:0:0:0:
179,347,12483,2,0,L|242:357,1,60,2|0,0:0|0:0,0:0:0:0:
276,331,12883,2,0,L|333:318,1,40,2|0,0:0|0:0,0:0:0:0:
378,362,13283,1,2,0:0:0:0:
378,362,13483,6,0,L|391:269,1,80,2|0,0:0|0:0,0:0:0:0:
435,223,14083,2,0,L|427:165,1,40,2|0,0:0|0:0,0:0:0:0:
414,155,14483,1,2,0:0:0:0:
414,155,14683,2,0,L|424:67,1,80,2|0,0:0|0:0,0:0:0:0:
446,1,15283,2,0,L|366:23,1,80,2|0,0:0|0:0,0:0:0:0:
317,75,15883,1,2,0:0:0:0:
317,75,16083,6,0,L|332:123,1,40,2|0,0:0|0:0,0:0:0:0:
318,154,16483,2,0,L|333:202,1,40,2|0,0:0|0:0,0:0:0:0:
316,238,16883,1,2,0:0:0:0:
316,238,16983,1,2,0:0:0:0:
316,238,17083,6,0,L|273:257,1,40,2|0,0:0|0:0,0:0:0:0:
210,217,17483,2,0,L|123:206,1,80,2|2,0:0|0:0,0:0:0:0:
56,253,18083,1,2,0:0:0:0:
56,253,18283,2,0,L|68:201,1,40,2|0,0:0|0:0,0:0:0:0:
135,141,18683,2,0,L|117:58,1,80,2|2,0:0|0:0,0:0:0:0:
42,24,19283,1,2,0:0:0:0:
42,24,19483,6,0,L|36:73,1,40,2|0,0:0|0:0,0:0:0:0:
105,141,19883,2,0,L|99:190,1,40,2|0,0:0|0:0,0:0:0:0:
168,258,20283,1,2,0:0:0:0:
168,258,20483,2,0,L|162:307,1,40,2|0,0:0|0:0,0:0:0:0:
154,380,20883,6,0,L|208:368,1,40,2|0,0:0|0:0,0:0:0:0:
251,326,21283,1,2,0:0:0:0:
251,326,21483,2,0,L|305:314,1,40,2|0,0:0|0:0,0:0:0:0:
376,354,21883,1,2,0:0:0:0:
376,354,22083,6,0,L|355:262,1,80,2|0,0:0|0:0,0:0:0:0:
332,240,22583,2,0,L|346:178,1,60,2|0,0:0|0:0,0:0:0:0:
396,120,23083,2,0,L|369:71,1,40,2|0,0:0|0:0,0:0:0:0:
372,10,23483,2,0,L|399:59,1,40,2|0,0:0|0:0,0:0:0:0:
391,45,23783,2,0,L|336:39,1,40,2|2,0:0|0:0,0:0:0:0:
224,128,24283,5,2,0:0:0:0:
248,106,24683,1,2,0:0:0:0:
248,106,24883,2,0,L|227:19,1,80,2|0,0:0|0:0,0:0:0:0:
162,78,25483,2,0,L|116:70,1,40,2|0,0:0|0:0,0:0:0:0:
110,137,25883,2,0,L|156:145,1,40,2|0,0:0|0:0,0:0:0:0:
136,208,26283,1,2,0:0:0:0:
143,235,26683,6,0,L|162:319,1,80,2|0,0:0|0:0,0:0:0:0:
188,267,27283,6,0,L|169:351,1,80,2|0,0:0|0:0,0:0:0:0:
215,315,27883,6,0,L|162:383,1,80,2|0,0:0|0:0,0:0:0:0:
166,378,28483,1,2,0:0:0:0:
346,378,28883,1,2,0:0:0:0:
346,378,29083,6,0,L|333:288,1,90.0000034332277,10|0,0:0|0:0,0:0:0:0:
342,265,29483,1,2,0:0:0:0:
432,281,29683,2,0,L|423:221,1,60.0000022888184,10|0,0:0|0:0,0:0:0:0:
331,161,30083,1,10,0:0:0:0:
384,99,30283,6,0,B|348:68|348:68|278:89,1,120.000004577637,2|2,1:2|0:0,0:0:0:0:
199,128,30883,2,0,L|140:115,1,60.0000022888184,2|0,0:0|0:0,0:0:0:0:
19,83,31283,1,10,0:0:0:0:
37,73,31383,1,10,0:0:0:0:
56,62,31483,6,0,L|63:197,1,120.000004577637,2|0,1:2|0:0,0:0:0:0:
72,328,32083,2,0,L|67:268,1,60.0000022888184,10|0,0:0|0:0,0:0:0:0:
136,221,32483,1,10,0:0:0:0:
252,257,32683,6,0,B|211:272|211:272|192:295|192:295|147:307,1,120.000004577637,2|2,1:2|0:0,0:0:0:0:
266,339,33283,1,0,0:0:0:0:
338,277,33483,2,0,B|331:217,1,60.0000022888184,10|8,0:0|0:0,0:0:0:0:
425,295,33883,6,0,L|409:175,1,120.000004577637,2|2,1:2|0:0,0:0:0:0:
397,55,34483,1,8,0:0:0:0:
330,118,34683,2,0,L|266:124,1,60.0000022888184,2|8,0:0|0:0,0:0:0:0:
413,34,35083,6,0,B|505:32|505:32|485:52,1,120.000004577637,2|0,1:2|0:0,0:0:0:0:
256,66,36083,5,10,0:0:0:0:
256,66,36183,1,10,0:0:0:0:
256,66,36283,2,0,L|178:77,1,60.0000022888184,2|0,1:2|0:0,0:0:0:0:
52,47,36683,1,2,0:0:0:0:
132,0,36883,2,0,L|119:119,1,120.000004577637,10|8,0:0|0:0,0:0:0:0:
202,230,37483,6,0,L|192:170,1,60.0000022888184,2|0,1:2|0:0,0:0:0:0:
126,271,37883,2,0,L|116:211,1,60.0000022888184,10|0,0:0|0:0,0:0:0:0:
238,299,38283,2,0,L|228:239,1,60.0000022888184,10|10,0:0|0:0,0:0:0:0:
295,195,38583,1,10,0:0:0:0:
295,195,38683,6,0,L|313:313,1,120.000004577637,2|0,1:2|0:0,0:0:0:0:
443,286,39283,2,0,B|397:297|397:297|382:320|382:320|338:330,1,120.000004577637,10|8,0:0|0:0,0:0:0:0:
451,367,39883,1,2,1:2:0:0:
410,150,40883,5,10,0:0:0:0:
410,150,40983,1,10,0:0:0:0:
410,150,41083,2,0,L|414:30,1,120.000004577637,2|0,1:2|0:0,0:0:0:0:
269,44,41683,2,0,B|312:53|312:53|328:74|328:74|375:89,1,120.000004577637,10|8,0:0|0:0,0:0:0:0:
261,126,42283,6,0,L|189:150,1,60.0000022888184,2|0,1:2|0:0,0:0:0:0:
251,213,42683,1,2,0:0:0:0:
149,209,42883,1,2,0:0:0:0:
157,85,43083,2,0,L|164:9,1,60.0000022888184,10|8,0:0|0:0,0:0:0:0:
141,8,43383,1,8,0:0:0:0:
141,8,43483,6,0,B|81:3|81:3|25:28,1,120.000004577637,2|0,1:2|0:0,0:0:0:0:
79,173,44083,2,0,L|83:113,1,60.0000022888184,10|0,0:0|0:0,0:0:0:0:
6,140,44483,1,10,0:0:0:0:
77,256,44683,6,0,B|123:246|123:246|144:229|144:229|189:220,1,120.000004577637,2|2,1:2|0:0,0:0:0:0:
355,279,45483,1,2,0:0:0:0:
369,198,45683,1,8,0:0:0:0:
369,198,45783,1,8,0:0:0:0:
369,198,45883,5,2,1:2:0:0:
436,248,46083,1,2,0:0:0:0:
282,230,46483,1,10,0:0:0:0:
381,112,46883,1,10,0:0:0:0:
381,112,47083,6,0,L|371:171,1,60.0000022888184,2|0,1:2|0:0,0:0:0:0:
282,230,47483,1,2,1:2:0:0:
218,170,47683,1,2,0:0:0:0:
244,310,47883,2,0,L|256:374,1,60.0000022888184,2|0,1:2|0:0,0:0:0:0:
222,197,48283,6,0,B|168:183|168:183|134:290,1,160,14|8,0:0|0:0,0:0:0:0:
116,370,48883,2,0,P|160:317|154:280,1,80,10|8,0:0|0:0,0:0:0:0:
18,262,49283,1,10,0:0:0:0:
18,262,49483,6,0,P|30:224|62:201,1,80,2|0,1:2|0:0,0:0:0:0:
146,112,49883,1,10,0:0:0:0:
146,112,50083,2,0,P|183:124|206:156,1,80,10|8,0:0|0:0,0:0:0:0:
42,123,50483,1,10,0:0:0:0:
42,123,50683,6,0,L|59:-8,1,120,2|0,1:2|0:0,0:0:0:0:
57,3,51083,1,10,0:0:0:0:
156,67,51283,2,0,L|247:52,1,80,10|8,0:0|0:0,0:0:0:0:
362,36,51683,1,10,0:0:0:0:
362,36,51883,6,0,B|335:3|335:3|317:128,1,160,2|10,1:2|0:0,0:0:0:0:
298,248,52483,2,0,L|404:222,1,80,10|8,0:0|0:0,0:0:0:0:
247,194,52883,1,10,0:0:0:0:
475,166,53083,6,0,P|443:116|339:142,1,160,2|8,1:2|0:0,0:0:0:0:
507,157,53683,2,0,P|480:105|451:82,1,80,10|8,0:0|0:0,0:0:0:0:
375,228,54083,1,10,0:0:0:0:
383,202,54283,6,0,L|346:73,1,120,2|0,1:2|0:0,0:0:0:0:
349,86,54683,1,10,0:0:0:0:
274,145,54883,2,0,L|173:133,1,80,10|8,0:0|0:0,0:0:0:0:
121,244,55283,1,10,0:0:0:0:
24,126,55483,6,0,L|193:106,1,160,2|8,1:2|0:0,0:0:0:0:
130,229,56083,2,0,L|146:343,2,80,10|8|10,0:0|0:0|0:0,0:0:0:0:
115,69,56683,5,2,1:2:0:0:
115,69,57083,1,10,0:0:0:0:
104,144,57283,1,10,0:0:0:0:
149,64,57483,1,10,0:0:0:0:
86,158,57683,1,10,0:0:0:0:
238,55,57883,6,0,L|269:246,1,160,14|8,0:0|0:0,0:0:0:0:
353,294,58483,2,0,P|330:254|276:234,1,80,10|8,0:0|0:0,0:0:0:0:
182,320,58883,1,10,0:0:0:0:
182,320,58983,1,10,0:0:0:0:
182,320,59083,6,0,L|94:338,1,80,2|0,1:2|0:0,0:0:0:0:
32,256,59483,1,10,0:0:0:0:
103,175,59683,2,0,L|182:192,1,80,10|10,0:0|0:0,0:0:0:0:
330,131,60083,1,10,0:0:0:0:
320,160,60283,6,0,P|302:90|315:-4,1,160,2|8,1:2|0:0,0:0:0:0:
297,34,60883,2,0,P|250:65|207:77,1,80,10|10,0:0|0:0,0:0:0:0:
156,55,61283,1,10,0:0:0:0:
57,167,61483,6,0,L|70:279,1,80,2|0,1:2|0:0,0:0:0:0:
150,90,61883,2,0,L|137:202,1,80,10|8,0:0|0:0,0:0:0:0:
57,13,62283,1,10,0:0:0:0:
66,92,62483,1,10,0:0:0:0:
256,44,62683,6,0,B|307:55|307:55|323:93|323:93|400:118,1,160,2|8,1:2|0:0,0:0:0:0:
508,94,63283,2,0,L|484:5,1,80,10|8,0:0|0:0,0:0:0:0:
382,149,63683,1,10,0:0:0:0:
382,149,63883,6,0,L|339:307,1,160,2|8,1:2|0:0,0:0:0:0:
313,371,64483,1,10,0:0:0:0:
205,324,64683,1,8,0:0:0:0:
368,295,64883,1,10,0:0:0:0:
179,341,65083,6,0,B|202:253|202:253|221:297,1,120,2|0,1:2|0:0,0:0:0:0:
213,279,65483,1,10,0:0:0:0:
64,306,65683,2,0,L|84:398,1,80,2|8,1:2|0:0,0:0:0:0:
114,251,66083,1,8,0:0:0:0:
368,295,66283,5,2,1:2:0:0:
368,295,66683,1,2,1:2:0:0:
375,308,66883,1,2,1:2:0:0:
371,323,67083,1,10,0:0:0:0:
377,348,67283,1,10,0:0:0:0:
368,374,67483,5,14,0:0:0:0:
293,224,67683,2,0,P|247:236|224:277,1,95.9999970703126,2|0,0:0|0:0,0:0:0:0:
258,124,68083,2,0,B|373:98|335:175|440:155,1,191.999994140625,10|8,0:0|0:0,0:0:0:0:
412,71,68683,5,2,1:2:0:0:
244,141,68883,2,0,P|193:140|149:126,1,95.9999970703126,2|0,0:0|0:0,0:0:0:0:
63,38,69283,2,0,P|128:34|140:99,1,143.999995605469,10|0,0:0|0:0,0:0:0:0:
150,127,69683,1,10,0:0:0:0:
107,235,69883,6,0,P|121:279|124:329,1,95.9999970703126,10|0,0:0|0:0,0:0:0:0:
24,191,70283,1,10,0:0:0:0:
167,274,70483,2,0,P|237:281|300:248,1,143.999995605469,10|0,0:0|0:0,0:0:0:0:
311,227,70883,1,10,0:0:0:0:
445,224,71083,6,0,P|447:304|373:271,1,191.999994140625,2|0,1:2|0:0,0:0:0:0:
416,58,71683,2,0,P|434:127|431:198,1,143.999995605469,10|0,0:0|0:0,0:0:0:0:
445,224,72083,1,10,0:0:0:0:
331,177,72283,6,0,P|258:146|324:104,1,191.999994140625,14|0,0:0|0:0,0:0:0:0:
273,261,72883,2,0,P|229:245|197:209,1,95.9999970703126,10|0,0:0|0:0,0:0:0:0:
185,125,73283,1,10,0:0:0:0:
115,8,73483,6,0,P|192:46|157:126,1,191.999994140625,2|0,1:2|0:0,0:0:0:0:
45,275,74083,2,0,P|27:230|34:183,1,95.9999970703126,10|0,0:0|0:0,0:0:0:0:
116,218,74483,1,10,0:0:0:0:
44,364,74683,6,0,P|132:332|225:353,1,191.999994140625,10|0,0:0|0:0,0:0:0:0:
355,295,75283,2,0,P|339:257|311:287,1,95.9999970703126,10|0,0:0|0:0,0:0:0:0:
315,362,75683,1,10,0:0:0:0:
429,283,75883,6,0,P|396:197|306:182,1,191.999994140625,2|8,1:2|0:0,0:0:0:0:
150,124,76483,1,10,0:0:0:0:
215,73,76683,1,2,1:2:0:0:
230,156,76883,1,2,1:2:0:0:
157,2,77083,5,14,0:0:0:0:
299,48,77283,2,0,P|346:47|393:29,1,95.9999970703126,2|0,0:0|0:0,0:0:0:0:
479,196,77683,2,0,P|465:129|398:118,1,143.999995605469,10|0,0:0|0:0,0:0:0:0:
376,131,78083,1,8,0:0:0:0:
448,271,78283,5,2,1:2:0:0:
370,327,78483,2,0,P|322:344|275:343,1,95.9999970703126,2|0,0:0|0:0,0:0:0:0:
302,176,78883,2,0,P|331:251|249:248,1,191.999994140625,10|10,0:0|0:0,0:0:0:0:
186,88,79483,6,0,P|215:124|213:171,1,95.9999970703126,10|0,0:0|0:0,0:0:0:0:
131,156,79883,1,10,0:0:0:0:
101,295,80083,2,0,B|203:274|174:364|278:351,1,191.999994140625,10|10,0:0|0:0,0:0:0:0:
86,317,80683,6,0,P|60:279|72:234,1,95.9999970703126,2|0,1:2|0:0,0:0:0:0:
131,156,81083,1,8,0:0:0:0:
86,17,81283,2,0,P|88:93|105:159,1,143.999995605469,10|0,0:0|0:0,0:0:0:0:
131,156,81683,1,10,0:0:0:0:
225,77,81883,6,0,B|339:61|286:140|399:132,1,191.999994140625,14|0,0:0|0:0,0:0:0:0:
472,86,82483,2,0,P|475:22|411:24,1,143.999995605469,10|0,0:0|0:0,0:0:0:0:
396,41,82883,1,10,0:0:0:0:
386,154,83083,6,0,P|386:225|408:296,1,143.999995605469,2|0,1:2|0:0,0:0:0:0:
426,312,83483,1,10,0:0:0:0:
288,260,83683,2,0,P|249:293|330:293,1,191.999994140625,2|10,1:2|0:0,0:0:0:0:
254,126,84283,5,10,0:0:0:0:
107,64,84683,1,10,0:0:0:0:
45,211,85083,1,10,0:0:0:0:
192,273,85483,1,6,1:2:0:0:
152,163,86683,5,2,0:0:0:0:
152,163,86883,1,2,0:0:0:0:
152,163,87083,2,0,L|191:155,1,40,2|0,0:0|0:0,0:0:0:0:
261,187,87483,2,0,L|300:179,1,40,2|0,0:0|0:0,0:0:0:0:
349,124,87883,1,2,0:0:0:0:
300,53,88083,6,0,L|274:7,1,40,2|0,0:0|0:0,0:0:0:0:
352,39,88483,2,0,L|352:-13,1,40,2|0,0:0|0:0,0:0:0:0:
399,62,88883,1,2,0:0:0:0:
444,172,89083,6,0,L|435:211,1,40,2|0,0:0|0:0,0:0:0:0:
474,271,89483,2,0,L|465:310,1,40,2|0,0:0|0:0,0:0:0:0:
405,345,89883,2,0,L|363:334,1,40,2|0,0:0|0:0,0:0:0:0:
323,278,90283,6,0,L|194:293,1,120,2|8,0:0|0:0,0:0:0:0:
148,231,91083,1,2,1:2:0:0:
160,357,91283,1,10,0:0:0:0:
148,200,91483,6,0,B|190:155|190:155|301:188,1,160,14|0,0:0|0:0,0:0:0:0:
355,138,92083,2,0,L|243:169,1,80,10|0,0:0|0:0,0:0:0:0:
218,94,92483,1,10,0:0:0:0:
148,200,92683,6,0,L|36:169,1,80,2|0,1:2|0:0,0:0:0:0:
218,94,93083,1,10,0:0:0:0:
277,159,93283,2,0,L|355:138,1,80,10|0,0:0|0:0,0:0:0:0:
500,118,93683,1,10,0:0:0:0:
500,118,93783,1,10,0:0:0:0:
500,118,93883,6,0,B|467:80|467:80|440:208,1,160,10|0,0:0|0:0,0:0:0:0:
417,320,94483,2,0,L|397:237,1,80,10|0,0:0|0:0,0:0:0:0:
315,366,94883,1,10,0:0:0:0:
195,267,95083,6,0,L|235:101,1,160,2|0,1:2|0:0,0:0:0:0:
273,239,95683,2,0,L|253:322,1,80,10|0,0:0|0:0,0:0:0:0:
178,254,96083,1,10,0:0:0:0:
401,209,96283,6,0,B|511:227|511:227|447:250,1,160,14|0,0:0|0:0,0:0:0:0:
353,134,96883,2,0,L|388:29,1,80,10|0,0:0|0:0,0:0:0:0:
339,173,97283,1,10,0:0:0:0:
392,19,97483,6,0,B|282:39|282:39|234:3,1,160,2|0,1:2|0:0,0:0:0:0:
160,128,98083,2,0,L|264:93,1,80,10|0,0:0|0:0,0:0:0:0:
91,35,98483,1,10,0:0:0:0:
91,35,98583,1,10,0:0:0:0:
91,35,98683,6,0,B|127:67|127:67|97:193,1,160,10|0,0:0|0:0,0:0:0:0:
64,284,99283,1,10,0:0:0:0:
95,204,99483,1,0,0:0:0:0:
113,352,99683,1,10,0:0:0:0:
145,275,99883,6,0,L|63:301,1,80,2|0,1:2|0:0,0:0:0:0:
224,352,100283,1,10,0:0:0:0:
224,352,100483,2,0,L|306:378,1,80,10|2,0:0|1:2,0:0:0:0:
253,242,100883,1,2,1:2:0:0:
440,213,101083,6,0,B|468:170|468:170|442:44,1,160,14|0,0:0|0:0,0:0:0:0:
312,29,101683,1,10,0:0:0:0:
437,75,101883,1,0,0:0:0:0:
256,128,102083,1,10,0:0:0:0:
424,0,102283,6,0,L|400:161,1,160,2|0,1:2|0:0,0:0:0:0:
375,316,102883,1,10,0:0:0:0:
244,246,103083,1,0,0:0:0:0:
308,202,103283,1,10,0:0:0:0:
450,235,103483,6,0,L|425:95,1,120,10|0,0:0|0:0,0:0:0:0:
428,116,103883,1,10,0:0:0:0:
415,227,104083,2,0,L|400:319,2,80,10|0|10,0:0|0:0|0:0,0:0:0:0:
439,81,104683,6,0,L|350:113,1,80,2|0,1:2|0:0,0:0:0:0:
277,223,105083,2,0,L|188:191,1,80,10|8,0:0|0:0,0:0:0:0:
149,72,105483,1,10,0:0:0:0:
250,106,105683,1,10,0:0:0:0:
63,194,105883,6,0,L|90:359,1,160,14|0,0:0|0:0,0:0:0:0:
117,288,106483,2,0,L|20:253,1,80,10|0,0:0|0:0,0:0:0:0:
177,188,106883,1,10,0:0:0:0:
224,352,107083,5,2,1:2:0:0:
224,352,107483,2,0,L|270:365,1,40,10|0,0:0|0:0,0:0:0:0:
300,336,107683,2,0,L|416:315,1,80,10|8,0:0|0:0,0:0:0:0:
442,246,108083,1,10,0:0:0:0:
349,139,108283,6,0,B|394:101|394:101|507:141,1,160,10|8,0:0|0:0,0:0:0:0:
322,255,108883,1,2,1:2:0:0:
374,170,109083,1,0,0:0:0:0:
425,225,109283,1,10,0:0:0:0:
432,23,109483,6,0,L|252:63,1,160,2|8,1:2|0:0,0:0:0:0:
114,24,110083,1,10,0:0:0:0:
149,200,110283,1,2,1:2:0:0:
117,42,110483,1,10,0:0:0:0:
131,112,110683,5,10,0:0:0:0:
233,228,111083,1,10,0:0:0:0:
89,262,111483,1,10,0:0:0:0:
149,200,111883,5,10,0:0:0:0:
149,200,112283,1,10,0:0:0:0:
149,200,112683,1,10,0:0:0:0:
243,323,113083,6,0,L|340:306,1,80,10|0,0:0|0:0,0:0:0:0:
396,337,113483,1,10,0:0:0:0:
291,227,113883,1,10,0:0:0:0:
472,165,114283,5,10,0:0:0:0:
405,234,114683,1,10,0:0:0:0:
378,143,115083,1,10,0:0:0:0:
453,31,115483,5,10,0:0:0:0:
306,61,115883,1,10,0:0:0:0:
159,91,116283,1,10,0:0:0:0:
261,216,116683,6,0,L|241:138,1,80,10|0,0:0|0:0,0:0:0:0:
159,91,117083,1,10,0:0:0:0:
214,298,117483,1,10,0:0:0:0:
80,241,117883,5,10,0:0:0:0:
99,227,118283,1,10,0:0:0:0:
116,212,118683,1,10,0:0:0:0:
7,298,119083,1,10,0:0:0:0:
42,113,119483,5,10,0:0:0:0:
80,123,119683,1,2,0:0:0:0:
95,85,119883,1,10,0:0:0:0:
51,73,120083,1,2,0:0:0:0:
67,97,120283,5,10,0:0:0:0:
207,79,120683,2,0,L|291:68,1,80,10|0,0:0|0:0,0:0:0:0:
363,57,121083,1,10,0:0:0:0:
312,222,121483,5,10,0:0:0:0:
376,172,121883,1,10,0:0:0:0:
393,256,122283,1,10,0:0:0:0:
328,311,122683,5,10,0:0:0:0:
256,194,123083,1,10,0:0:0:0:
184,311,123483,1,10,0:0:0:0:
256,361,123883,5,10,0:0:0:0:
350,200,124283,1,10,0:0:0:0:
161,201,124683,1,10,0:0:0:0:
257,133,125083,6,0,L|256:53,1,80,10|0,0:0|0:0,0:0:0:0:
315,4,125483,1,10,0:0:0:0:
176,43,125883,1,10,0:0:0:0:
385,134,126283,5,10,0:0:0:0:
458,185,126683,1,10,0:0:0:0:
391,249,127083,1,10,0:0:0:0:
321,193,127483,5,10,0:0:0:0:
171,313,127883,1,2,1:2:0:0:
147,207,128083,1,2,1:2:0:0:
83,278,128283,2,0,L|14:295,1,60.0000022888184,10|2,0:0|1:2,0:0:0:0:
157,185,128683,6,0,B|247:172|247:172|219:148,1,120.000004577637,2|2,1:2|1:2,0:0:0:0:
162,101,129283,1,10,0:0:0:0:
250,14,129483,2,0,L|239:73,1,60.0000022888184,2|0,1:2|0:0,0:0:0:0:
200,280,129883,6,0,P|271:243|268:154,1,160,14|8,0:0|0:0,0:0:0:0:
91,212,130483,2,0,B|79:261|79:261|47:275|47:275|24:365,1,160,10|8,0:0|0:0,0:0:0:0:
0,182,131083,6,0,P|36:122|74:101,1,80,2|0,1:2|0:0,0:0:0:0:
159,41,131483,1,10,0:0:0:0:
159,41,131683,2,0,P|218:77|239:115,1,80,10|0,0:0|0:0,0:0:0:0:
275,207,132083,1,10,0:0:0:0:
480,128,132283,6,0,B|465:74|465:74|351:84,1,160,10|8,0:0|0:0,0:0:0:0:
267,224,132883,1,10,0:0:0:0:
352,115,133083,1,10,0:0:0:0:
352,115,133283,1,10,0:0:0:0:
410,299,133483,6,0,P|488:248|474:165,1,160,2|10,1:2|0:0,0:0:0:0:
301,276,134083,2,0,P|355:322|388:327,1,80,10|0,0:0|0:0,0:0:0:0:
368,144,134483,1,10,0:0:0:0:
368,144,134683,6,0,B|319:138|285:152|285:152|311:114|309:74,1,160,14|8,0:0|0:0,0:0:0:0:
181,39,135283,2,0,P|196:80|198:129,1,80,10|0,0:0|0:0,0:0:0:0:
24,107,135683,1,10,0:0:0:0:
24,107,135883,6,0,P|51:67|111:134,1,160,2|8,1:2|0:0,0:0:0:0:
77,266,136483,2,0,L|47:169,1,80,10|0,0:0|0:0,0:0:0:0:
209,234,136883,1,10,0:0:0:0:
245,72,137083,6,0,B|131:88|131:88|199:114,1,160,10|8,0:0|0:0,0:0:0:0:
337,138,137683,2,0,L|320:42,1,80,10|0,0:0|0:0,0:0:0:0:
343,168,138083,1,10,0:0:0:0:
383,0,138283,5,2,1:2:0:0:
383,0,138683,1,10,0:0:0:0:
337,138,138883,1,10,0:0:0:0:
112,72,139083,1,2,1:2:0:0:
227,56,139283,1,10,0:0:0:0:
184,228,139483,6,0,B|104:250|101:177|-5:231,1,160,14|8,0:0|0:0,0:0:0:0:
80,373,140083,2,0,L|67:295,1,80,10|0,0:0|0:0,0:0:0:0:
86,133,140483,1,10,0:0:0:0:
86,133,140583,1,10,0:0:0:0:
86,133,140683,6,0,B|127:105|187:107|187:107|143:93|139:54,1,160,2|8,1:2|0:0,0:0:0:0:
256,0,141283,2,0,L|250:93,1,80,10|0,0:0|0:0,0:0:0:0:
324,147,141683,1,10,0:0:0:0:
229,245,141883,6,0,B|341:200|341:200|392:241,1,160,10|8,0:0|0:0,0:0:0:0:
305,338,142483,2,0,L|229:315,1,80,10|0,0:0|0:0,0:0:0:0:
367,298,142883,1,10,0:0:0:0:
115,336,143083,6,0,L|142:237,1,80,2|0,1:2|0:0,0:0:0:0:
32,128,143483,2,0,L|59:227,1,80,10|8,0:0|0:0,0:0:0:0:
192,96,143883,1,10,0:0:0:0:
213,18,144083,1,10,0:0:0:0:
250,238,144283,6,0,P|230:176|147:202,1,160,14|8,0:0|0:0,0:0:0:0:
345,188,144883,2,0,L|432:225,1,80,10|0,0:0|0:0,0:0:0:0:
486,248,145283,1,10,0:0:0:0:
509,85,145483,6,0,B|379:99|379:99|409:71,1,160,2|8,1:2|0:0,0:0:0:0:
458,16,146083,1,10,0:0:0:0:
474,168,146283,1,10,0:0:0:0:
490,99,146483,1,10,0:0:0:0:
511,310,146683,6,0,B|471:344|471:344|365:328,1,160,10|8,0:0|0:0,0:0:0:0:
189,367,147283,1,2,1:2:0:0:
224,288,147483,1,10,0:0:0:0:
376,354,147683,1,10,0:0:0:0:
352,128,147883,5,2,1:2:0:0:
331,199,148083,1,8,0:0:0:0:
160,96,148283,1,2,1:2:0:0:
181,167,148483,1,8,0:0:0:0:
384,32,148683,1,2,1:2:0:0:
363,103,148883,1,8,0:0:0:0:
128,0,149083,5,14,0:0:0:0:
149,71,149283,2,0,P|149:117|135:166,1,95.9999970703126,2|0,0:0|0:0,0:0:0:0:
86,278,149683,2,0,P|127:200|212:226,1,191.999994140625,10|8,0:0|0:0,0:0:0:0:
183,324,150283,5,2,1:2:0:0:
354,336,150483,2,0,P|307:326|272:295,1,95.9999970703126,2|0,0:0|0:0,0:0:0:0:
332,112,150883,2,0,B|320:194|361:165|343:253,1,143.999995605469,10|0,0:0|0:0,0:0:0:0:
324,236,151283,1,10,0:0:0:0:
410,144,151483,6,0,P|454:137|477:176,1,95.9999970703126,10|0,0:0|0:0,0:0:0:0:
251,199,151883,1,10,0:0:0:0:
161,197,152083,2,0,P|123:127|203:124,1,191.999994140625,10|10,0:0|0:0,0:0:0:0:
212,281,152683,6,0,P|144:297|79:268,1,143.999995605469,2|0,1:2|0:0,0:0:0:0:
66,247,153083,1,10,0:0:0:0:
102,110,153283,1,10,0:0:0:0:
16,166,153483,1,2,1:2:0:0:
161,197,153683,1,10,0:0:0:0:
195,25,153883,6,0,P|126:26|90:85,1,143.999995605469,14|0,0:0|0:0,0:0:0:0:
102,110,154283,1,0,0:0:0:0:
251,89,154483,2,0,B|336:85|305:140|381:136,1,143.999995605469,10|0,0:0|0:0,0:0:0:0:
400,121,154883,1,10,0:0:0:0:
278,257,155083,6,0,P|250:219|263:174,1,95.9999970703126,2|0,1:2|0:0,0:0:0:0:
348,202,155483,1,8,0:0:0:0:
312,373,155683,1,10,0:0:0:0:
252,323,155883,2,0,P|288:292|348:306,1,95.9999970703126,10|10,0:0|0:0,0:0:0:0:
472,346,156283,5,10,0:0:0:0:
457,215,156483,2,0,P|433:284|445:358,1,143.999995605469,2|0,1:2|0:0,0:0:0:0:
472,346,156883,1,10,0:0:0:0:
358,228,157083,1,8,0:0:0:0:
301,164,157283,1,10,0:0:0:0:
317,55,157483,6,0,P|383:59|396:125,1,143.999995605469,2|0,1:2|0:0,0:0:0:0:
394,149,157883,2,0,P|347:163|299:163,1,95.9999970703126,8|10,0:0|0:0,0:0:0:0:
247,213,158183,1,2,1:2:0:0:
247,213,158283,1,2,1:2:0:0:
121,60,158483,1,2,1:2:0:0:
156,56,158583,1,10,0:0:0:0:
188,72,158683,5,14,0:0:0:0:
94,141,158883,2,0,P|141:139|179:167,1,95.9999970703126,2|0,0:0|0:0,0:0:0:0:
164,294,159283,2,0,P|117:219|38:257,1,191.999994140625,10|8,0:0|0:0,0:0:0:0:
116,360,159883,5,2,1:2:0:0:
248,302,160083,2,0,P|292:315|311:358,1,95.9999970703126,2|0,0:0|0:0,0:0:0:0:
416,369,160483,2,0,P|390:302|418:173,1,191.999994140625,10|10,0:0|0:0,0:0:0:0:
254,103,161083,6,0,P|301:98|346:81,1,95.9999970703126,10|0,0:0|0:0,0:0:0:0:
382,12,161483,1,10,0:0:0:0:
228,23,161683,2,0,P|174:52|192:174,1,191.999994140625,10|10,0:0|0:0,0:0:0:0:
216,312,162283,5,2,1:2:0:0:
125,255,162483,2,0,P|172:256|208:286,1,95.9999970703126,8|0,0:0|0:0,0:0:0:0:
136,352,162883,1,10,0:0:0:0:
57,312,163083,1,0,0:0:0:0:
49,223,163283,1,10,0:0:0:0:
118,165,163483,6,0,P|144:101|29:92,1,191.999994140625,14|0,0:0|0:0,0:0:0:0:
181,116,164083,2,0,P|239:131|369:93,1,191.999994140625,10|10,0:0|0:0,0:0:0:0:
435,230,164683,6,0,P|423:176|425:239,1,191.999994140625,2|10,1:2|0:0,0:0:0:0:
482,329,165283,2,0,B|365:303|415:381|301:364,1,191.999994140625,2|10,1:2|0:0,0:0:0:0:
257,254,165883,5,14,0:0:0:0:
99,294,166283,1,14,0:0:0:0:
54,138,166683,1,14,0:0:0:0:
212,98,167083,1,6,1:2:0:0:
157,200,167483,5,10,0:0:0:0:
126,121,167683,1,2,1:2:0:0:
293,142,167883,1,2,1:2:0:0:
324,63,168083,1,2,1:2:0:0:
95,42,168283,6,0,B|157:58|157:58|132:180,1,176.000005371094,14|0,0:0|0:0,0:0:0:0:
102,283,168883,2,0,L|68:192,1,88.000002685547,10|0,0:0|0:0,0:0:0:0:
257,254,169283,1,10,0:0:0:0:
32,320,169483,5,6,1:2:0:0:
32,320,169883,2,0,B|62:340|62:340|189:312,1,132.00000402832,10|0,0:0|0:0,0:0:0:0:
179,302,170283,2,0,L|290:328,1,88.000002685547,10|0,0:0|0:0,0:0:0:0:
401,357,170683,6,0,B|438:264|438:264|394:242|343:299,1,176.000005371094,10|0,0:0|0:0,0:0:0:0:
511,244,171283,2,0,P|464:198|349:206,1,176.000005371094,10|10,0:0|0:0,0:0:0:0:
202,284,171883,5,6,1:2:0:0:
202,284,172283,5,2,1:2:0:0:
202,284,172683,5,2,1:2:0:0:
202,284,173083,6,0,P|175:221|107:150,1,132.00000402832,14|0,0:0|0:0,0:0:0:0:
128,187,173483,2,0,P|201:181|228:146,1,88.000002685547,10|8,0:0|0:0,0:0:0:0:
188,44,173883,2,0,P|115:50|88:85,1,88.000002685547,10|8,0:0|0:0,0:0:0:0:
296,98,174283,6,0,L|481:136,1,176.000005371094,2|0,1:2|0:0,0:0:0:0:
465,15,174883,2,0,L|350:38,1,88.000002685547,10|0,0:0|0:0,0:0:0:0:
251,167,175283,1,10,0:0:0:0:
251,167,175383,1,10,0:0:0:0:
251,167,175483,6,0,L|65:131,1,176.000005371094,10|0,0:0|0:0,0:0:0:0:
21,46,176083,2,0,P|76:18|125:32,1,88.000002685547,10|0,0:0|0:0,0:0:0:0:
64,152,176483,1,10,0:0:0:0:
294,106,176683,6,0,B|328:154|328:154|286:285,1,176.000005371094,2|8,1:2|0:0,0:0:0:0:
253,363,177283,1,10,0:0:0:0:
231,182,177483,1,2,1:2:0:0:
204,251,177683,1,2,1:2:0:0:
380,279,177883,6,0,B|454:273|422:205|517:220,1,132.00000402832,14|0,0:0|0:0,0:0:0:0:
490,217,178283,1,10,0:0:0:0:
421,129,178483,2,0,P|439:72|465:31,1,88.000002685547,10|0,0:0|0:0,0:0:0:0:
452,47,178883,1,10,0:0:0:0:
305,105,179083,6,0,P|257:68|208:-7,1,132.00000402832,2|0,1:2|0:0,0:0:0:0:
216,9,179483,1,10,0:0:0:0:
186,152,179683,2,0,P|138:194|90:207,1,88.000002685547,10|0,0:0|0:0,0:0:0:0:
12,189,180083,1,10,0:0:0:0:
169,65,180283,6,0,P|110:6|11:69,1,176.000005371094,14|0,0:0|0:0,0:0:0:0:
176,97,180883,2,0,L|270:78,1,88.000002685547,10|10,0:0|0:0,0:0:0:0:
231,197,181283,1,10,0:0:0:0:
389,144,181483,6,0,L|483:163,1,88.000002685547,2|0,1:2|0:0,0:0:0:0:
348,206,181883,1,10,0:0:0:0:
390,17,182083,2,0,L|477:0,1,88.000002685547,2|0,1:2|0:0,0:0:0:0:
269,86,182483,1,10,0:0:0:0:
269,86,182583,1,10,0:0:0:0:
269,86,182683,6,0,B|212:101|212:101|197:135|197:135|112:161,1,176.000005371094,14|8,0:0|0:0,0:0:0:0:
7,96,183283,1,2,1:2:0:0:
144,81,183483,1,10,0:0:0:0:
0,119,183683,1,10,0:0:0:0:
151,104,183883,6,0,L|162:3,1,88.000002685547,2|0,1:2|0:0,0:0:0:0:
262,156,184283,1,10,0:0:0:0:
83,209,184483,2,0,L|94:310,1,88.000002685547,2|0,1:2|0:0,0:0:0:0:
92,296,184883,1,10,0:0:0:0:
256,320,185083,5,14,0:0:0:0:
384,192,185483,5,14,0:0:0:0:
128,192,185883,5,10,0:0:0:0:
256,64,186283,5,14,0:0:0:0:
256,352,186683,5,10,0:0:0:0:
256,32,187083,5,6,1:2:0:0:
256,192,188683,5,14,0:0:0:0:
399,100,189083,1,2,0:0:0:0:
326,48,189283,1,10,0:0:0:0:
426,93,189483,1,0,0:0:0:0:
326,22,189683,1,10,0:0:0:0:
359,175,189883,6,0,L|376:275,1,88.000002685547,6|0,1:2|0:0,0:0:0:0:
445,200,190283,1,10,0:0:0:0:
281,235,190483,2,0,B|201:236|244:279|160:277,1,132.00000402832,10|0,0:0|0:0,0:0:0:0:
144,297,190883,1,10,0:0:0:0:
65,155,191083,6,0,B|94:126|94:126|122:170|91:211,1,132.00000402832,10|0,0:0|0:0,0:0:0:0:
77,231,191483,1,10,0:0:0:0:
14,282,191683,1,10,0:0:0:0:
144,297,191883,1,0,0:0:0:0:
201,360,192083,1,10,0:0:0:0:
303,285,192283,5,2,1:2:0:0:
437,321,192583,1,2,0:0:0:0:
437,321,192683,2,0,L|428:233,1,88.000002685547,10|2,0:0|0:0,0:0:0:0:
330,190,193083,1,2,1:2:0:0:
370,97,193283,1,2,1:2:0:0:
242,171,193483,6,0,P|229:89|300:47,1,176.000005371094,14|0,0:0|0:0,0:0:0:0:
206,85,194083,2,0,L|112:65,1,88.000002685547,10|0,0:0|0:0,0:0:0:0:
29,169,194483,1,10,0:0:0:0:
129,154,194683,6,0,L|143:246,1,88.000002685547,2|0,1:2|0:0,0:0:0:0:
168,359,195083,1,10,0:0:0:0:
225,295,195283,2,0,P|145:269|86:329,1,176.000005371094,10|10,0:0|0:0,0:0:0:0:
242,309,195883,6,0,L|338:275,1,88.000002685547,10|0,0:0|0:0,0:0:0:0:
440,238,196283,1,10,0:0:0:0:
334,204,196483,2,0,L|367:331,1,132.00000402832,2|0,1:2|0:0,0:0:0:0:
356,353,196883,1,10,0:0:0:0:
309,190,197083,6,0,L|286:91,1,88.000002685547,2|0,1:2|0:0,0:0:0:0:
196,55,197483,1,10,0:0:0:0:
353,21,197683,1,10,0:0:0:0:
353,21,197783,1,2,1:2:0:0:
353,21,197883,1,2,1:2:0:0:
442,77,198083,1,2,1:2:0:0:
503,149,198283,6,0,P|439:104|404:173,1,176.000005371094,14|0,0:0|0:0,0:0:0:0:
478,269,198883,2,0,P|434:268|397:291,1,88.000002685547,10|0,0:0|0:0,0:0:0:0:
459,356,199283,1,10,0:0:0:0:
314,342,199483,6,0,B|272:253|344:264|304:171,1,176.000005371094,2|0,1:2|0:0,0:0:0:0:
191,121,200083,2,0,L|206:207,1,88.000002685547,10|0,0:0|0:0,0:0:0:0:
275,71,200483,1,10,0:0:0:0:
114,41,200683,6,0,P|52:93|97:160,1,176.000005371094,10|0,0:0|0:0,0:0:0:0:
109,268,201283,2,0,L|84:183,1,88.000002685547,10|0,0:0|0:0,0:0:0:0:
52,335,201683,1,10,0:0:0:0:
197,263,201883,6,0,P|232:287|243:329,1,88.000002685547,2|0,1:2|0:0,0:0:0:0:
323,158,202283,2,0,P|283:176|242:164,1,88.000002685547,10|0,0:0|0:0,0:0:0:0:
350,319,202683,2,0,P|353:276|384:245,1,88.000002685547,10|8,0:0|0:0,0:0:0:0:
351,86,203083,6,0,P|269:59|191:96,1,176.000005371094,14|0,0:0|0:0,0:0:0:0:
92,50,203683,1,10,0:0:0:0:
82,131,203883,1,2,0:0:0:0:
73,24,204083,1,10,0:0:0:0:
61,144,204283,6,0,L|51:251,1,88.000002685547,2|0,1:2|0:0,0:0:0:0:
41,335,204683,1,10,0:0:0:0:
184,297,204883,1,0,0:0:0:0:
105,288,205083,1,10,0:0:0:0:
235,361,205283,1,10,0:0:0:0:
211,188,205483,6,0,L|190:273,1,88.000002685547,2|8,1:2|0:0,0:0:0:0:
283,262,205883,1,10,0:0:0:0:
131,161,206083,2,0,P|191:102|270:128,1,176.000005371094,2|10,1:2|0:0,0:0:0:0:
396,245,206683,6,0,P|364:214|358:172,1,88.000002685547,2|0,1:2|0:0,0:0:0:0:
405,11,207083,2,0,P|394:52|360:79,1,88.000002685547,10|10,0:0|0:0,0:0:0:0:
452,177,207483,1,2,1:2:0:0:
481,88,207683,1,2,1:2:0:0:
222,46,207883,5,14,0:0:0:0:
256,32,208083,2,0,P|207:15|183:68,1,95.9999970703126,2|0,0:0|0:0,0:0:0:0:
224,197,208483,2,0,P|158:180|32:175,1,191.999994140625,10|8,0:0|0:0,0:0:0:0:
290,46,209083,5,2,1:2:0:0:
256,32,209283,2,0,P|305:15|329:68,1,95.9999970703126,2|0,0:0|0:0,0:0:0:0:
288,197,209683,2,0,P|354:180|480:175,1,191.999994140625,10|10,0:0|0:0,0:0:0:0:
256,320,210283,6,0,P|192:352|128:352,1,95.9999970703126,14|0,0:0|0:0,0:0:0:0:
256,192,210683,1,10,0:0:0:0:
256,320,210883,2,0,P|320:352|384:352,1,95.9999970703126,10|0,0:0|0:0,0:0:0:0:
416,288,211283,1,10,0:0:0:0:
352,128,211483,2,0,P|384:64|448:0,1,143.999995605469,2|0,1:2|0:0,0:0:0:0:
432,11,211883,1,10,0:0:0:0:
276,70,212083,2,0,P|206:56|83:7,1,191.999994140625,10|10,0:0|0:0,0:0:0:0:
212,0,212683,5,14,0:0:0:0:
283,54,212883,2,0,P|328:107|352:148,1,95.9999970703126,10|0,0:0|0:0,0:0:0:0:
156,173,213283,2,0,P|161:125|173:79,1,95.9999970703126,10|0,0:0|0:0,0:0:0:0:
345,144,213683,1,10,0:0:0:0:
170,38,213883,6,0,P|136:136|146:269,1,191.999994140625,2|8,1:2|0:0,0:0:0:0:
169,363,214483,2,0,P|117:334|70:327,1,95.9999970703126,2|8,1:2|0:0,0:0:0:0:
293,244,214883,1,10,0:0:0:0:
293,244,214983,1,10,0:0:0:0:
292,244,215083,6,0,P|252:268|205:280,1,95.9999970703126,14|0,0:0|0:0,0:0:0:0:
113,256,215483,1,10,0:0:0:0:
158,107,215683,2,0,P|229:108|293:141,1,143.999995605469,2|0,1:2|0:0,0:0:0:0:
292,140,216083,1,10,0:0:0:0:
364,29,216283,6,0,P|306:45|263:95,1,95.9999970703126,6|0,1:2|0:0,0:0:0:0:
479,159,216683,2,0,P|440:133|392:127,1,95.9999970703126,10|10,0:0|0:0,0:0:0:0:
394,284,216983,1,2,1:2:0:0:
394,284,217083,2,0,P|440:274|478:245,1,95.9999970703126,2|10,1:2|0:0,0:0:0:0:
192,352,217483,5,14,0:0:0:0:
224,224,217683,2,0,P|183:189|117:187,1,95.9999970703126,2|0,0:0|0:0,0:0:0:0:
180,372,218083,2,0,P|63:331|29:253,1,191.999994140625,10|8,0:0|0:0,0:0:0:0:
320,352,218683,5,6,1:2:0:0:
288,224,218883,2,0,P|329:189|395:187,1,95.9999970703126,2|0,0:0|0:0,0:0:0:0:
332,372,219283,2,0,P|449:331|483:253,1,191.999994140625,10|10,0:0|0:0,0:0:0:0:
256,192,219883,6,0,P|192:224|160:224,1,95.9999970703126,10|0,0:0|0:0,0:0:0:0:
256,64,220283,1,10,0:0:0:0:
256,192,220483,2,0,P|320:224|352:224,1,95.9999970703126,10|0,0:0|0:0,0:0:0:0:
437,204,220883,1,10,0:0:0:0:
490,65,221083,6,0,P|423:105|327:71,1,143.999995605469,2|0,1:2|0:0,0:0:0:0:
360,96,221483,1,10,0:0:0:0:
406,2,221683,1,10,0:0:0:0:
465,49,221883,1,10,0:0:0:0:
437,82,222083,1,10,0:0:0:0:
184,41,222283,6,0,P|267:16|390:1,1,191.999994140625,14|8,0:0|0:0,0:0:0:0:
278,112,222883,2,0,P|211:87|171:59,1,95.9999970703126,10|8,0:0|0:0,0:0:0:0:
128,4,223283,1,10,0:0:0:0:
32,128,223483,6,0,P|53:81|88:160,1,191.999994140625,2|0,1:2|0:0,0:0:0:0:
32,256,224083,2,0,P|53:302|88:223,1,191.999994140625,2|10,1:2|0:0,0:0:0:0:
32,192,224683,5,14,0:0:0:0:
480,192,225083,5,14,0:0:0:0:
256,352,225483,5,14,0:0:0:0:
256,32,225883,5,6,1:2:0:0:
256,192,227083,5,2,0:0:0:0:
335,52,227483,2,0,L|320:130,1,80,2|0,0:0|0:0,0:0:0:0:
337,330,228683,2,0,L|276:278,1,80,2|0,0:0|0:0,0:0:0:0:
95,193,229883,2,0,L|170:166,1,80,2|0,0:0|0:0,0:0:0:0:
335,52,231083,2,0,L|320:130,1,80,2|0,0:0|0:0,0:0:0:0:
256,192,231883,5,2,0:0:0:0:
374,192,232283,2,0,L|454:192,1,80,2|0,0:0|0:0,0:0:0:0:
138,192,233483,2,0,L|58:192,1,80,2|0,0:0|0:0,0:0:0:0:
198,253,234083,1,8,0:0:0:0:
218,147,234283,6,0,P|191:104|127:98,1,120,2|0,1:2|0:0,0:0:0:0:
106,79,234683,1,2,1:2:0:0:
259,66,234883,2,0,P|298:57|336:46,1,80,10|8,0:0|0:0,0:0:0:0:
410,132,235283,1,8,0:0:0:0:
459,63,235483,2,0,L|429:220,1,160,2|8,1:2|0:0,0:0:0:0:
349,258,236083,1,8,0:0:0:0:
470,311,236283,1,2,1:2:0:0:
281,201,236683,6,0,P|222:239|151:246,1,143.999995605469,14|0,0:0|0:0,0:0:0:0:
136,266,237083,2,0,P|117:223|115:175,1,95.9999970703126,2|10,0:0|0:0,0:0:0:0:
68,324,237483,1,8,0:0:0:0:
26,158,237683,1,10,0:0:0:0:
191,116,237883,6,0,B|273:102|243:157|327:144,1,143.999995605469,2|0,1:2|0:0,0:0:0:0:
343,160,238283,1,2,0:0:0:0:
176,95,238483,1,10,0:0:0:0:
335,25,238683,2,0,P|331:65|296:45,1,95.9999970703126,8|10,0:0|0:0,0:0:0:0:
448,137,239083,6,0,P|416:201|398:270,1,143.999995605469,10|0,0:0|0:0,0:0:0:0:
405,299,239483,1,2,0:0:0:0:
294,241,239683,1,10,0:0:0:0:
418,323,239883,2,0,P|375:342|327:352,1,95.9999970703126,8|10,0:0|0:0,0:0:0:0:
170,344,240283,6,0,P|128:270|209:246,1,191.999994140625,2|2,1:2|0:0,0:0:0:0:
250,316,240883,1,10,0:0:0:0:
203,158,241083,1,2,1:2:0:0:
234,77,241283,1,2,1:2:0:0:
125,42,241483,6,0,P|87:112|70:178,1,143.999995605469,14|0,0:0|0:0,0:0:0:0:
84,197,241883,2,0,P|38:204|14:244,1,95.9999970703126,2|10,0:0|0:0,0:0:0:0:
96,285,242283,1,8,0:0:0:0:
32,349,242483,1,10,0:0:0:0:
189,303,242683,6,0,P|239:314|268:346,1,95.9999970703126,2|0,1:2|0:0,0:0:0:0:
369,354,243083,1,2,0:0:0:0:
344,236,243283,2,0,P|358:282|364:329,1,95.9999970703126,2|8,1:2|0:0,0:0:0:0:
444,273,243683,1,10,0:0:0:0:
247,233,243883,6,0,P|287:151|378:148,1,191.999994140625,10|2,0:0|0:0,0:0:0:0:
452,14,244483,2,0,P|435:57|390:70,1,95.9999970703126,2|8,1:2|0:0,0:0:0:0:
301,39,244883,1,10,0:0:0:0:
99,57,245083,6,0,B|183:46|155:100|232:94,1,143.999995605469,6|0,1:2|0:0,0:0:0:0:
250,114,245483,1,10,0:0:0:0:
179,177,245683,1,10,0:0:0:0:
40,152,245883,2,0,P|85:182|59:269,1,143.999995605469,6|0,1:2|0:0,0:0:0:0:
39,291,246283,6,0,B|92:285|139:266|139:266|146:290|190:322,1,143.999995605469,14|0,0:0|0:0,0:0:0:0:
202,331,246683,2,0,P|222:285|215:217,1,95.9999970703126,2|10,0:0|0:0,0:0:0:0:
190,125,247083,1,8,0:0:0:0:
141,239,247283,1,10,0:0:0:0:
239,11,247483,6,0,P|273:79|359:62,1,143.999995605469,2|0,1:2|0:0,0:0:0:0:
373,50,247883,1,2,0:0:0:0:
196,19,248083,1,10,0:0:0:0:
115,195,248283,2,0,P|45:209|-6:178,1,95.9999970703126,8|10,0:0|0:0,0:0:0:0:
178,72,248683,6,0,P|186:156|174:249,1,143.999995605469,10|0,0:0|0:0,0:0:0:0:
178,263,249083,2,0,P|228:232|307:217,1,95.9999970703126,2|10,0:0|0:0,0:0:0:0:
436,262,249483,1,8,0:0:0:0:
288,352,249683,1,10,0:0:0:0:
391,133,249883,6,0,P|316:143|304:38,1,191.999994140625,2|2,1:2|0:0,0:0:0:0:
481,78,250483,1,10,0:0:0:0:
481,78,250583,1,10,0:0:0:0:
481,78,250683,1,8,0:0:0:0:
468,155,250883,1,10,0:0:0:0:
442,309,251083,6,0,B|360:315|385:230|277:269,1,143.999995605469,14|0,0:0|0:0,0:0:0:0:
264,279,251483,2,0,P|290:223|274:150,1,95.9999970703126,2|10,0:0|0:0,0:0:0:0:
217,99,251883,1,8,0:0:0:0:
380,56,252083,1,10,0:0:0:0:
184,85,252283,6,0,B|180:30|217:14|217:14|266:55|352:41,1,191.999994140625,2|2,1:2|0:0,0:0:0:0:
505,29,252883,2,0,P|465:7|383:-2,1,95.9999970703126,10|8,0:0|0:0,0:0:0:0:
424,173,253283,1,10,0:0:0:0:
424,173,253383,1,10,0:0:0:0:
424,173,253483,6,0,P|470:163|512:140,1,95.9999970703126,10|0,0:0|0:0,0:0:0:0:
342,239,253883,1,10,0:0:0:0:
342,239,254083,2,0,P|367:278|403:310,1,95.9999970703126,10|0,0:0|0:0,0:0:0:0:
251,184,254483,1,10,0:0:0:0:
251,184,254683,6,0,P|222:220|205:265,1,95.9999970703126,6|0,1:2|0:0,0:0:0:0:
191,376,255083,1,2,1:2:0:0:
190,259,255283,1,10,0:0:0:0:
429,245,255483,1,10,0:0:0:0:
429,245,255583,1,10,0:0:0:0:
429,245,255683,1,2,1:2:0:0:
403,65,255883,6,0,B|433:43|468:57|468:57|486:89|454:168,1,143.999995605469,14|0,0:0|0:0,0:0:0:0:
454,170,256283,2,0,P|401:146|341:156,1,95.9999970703126,2|10,0:0|0:0,0:0:0:0:
364,342,256683,2,0,P|411:341|454:320,1,95.9999970703126,8|10,0:0|0:0,0:0:0:0:
257,208,257083,6,0,B|178:207|203:141|88:163,1,143.999995605469,2|0,1:2|0:0,0:0:0:0:
122,171,257483,1,2,0:0:0:0:
256,119,257683,1,10,0:0:0:0:
85,61,257883,2,0,P|119:12|169:4,1,95.9999970703126,8|10,0:0|0:0,0:0:0:0:
250,93,258283,6,0,P|374:121|433:113,1,143.999995605469,10|0,0:0|0:0,0:0:0:0:
421,92,258683,2,0,P|368:109|337:146,1,95.9999970703126,2|10,0:0|0:0,0:0:0:0:
289,244,259083,1,8,0:0:0:0:
272,82,259283,1,10,0:0:0:0:
504,46,259483,6,0,P|413:10|327:6,1,143.999995605469,2|0,1:2|0:0,0:0:0:0:
382,32,259883,2,0,P|443:47|505:80,1,95.9999970703126,2|10,0:0|0:0,0:0:0:0:
330,129,260283,1,8,0:0:0:0:
169,18,260483,1,10,0:0:0:0:
169,18,260583,1,10,0:0:0:0:
169,18,260683,6,0,P|154:79|53:115,1,143.999995605469,14|0,0:0|0:0,0:0:0:0:
74,112,261083,2,0,P|131:89|170:107,1,95.9999970703126,10|2,0:0|1:2,0:0:0:0:
160,284,261483,2,0,P|115:294|74:272,1,95.9999970703126,10|10,0:0|0:0,0:0:0:0:
265,222,261783,1,10,0:0:0:0:
265,222,261883,6,0,P|339:257|412:326,1,143.999995605469,2|0,1:2|0:0,0:0:0:0:
412,334,262283,1,10,0:0:0:0:
177,371,262483,2,0,P|194:310|214:265,1,95.9999970703126,2|0,1:2|0:0,0:0:0:0:
335,371,262883,1,10,0:0:0:0:
480,192,263083,5,14,0:0:0:0:
32,192,263683,5,2,0:0:0:0:
256,32,264283,5,14,0:0:0:0:
256,352,264883,5,2,0:0:0:0:
256,192,265483,5,14,0:0:0:0:
256,192,265583,12,0,275083,0:0:0:0:
