osu file format v14

[General]
AudioFilename: Ricky Montgomery.mp3
AudioLeadIn: 0
PreviewTime: 167083
Countdown: 0
SampleSet: Soft
StackLeniency: 0.7
Mode: 2
LetterboxInBreaks: 0
WidescreenStoryboard: 1

[Editor]
Bookmarks: 60368,120368,181083,275083,275168
DistanceSpacing: 2.5
BeatDivisor: 3
GridSize: 16
TimelineZoom: 2.5

[Metadata]
Title:Snow
TitleUnicode:Snow
Artist:Ricky Montgomery
ArtistUnicode:Ricky Montgomery
Creator:-Joni-
Version:Don't forget me under the snow
Source:osu!
Tags:Featured Artist FA Mappers' Guild English Rock PixelJuul mpg indie alternative the honeysticks fayew
BeatmapID:2266121
BeatmapSetID:1083491

[Difficulty]
HPDrainRate:6
CircleSize:4
OverallDifficulty:9
ApproachRate:9
SliderMultiplier:1.59999990463257
SliderTickRate:2

[Events]
//Background and Video events
0,0,"landscape-sea-water-nature-ocean-horizon-1071702-pxhere.com.jpg",0,0
//Break Periods
//Storyboard Layer 0 (Background)
//Storyboard Layer 1 (Fail)
//Storyboard Layer 2 (Pass)
//Storyboard Layer 3 (Foreground)
//Storyboard Layer 4 (Overlay)
//Storyboard Sound Samples

[TimingPoints]
283,400,3,2,1,40,1,0
9483,-100,3,2,1,50,0,0
26683,-100,3,2,1,60,0,0
27283,-100,3,2,1,70,0,0
27883,-100,3,2,1,80,0,0
28883,-100,3,2,1,50,0,0
29083,-100,3,3,1,65,0,0
31283,-100,3,3,1,25,0,0
31483,-100,3,3,1,65,0,0
33483,-100,3,3,1,35,0,0
33883,-100,3,3,1,65,0,0
35083,-100,3,3,1,65,0,0
35483,-100,3,3,1,65,0,0
36083,-100,3,3,1,35,0,0
36283,-100,3,3,1,65,0,0
38283,-100,3,3,1,35,0,0
38683,-100,3,3,1,65,0,0
39083,-100,3,3,1,65,0,0
39883,-100,3,3,1,65,0,0
40683,-100,3,3,1,65,0,0
40883,-100,3,3,1,35,0,0
41083,-100,3,3,1,65,0,0
43083,-100,3,3,1,35,0,0
43483,-100,3,3,1,65,0,0
44683,-100,3,3,1,65,0,0
45483,-100,3,3,1,80,0,0
45683,-100,3,3,1,40,0,0
45883,-100,3,3,1,80,0,0
47083,-100,3,3,1,80,0,0
48283,-100,3,3,1,75,0,0
48683,-100,3,3,1,75,0,0
49483,-100,3,3,1,75,0,0
49883,-100,3,3,1,75,0,0
67483,-100,3,3,1,90,0,1
68083,-100,3,3,1,90,0,1
68483,-100,3,3,1,90,0,1
69283,-100,3,3,1,90,0,1
69683,-100,3,3,1,90,0,1
69883,-100,3,3,1,90,0,1
71483,-100,3,3,1,90,0,1
84283,-100,3,3,1,90,0,1
85483,-100,3,3,1,90,0,0
86683,-100,3,2,1,50,0,0
90283,-100,3,2,1,55,0,0
91083,-100,3,3,1,60,0,0
91483,-100,3,3,1,70,0,0
110683,-100,3,3,1,75,0,0
127483,-100,3,3,1,80,0,0
129883,-100,3,3,1,75,0,0
149083,-100,3,3,1,90,0,1
167083,-100,3,3,1,90,0,0
167483,-100,3,3,1,80,0,0
168283,-100,3,3,1,75,0,0
171883,-100,3,3,1,80,0,0
173083,-100,3,3,1,75,0,0
185083,-100,3,3,1,80,0,0
188683,-100,3,3,1,85,0,0
207883,-100,3,3,1,90,0,1
225883,-100,3,3,1,90,0,0
227083,-100,3,2,1,40,0,0
231883,-100,3,2,1,50,0,0
234083,-100,3,3,1,60,0,0
234283,-100,3,3,1,65,0,0
236683,-100,3,3,1,70,0,1
246283,-100,3,3,1,80,0,1
262883,-100,3,3,1,80,0,0
263083,-100,3,3,1,90,0,1
263183,-100,3,3,1,90,0,0
263683,-100,3,3,1,65,0,0
264283,-100,3,3,1,90,0,1
264383,-100,3,3,1,90,0,0
264883,-100,3,3,1,65,0,0
265483,-100,3,3,1,70,0,1
265583,-100,3,3,1,60,0,0
266683,-100,3,3,1,50,0,0
267883,-100,3,3,1,40,0,0
269083,-100,3,3,1,30,0,0
270283,-100,3,3,1,20,0,0
271483,-100,3,3,1,10,0,0
272683,-100,3,3,1,5,0,0

[Colours]
Combo1 : 0,255,255
Combo2 : 0,128,255
Combo3 : 192,192,192
Combo4 : 128,128,255

[HitObjects]
211,274,283,6,0,L|113:272,1,79.9999952316284,4|0,0:0|0:0,0:0:0:0:
315,181,683,2,0,L|403:176,1,79.9999952316284
278,74,1083,2,0,L|374:66,1,79.9999952316285
460,60,1483,1,0,0:0:0:0:
238,245,1683,6,0,L|63:243,2,159.999990463257,2|2|2,0:0|0:0|0:0,0:0:0:0:
425,276,2683,2,0,L|392:175,1,79.9999952316285,4|0,0:0|0:0,0:0:0:0:
206,209,3083,2,0,L|234:118,1,79.9999952316285
309,121,3483,2,0,L|222:134,1,79.9999952316285
109,154,3883,1,0,0:0:0:0:
318,343,4083,6,0,L|486:340,2,159.999990463257,2|2|2,0:0|0:0|0:0,0:0:0:0:
113,336,5083,2,0,L|111:233,1,79.9999952316285,4|0,0:0|0:0,0:0:0:0:
268,121,5483,2,0,L|284:39,1,79.9999952316285
131,124,5883,2,0,L|34:130,1,79.9999952316285,0|0,0:0|0:0,0:0:0:0:
119,61,6283,1,0,0:0:0:0:
327,321,6483,6,0,L|502:322,2,159.999990463257,2|2|2,0:0|0:0|0:0,0:0:0:0:
144,184,7483,2,0,L|137:275,1,79.9999952316285,4|0,0:0|0:0,0:0:0:0:
293,342,7883,2,0,L|291:225,1,79.9999952316285
199,105,8283,2,0,L|291:94,1,79.9999952316285
374,82,8683,1,0,0:0:0:0:
182,162,8883,6,0,P|137:105|196:67,1,159.999990463257,2|2,0:0|0:0,0:0:0:0:
385,231,9483,2,0,L|384:132,1,79.9999952316285
177,200,9883,2,0,L|78:203,2,79.9999952316285,2|0|0,0:0|0:0|0:0,0:0:0:0:
315,335,10483,2,0,L|449:223,1,159.999990463257
198,258,11083,6,0,L|114:243,1,79.9999952316285
292,150,11483,2,0,L|206:134,1,79.9999952316285
71,111,11883,2,0,L|161:72,1,79.9999952316285
417,64,12283,1,4,0:0:0:0:
477,64,12483,1,0,0:0:0:0:
145,301,12883,2,0,P|91:268|191:161,1,239.999985694885
376,337,13883,1,0,0:0:0:0:
429,339,14083,2,0,L|347:337,1,79.9999952316284,2|0,0:0|0:0,0:0:0:0:
89,293,14683,6,0,L|103:190,1,79.9999952316285
309,219,15083,1,0,0:0:0:0:
100,195,15283,2,0,P|132:127|214:108,1,159.999990463257
51,50,15883,2,0,L|216:30,1,159.999990463257
469,61,16883,1,2,0:0:0:0:
200,67,17083,6,0,L|221:159,1,79.9999952316285,4|0,0:0|0:0,0:0:0:0:
33,267,17483,2,0,L|200:250,1,159.999990463257,0|0,0:0|0:0,0:0:0:0:
258,223,18083,1,0,0:0:0:0:
93,147,18283,1,0,0:0:0:0:
399,135,18683,6,0,L|484:134,1,79.9999952316285
401,44,19083,1,0,0:0:0:0:
73,305,19483,2,0,L|138:240,1,79.9999952316285,4|0,0:0|0:0,0:0:0:0:
305,250,19883,2,0,L|311:157,1,79.9999952316285
142,132,20283,1,0,0:0:0:0:
438,119,20483,2,0,L|255:92,1,159.999990463257
142,132,21383,1,0,0:0:0:0:
414,201,21883,5,4,0:0:0:0:
144,341,22083,2,0,L|120:181,1,159.999990463257
333,127,22683,2,0,L|342:34,1,79.9999952316285
151,132,23083,2,0,P|104:90|172:41,1,159.999990463257,0|0,0:0|0:0,0:0:0:0:
315,234,23833,1,0,0:0:0:0:
401,232,24016,1,2,0:0:0:0:
156,260,24283,6,0,P|102:215|164:169,1,159.999990463257,4|0,0:0|0:0,0:0:0:0:
289,93,24883,2,0,L|456:43,1,159.999990463257,0|0,0:0|0:0,0:0:0:0:
270,315,25483,2,0,L|260:228,1,79.9999952316285
93,246,25883,2,0,L|39:184,1,79.9999952316285
127,155,26283,1,0,0:0:0:0:
372,327,26683,6,0,P|419:294|356:232,1,159.999990463257,4|0,0:0|0:0,0:0:0:0:
186,218,27283,2,0,P|131:179|191:129,1,159.999990463257
474,72,27883,2,0,L|293:54,1,159.999990463257
149,80,28883,1,2,0:0:0:0:
456,252,29083,6,0,P|493:174|424:141,1,159.999990463257,2|0,0:0|0:0,0:0:0:0:
373,137,29683,1,0,0:0:0:0:
241,329,30083,1,2,0:0:0:0:
69,331,30283,2,0,P|38:271|110:246,1,159.999990463257,8|0,0:0|0:0,0:0:0:0:
396,194,30883,1,0,0:0:0:0:
168,169,31283,1,8,0:0:0:0:
194,166,31349,1,8,0:0:0:0:
221,164,31416,1,8,0:0:0:0:
387,153,31483,6,0,P|420:105|333:64,1,159.999990463257,8|0,0:0|0:0,0:0:0:0:
169,160,32083,2,0,L|24:43,1,159.999990463257,2|2,0:0|0:0,0:0:0:0:
315,335,32683,2,0,L|481:336,2,159.999990463257,8|0|8,0:0|0:0|0:0,0:0:0:0:
377,284,33583,1,8,0:0:0:0:
395,263,33683,1,8,0:0:0:0:
367,248,33783,1,8,0:0:0:0:
195,334,33883,6,0,P|132:274|186:218,1,159.999990463257,2|0,0:0|0:0,0:0:0:0:
275,212,34483,1,2,0:0:0:0:
391,208,34683,2,0,L|500:206,1,79.9999952316285,0|2,0:0|0:0,0:0:0:0:
211,252,35083,2,0,P|255:193|340:164,1,159.999990463257,8|0,0:0|0:0,0:0:0:0:
259,327,36083,2,8,L|219:327,2,26.6666650772095
419,326,36283,6,0,P|444:256|360:208,1,159.999990463257,8|0,0:0|0:0,0:0:0:0:
215,176,36883,2,0,L|373:102,1,159.999990463257,2|2,0:0|0:0,0:0:0:0:
63,332,37483,2,0,L|229:333,1,159.999990463257,8|0,0:0|0:0,0:0:0:0:
54,160,38083,1,0,0:0:0:0:
192,162,38283,1,8,0:0:0:0:
219,146,38383,1,8,0:0:0:0:
227,111,38483,1,8,0:0:0:0:
199,85,38583,1,8,0:0:0:0:
383,337,38683,6,0,P|341:266|268:255,1,159.999990463257,2|0,0:0|0:0,0:0:0:0:
102,83,39283,1,2,0:0:0:0:
416,76,39683,1,2,0:0:0:0:
102,83,39883,2,0,P|116:227|291:238,1,319.999980926514,8|0,0:0|0:0,0:0:0:0:
449,68,40883,2,8,L|482:68,2,26.6666650772095
260,250,41083,6,0,P|216:180|274:159,1,159.999990463257,8|0,0:0|0:0,0:0:0:0:
356,117,41683,1,2,0:0:0:0:
197,329,42083,1,2,0:0:0:0:
46,330,42283,1,8,0:0:0:0:
289,221,42683,1,0,0:0:0:0:
394,223,42883,1,0,0:0:0:0:
199,208,43083,1,8,0:0:0:0:
161,192,43183,1,8,0:0:0:0:
142,158,43282,1,8,0:0:0:0:
158,124,43383,1,8,0:0:0:0:
360,211,43483,6,0,P|458:185|458:107,1,159.999990463257,2|0,0:0|0:0,0:0:0:0:
273,101,44083,2,0,L|357:101,1,79.9999952316285,2|0,0:0|0:0,0:0:0:0:
54,109,44683,2,0,P|74:212|280:294,1,319.999980926514,8|0,0:0|0:0,0:0:0:0:
457,114,45683,2,8,L|493:111,2,26.6666650772095
294,234,45883,6,0,L|284:55,1,159.999990463257,8|0,0:0|0:0,0:0:0:0:
113,98,46483,2,0,L|6:80,1,79.9999952316285,2|0,0:0|0:0,0:0:0:0:
127,231,46883,1,2,0:0:0:0:
299,331,47083,6,0,P|384:311|387:259,1,119.999992847443,8|0,0:0|0:0,0:0:0:0:
299,252,47483,2,0,P|240:170|259:139,1,119.999992847443,8|0,0:0|0:0,0:0:0:0:
383,196,47883,2,0,L|382:57,1,119.999992847443,8|0,0:0|0:0,0:0:0:0:
148,312,48283,6,0,B|198:375|265:236|311:320,1,159.999990463257,6|2,0:0|0:0,0:0:0:0:
450,333,48883,1,2,0:0:0:0:
240,184,49083,2,0,L|331:154,1,79.9999952316285,0|2,0:0|0:0,0:0:0:0:
122,203,49483,2,0,P|75:165|129:100,1,159.999990463257,2|2,0:2|0:0,0:0:0:0:
386,43,50083,1,2,0:0:0:0:
246,203,50283,2,0,L|336:220,1,79.9999952316285,0|2,0:0|0:0,0:0:0:0:
111,312,50683,6,0,L|69:139,1,159.999990463257,2|2,0:2|0:0,0:0:0:0:
267,283,51283,2,0,L|186:278,1,79.9999952316285,2|0,0:0|0:0,0:0:0:0:
277,176,51683,1,2,0:0:0:0:
85,335,51883,2,0,P|60:275|139:255,1,159.999990463257,2|2,0:2|0:0,0:0:0:0:
265,252,52483,1,2,0:0:0:0:
190,134,52683,1,2,0:0:0:0:
74,76,52883,1,2,0:0:0:0:
350,134,53083,6,0,P|461:144|460:104,1,159.999990463257,6|2,0:0|0:0,0:0:0:0:
267,197,53683,2,0,L|196:23,1,159.999990463257,2|2,0:0|0:0,0:0:0:0:
417,341,54283,2,0,B|346:285|346:285|251:305,1,159.999990463257,2|2,0:2|0:0,0:0:0:0:
79,200,54883,2,0,P|54:140|136:117,1,159.999990463257,2|2,0:0|0:0,0:0:0:0:
399,244,55483,2,0,L|273:142,1,159.999990463257,2|2,0:2|0:0,0:0:0:0:
119,205,56083,5,2,0:0:0:0:
92,288,56283,1,0,0:0:0:0:
165,332,56483,1,2,0:0:0:0:
436,264,56683,2,0,P|421:189|353:130,1,159.999990463257,2|2,0:2|0:0,0:0:0:0:
210,98,57283,1,2,0:0:0:0:
138,133,57483,1,2,0:0:0:0:
149,211,57683,1,2,0:0:0:0:
415,317,57883,6,0,P|445:267|361:183,1,159.999990463257,6|2,0:0|0:0,0:0:0:0:
231,223,58483,2,0,L|315:241,1,79.9999952316285,2|0,0:0|0:0,0:0:0:0:
180,144,58883,1,2,0:0:0:0:
397,187,59083,6,0,L|339:24,1,159.999990463257,2|2,0:2|0:0,0:0:0:0:
127,235,59683,2,0,P|91:162|164:136,1,159.999990463257,2|2,0:0|0:0,0:0:0:0:
303,332,60283,6,0,L|267:174,1,159.999990463257,2|2,0:2|0:0,0:0:0:0:
83,206,60883,2,0,L|135:40,1,159.999990463257,2|2,0:0|0:0,0:0:0:0:
278,338,61483,2,0,L|171:328,1,79.9999952316285,2|0,0:0|0:0,0:0:0:0:
80,322,61883,1,2,0:0:0:0:
217,294,62083,1,2,0:0:0:0:
67,216,62283,2,0,L|157:209,1,79.9999952316285,2|2,0:0|0:0,0:0:0:0:
439,243,62683,6,0,P|447:183|362:128,1,159.999990463257,6|2,0:0|0:0,0:0:0:0:
196,111,63283,1,2,0:0:0:0:
329,336,63483,2,0,L|242:339,1,79.9999952316285,0|2,0:0|0:0,0:0:0:0:
461,325,63883,2,0,L|417:144,1,159.999990463257,2|2,0:2|0:0,0:0:0:0:
198,178,64483,1,2,0:0:0:0:
295,332,64683,2,0,L|215:340,1,79.9999952316285,0|2,0:0|0:0,0:0:0:0:
481,68,65083,5,2,0:2:0:0:
157,290,65483,1,2,0:0:0:0:
83,248,65683,1,2,0:0:0:0:
58,156,65883,1,0,0:0:0:0:
113,92,66083,1,2,0:0:0:0:
441,83,66283,1,8,0:0:0:0:
190,296,66683,5,8,0:0:0:0:
270,241,66883,1,2,0:0:0:0:
247,141,67083,1,2,0:0:0:0:
157,110,67283,1,2,0:0:0:0:
427,333,67483,6,0,L|336:341,1,79.9999952316285,6|0,0:0|0:0,0:0:0:0:
157,276,67883,1,0,0:0:0:0:
314,277,68083,2,0,P|413:245|436:179,1,159.999990463257,2|2,0:0|0:0,0:0:0:0:
207,172,68683,2,0,L|283:126,1,79.9999952316285,8|0,0:0|0:0,0:0:0:0:
96,89,69083,1,0,0:0:0:0:
290,94,69283,2,0,P|356:114|359:209,1,159.999990463257,2|2,0:0|0:0,0:0:0:0:
81,342,69883,6,0,L|276:319,1,159.999990463257,2|2,0:0|0:2,0:0:0:0:
121,201,70483,2,0,P|67:154|127:114,1,159.999990463257,2|2,0:0|0:0,0:0:0:0:
381,336,71083,2,0,P|305:284|236:272,1,159.999990463257,8|2,0:0|0:2,0:0:0:0:
371,180,71683,1,2,0:0:0:0:
442,148,71883,1,4,0:2:0:0:
464,71,72083,1,2,0:0:0:0:
145,296,72283,6,0,P|92:272|147:192,1,159.999990463257,6|2,0:0|0:2,0:0:0:0:
286,179,72883,2,0,L|228:117,1,79.9999952316285,2|0,0:0|0:0,0:0:0:0:
382,100,73283,1,2,0:0:0:0:
114,328,73483,2,0,P|76:258|97:165,1,159.999990463257,8|0,0:0|0:0,0:0:0:0:
278,161,74083,2,0,L|451:179,1,159.999990463257,2|2,0:0|0:0,0:0:0:0:
105,317,74683,6,0,P|54:262|122:199,1,159.999990463257,2|2,0:0|0:2,0:0:0:0:
283,71,75283,1,2,0:0:0:0:
180,142,75483,1,0,0:0:0:0:
373,164,75683,1,2,0:0:0:0:
99,222,75883,2,0,P|102:145|164:63,1,159.999990463257,8|2,0:0|0:2,0:0:0:0:
285,129,76483,1,2,0:0:0:0:
469,131,76683,1,8,0:0:0:0:
369,258,76883,1,2,0:0:0:0:
87,241,77083,5,6,0:0:0:0:
228,247,77283,2,0,L|199:156,1,79.9999952316285
400,60,77683,2,0,L|334:210,1,159.999990463257,2|2,0:0|0:0,0:0:0:0:
44,339,78283,1,8,0:0:0:0:
217,233,78483,2,0,L|138:226,1,79.9999952316285
349,331,78883,2,0,P|381:265|313:200,1,159.999990463257,2|2,0:0|0:0,0:0:0:0:
54,234,79483,6,0,L|80:73,1,159.999990463257,2|2,0:0|0:2,0:0:0:0:
206,328,80083,2,0,L|93:334,1,79.9999952316285,2|0,0:0|0:0,0:0:0:0:
178,237,80483,1,2,0:0:0:0:
463,289,80683,2,0,L|433:117,1,159.999990463257,8|2,0:0|0:2,0:0:0:0:
331,169,81283,1,2,0:0:0:0:
188,164,81483,1,4,0:2:0:0:
331,169,81683,1,2,0:0:0:0:
56,330,81883,6,0,L|42:155,1,159.999990463257,6|2,0:0|0:2,0:0:0:0:
243,265,82483,2,0,L|409:279,1,159.999990463257,2|2,0:0|0:0,0:0:0:0:
82,96,83083,2,0,L|227:24,1,159.999990463257,10|2,0:0|0:2,0:0:0:0:
363,109,83683,1,8,0:0:0:0:
285,224,83883,1,2,0:2:0:0:
478,226,84083,1,2,0:0:0:0:
215,342,84283,6,0,L|72:292,1,119.999992847443,2|0,0:0|0:0,0:0:0:0:
23,212,84683,2,0,L|160:213,1,119.999992847443,2|0,0:0|0:0,0:0:0:0:
277,165,85083,2,0,P|198:150|190:97,1,119.999992847443,2|0,0:0|0:0,0:0:0:0:
429,84,85483,5,10,0:0:0:0:
190,296,86683,5,4,0:0:0:0:
97,289,86883,1,0,0:0:0:0:
286,251,87083,2,0,L|282:156,1,79.9999952316285,0|0,0:0|0:0,0:0:0:0:
417,87,87483,2,0,L|340:65,1,79.9999952316285,0|0,0:0|0:0,0:0:0:0:
193,65,87883,1,0,0:0:0:0:
471,343,88083,6,0,L|466:250,1,79.9999952316285,2|0,0:0|0:0,0:0:0:0:
298,228,88483,2,0,L|317:142,1,79.9999952316285,2|0,0:0|0:0,0:0:0:0:
419,133,88883,1,2,0:0:0:0:
246,331,89083,6,0,L|164:326,1,79.9999952316285,4|0,0:0|0:0,0:0:0:0:
336,277,89483,2,0,L|416:281,1,79.9999952316285,0|0,0:0|0:0,0:0:0:0:
218,205,89883,2,0,L|133:194,1,79.9999952316285
410,228,90283,6,0,P|421:144|351:133,1,159.999990463257
160,280,90883,2,0,L|119:272,1,39.9999976158142,2|0,0:3|0:0,0:0:0:0:
364,185,91083,2,0,L|431:119,1,79.9999952316285,8|2,0:0|0:0,0:0:0:0:
146,160,91483,6,0,P|113:77|184:63,1,159.999990463257,6|0,0:0|0:0,0:0:0:0:
434,318,92083,2,0,L|257:336,1,159.999990463257,2|2,0:0|0:0,0:0:0:0:
460,210,92683,1,8,0:0:0:0:
268,237,92883,2,0,L|233:152,1,79.9999952316285
418,242,93283,6,0,L|260:174,1,159.999990463257,2|2,0:0|0:0,0:0:0:0:
78,72,93883,1,2,0:0:0:0:
157,335,94083,2,0,L|69:335,1,79.9999952316285
351,345,94483,2,0,P|409:324|413:223,1,159.999990463257,2|2,0:0|0:0,0:0:0:0:
134,300,95083,6,0,P|98:222|146:206,1,159.999990463257,8|0,0:0|0:0,0:0:0:0:
334,198,95683,1,2,0:0:0:0:
239,206,95883,1,2,0:0:0:0:
377,108,96083,1,2,0:0:0:0:
81,246,96283,6,0,P|74:161|128:97,1,159.999990463257,6|0,0:0|0:0,0:0:0:0:
307,109,96883,2,0,L|495:99,1,159.999990463257,2|2,0:0|0:0,0:0:0:0:
131,339,97483,2,0,P|52:281|51:200,1,159.999990463257,8|0,0:0|0:0,0:0:0:0:
254,252,98083,2,0,L|254:148,1,79.9999952316285,2|0,0:0|0:0,0:0:0:0:
142,165,98483,1,2,0:0:0:0:
417,182,98683,6,0,P|454:119|385:45,1,159.999990463257,2|0,0:0|0:0,0:0:0:0:
330,314,99283,2,0,L|428:314,1,79.9999952316285,2|0,0:0|0:0,0:0:0:0:
330,199,99683,1,2,0:0:0:0:
58,324,99883,2,0,P|60:229|116:199,1,159.999990463257,8|0,0:0|0:0,0:0:0:0:
317,195,100483,1,2,0:0:0:0:
215,196,100683,1,8,0:0:0:0:
423,195,100883,1,8,0:0:0:0:
155,115,101083,6,0,L|58:112,1,79.9999952316285,12|0,0:0|0:0,0:0:0:0:
192,298,101483,2,0,L|99:295,1,79.9999952316285
200,154,101883,1,0,0:0:0:0:
112,151,102083,1,2,0:0:0:0:
420,215,102283,2,0,L|234:222,1,159.999990463257,8|0,0:0|0:0,0:0:0:0:
326,130,102883,1,2,0:0:0:0:
159,237,103083,2,0,L|155:150,1,79.9999952316285,0|2,0:0|0:0,0:0:0:0:
439,198,103483,6,0,P|473:122|396:92,1,159.999990463257,2|0,0:0|0:0,0:0:0:0:
293,144,104083,2,0,L|385:141,1,79.9999952316285,2|0,0:0|0:0,0:0:0:0:
201,148,104483,1,2,0:0:0:0:
471,315,104683,2,0,P|462:225|395:210,1,159.999990463257,8|0,0:0|0:0,0:0:0:0:
254,217,105283,1,2,0:0:0:0:
76,207,105483,1,2,0:0:0:0:
165,68,105683,1,2,0:0:0:0:
451,192,105883,6,0,L|372:46,1,159.999990463257,6|0,0:0|0:0,0:0:0:0:
165,68,106483,1,2,0:0:0:0:
239,293,106683,2,0,L|154:311,1,79.9999952316285,0|2,0:0|0:0,0:0:0:0:
420,325,107083,6,0,P|474:252|467:172,1,159.999990463257,8|0,0:0|0:0,0:0:0:0:
277,166,107683,1,2,0:0:0:0:
367,171,107883,2,0,L|369:76,1,79.9999952316285,0|2,0:0|0:0,0:0:0:0:
74,338,108283,2,0,P|60:247|127:235,1,159.999990463257,2|0,0:0|0:0,0:0:0:0:
326,224,108883,1,8,0:0:0:0:
428,148,109083,2,0,L|440:230,1,79.9999952316285,0|2,0:0|0:0,0:0:0:0:
145,332,109483,6,0,L|309:284,1,159.999990463257,8|0,0:0|0:0,0:0:0:0:
82,169,110083,1,2,0:0:0:0:
252,89,110283,1,10,0:0:0:0:
144,37,110483,1,2,0:0:0:0:
430,53,110683,5,2,0:0:0:0:
254,53,111083,1,2,0:0:0:0:
72,53,111483,1,2,0:0:0:0:
255,201,111883,5,2,0:0:0:0:
438,301,112283,1,2,0:0:0:0:
107,296,112683,1,2,0:0:0:0:
399,155,113083,5,2,0:0:0:0:
253,52,113483,1,2,0:0:0:0:
74,53,113883,1,2,0:0:0:0:
255,288,114283,5,2,0:0:0:0:
426,285,114683,1,2,0:0:0:0:
255,110,115083,1,2,0:0:0:0:
59,334,115483,6,0,L|92:154,1,159.999990463257,2|2,0:0|0:0,0:0:0:0:
405,176,116283,1,2,0:0:0:0:
211,167,116683,2,0,P|253:105|349:68,1,159.999990463257,2|2,0:0|0:0,0:0:0:0:
148,248,117483,1,2,0:0:0:0:
441,262,117883,6,0,L|433:78,1,159.999990463257,2|2,0:0|0:0,0:0:0:0:
218,99,118683,2,0,L|52:121,1,159.999990463257,2|2,0:0|0:0,0:0:0:0:
317,315,119483,2,0,L|485:331,1,159.999990463257,2|2,0:0|0:0,0:0:0:0:
236,286,120283,6,0,L|395:281,2,159.999990463257,2|2|2,0:0|0:0|0:0,0:0:0:0:
229,204,121483,1,2,0:0:0:0:
467,111,121883,1,2,0:0:0:0:
254,42,122283,1,2,0:0:0:0:
42,192,122683,5,2,0:0:0:0:
231,122,123083,1,2,0:0:0:0:
99,26,123483,1,2,0:0:0:0:
322,340,123883,2,0,L|498:341,2,159.999990463257,2|2|2,0:0|0:0|0:0,0:0:0:0:
53,194,125083,5,2,0:0:0:0:
330,311,125483,2,0,L|302:141,1,159.999990463257,2|2,0:0|0:0,0:0:0:0:
75,100,126283,5,2,0:0:0:0:
334,214,126683,2,0,L|304:39,1,159.999990463257,2|2,0:0|0:0,0:0:0:0:
58,52,127483,5,10,0:0:0:0:
391,129,127883,2,0,L|421:21,1,79.9999952316285,10|8,0:0|0:0,0:0:0:0:
312,53,128283,1,10,0:0:0:0:
130,142,128483,1,8,0:0:0:0:
291,238,128683,1,10,0:0:0:0:
151,336,129083,5,10,0:0:0:0:
329,329,129283,1,2,0:0:0:0:
241,331,129483,1,10,0:0:0:0:
420,327,129683,1,0,0:0:0:0:
127,154,129883,6,0,P|94:79|158:67,1,159.999990463257,6|0,0:0|0:0,0:0:0:0:
283,67,130483,2,0,L|454:67,1,159.999990463257,2|2,0:0|0:0,0:0:0:0:
184,214,131083,2,0,B|126:172|126:172|186:107,1,159.999990463257,8|0,0:0|0:0,0:0:0:0:
385,143,131683,1,2,0:0:0:0:
276,136,131883,1,0,0:0:0:0:
384,60,132083,1,2,0:0:0:0:
62,326,132283,6,0,L|112:160,1,159.999990463257,2|0,0:0|0:0,0:0:0:0:
305,146,132883,2,0,P|348:70|277:29,1,159.999990463257,2|2,0:0|0:0,0:0:0:0:
123,285,133483,2,0,L|266:211,1,159.999990463257,8|0,0:0|0:0,0:0:0:0:
148,73,134083,2,0,L|49:71,2,79.9999952316285,2|2|2,0:0|0:0|0:0,0:0:0:0:
419,313,134683,6,0,P|455:250|384:205,1,159.999990463257,6|0,0:0|0:0,0:0:0:0:
243,130,135283,2,0,L|410:111,1,159.999990463257,2|2,0:0|0:0,0:0:0:0:
133,334,135883,2,0,B|92:252|92:252|147:181,1,159.999990463257,8|0,0:0|0:0,0:0:0:0:
318,200,136483,1,2,0:0:0:0:
410,163,136683,1,0,0:0:0:0:
417,60,136883,1,2,0:0:0:0:
129,337,137083,6,0,L|30:193,1,159.999990463257,2|0,0:0|0:0,0:0:0:0:
198,121,137683,2,0,L|369:118,1,159.999990463257,2|2,0:0|0:0,0:0:0:0:
81,217,138283,2,0,L|184:217,1,79.9999952316285,8|0,0:0|0:0,0:0:0:0:
53,282,138683,5,0,0:0:0:0:
136,279,138883,1,2,0:0:0:0:
261,169,139083,1,8,0:0:0:0:
182,168,139283,1,2,0:0:0:0:
451,309,139483,6,0,P|469:229|427:143,1,159.999990463257,6|0,0:0|0:0,0:0:0:0:
264,231,140083,2,0,P|206:167|267:114,1,159.999990463257,2|2,0:0|0:0,0:0:0:0:
471,297,140683,2,0,L|454:126,1,159.999990463257,8|0,0:0|0:0,0:0:0:0:
317,123,141283,1,2,0:0:0:0:
202,116,141483,1,0,0:0:0:0:
317,123,141683,1,2,0:0:0:0:
46,332,141883,6,0,L|34:160,1,159.999990463257,2|0,0:0|0:0,0:0:0:0:
200,311,142483,2,0,L|369:302,1,159.999990463257,2|2,0:0|0:0,0:0:0:0:
165,130,143083,2,0,L|93:80,1,79.9999952316285,8|0,0:0|0:0,0:0:0:0:
293,129,143483,2,0,L|392:133,1,79.9999952316285,0|2,0:0|0:0,0:0:0:0:
186,323,143883,2,0,L|178:243,1,79.9999952316285,2|2,0:0|0:0,0:0:0:0:
440,318,144283,6,0,P|459:246|377:235,1,159.999990463257,6|0,0:0|0:0,0:0:0:0:
211,228,144883,2,0,L|319:225,1,79.9999952316285,2|0,0:0|0:0,0:0:0:0:
124,227,145283,1,2,0:0:0:0:
418,250,145483,2,0,L|387:72,1,159.999990463257,8|0,0:0|0:0,0:0:0:0:
191,61,146083,2,0,L|96:67,2,79.9999952316285,2|0|2,0:0|0:0|0:0,0:0:0:0:
450,334,146683,6,0,L|420:161,1,159.999990463257,2|2,0:0|0:0,0:0:0:0:
270,70,147283,2,0,L|433:69,1,159.999990463257,8|2,0:0|0:0,0:0:0:0:
147,242,147883,2,0,L|48:219,1,79.9999952316285,8|6,0:0|0:0,0:0:0:0:
260,152,148283,2,0,L|344:130,1,79.9999952316285,8|2,0:0|0:0,0:0:0:0:
156,125,148683,1,2,0:0:0:0:
186,72,148783,1,0,0:0:0:0:
239,51,148883,1,2,0:0:0:0:
292,44,148983,1,0,0:0:0:0:
100,42,149083,5,6,0:0:0:0:
244,259,149283,2,0,L|151:274,1,79.9999952316285,0|0,0:0|0:0,0:0:0:0:
339,228,149683,2,0,L|373:66,1,159.999990463257,2|2,0:0|0:0,0:0:0:0:
91,342,150283,2,0,L|180:340,1,79.9999952316285,8|0,0:0|0:0,0:0:0:0:
86,226,150683,1,0,0:0:0:0:
260,239,150883,2,0,L|129:142,1,159.999990463257,2|2,0:0|0:0,0:0:0:0:
409,238,151483,6,0,P|456:167|387:143,1,159.999990463257,2|0,0:0|0:0,0:0:0:0:
207,343,152083,2,0,L|390:345,1,159.999990463257,2|2,0:0|0:0,0:0:0:0:
97,341,152683,2,0,L|115:172,1,159.999990463257,8|2,0:0|0:0,0:0:0:0:
282,176,153283,1,2,0:0:0:0:
142,340,153483,2,0,L|54:355,1,79.9999952316285,8|2,0:3|0:0,0:0:0:0:
359,242,153883,6,0,L|344:65,1,159.999990463257,6|0,0:0|0:0,0:0:0:0:
150,88,154483,2,0,L|55:104,2,79.9999952316285,2|0|2,0:0|0:0|0:0,0:0:0:0:
425,255,155083,2,0,B|402:171|402:171|322:148,1,159.999990463257,8|0,0:0|0:0,0:0:0:0:
113,132,155683,1,8,0:0:0:0:
249,137,155883,1,0,0:0:0:0:
385,139,156083,1,2,0:0:0:0:
101,336,156283,6,0,P|68:259|143:247,1,159.999990463257,2|0,0:0|0:0,0:0:0:0:
308,290,156883,2,0,L|211:304,1,79.9999952316285,2|2,0:0|0:0,0:0:0:0:
119,86,157283,1,2,0:0:0:0:
473,249,157483,2,0,L|472:80,1,159.999990463257,8|2,0:0|0:0,0:0:0:0:
266,87,158083,1,8,0:0:0:0:
273,107,158183,1,8,0:0:0:0:
281,127,158283,1,2,0:2:0:0:
102,82,158483,1,2,0:0:0:0:
374,323,158683,6,0,L|280:324,1,79.9999952316285,6|0,0:0|0:0,0:0:0:0:
494,242,159083,1,0,0:0:0:0:
237,179,159283,2,0,L|406:180,1,159.999990463257,2|2,0:0|0:0,0:0:0:0:
133,116,159883,1,8,0:0:0:0:
243,68,160083,1,0,0:0:0:0:
358,66,160283,1,0,0:0:0:0:
92,326,160483,6,0,P|72:253|143:223,1,159.999990463257,2|2,0:0|0:0,0:0:0:0:
431,57,161083,2,0,L|435:228,1,159.999990463257,2|0,0:0|0:0,0:0:0:0:
240,131,161683,2,0,L|284:63,1,79.9999952316285,2|0,0:0|0:0,0:0:0:0:
94,57,162083,1,2,0:0:0:0:
401,337,162283,6,0,P|429:263|404:176,1,159.999990463257,8|2,0:0|0:0,0:0:0:0:
223,189,162883,1,2,0:0:0:0:
312,174,163083,1,2,0:2:0:0:
171,258,163283,1,2,0:0:0:0:
441,236,163483,2,0,L|427:67,1,159.999990463257,6|0,0:0|0:0,0:0:0:0:
221,333,164083,6,0,L|307:192,1,159.999990463257,2|2,0:0|0:0,0:0:0:0:
503,193,164683,2,0,L|327:178,1,159.999990463257,8|0,0:0|0:0,0:0:0:0:
196,209,165283,1,0,0:0:0:0:
258,86,165483,1,2,0:0:0:0:
401,69,165683,1,2,0:0:0:0:
126,334,165883,6,0,P|102:274|140:218,1,119.999992847443,6|0,0:0|0:0,0:0:0:0:
241,214,166283,2,0,L|361:211,1,119.999992847443,6|0,0:0|0:0,0:0:0:0:
218,135,166683,2,0,L|81:136,1,119.999992847443,6|0,0:0|0:0,0:0:0:0:
352,96,167083,5,12,0:0:0:0:
161,274,167483,6,0,L|70:243,1,79.9999952316285,2|8,0:0|0:0,0:0:0:0:
231,245,167883,1,2,0:2:0:0:
391,245,168083,1,4,0:2:0:0:
71,248,168283,6,0,B|74:171|74:171|161:119,1,159.999990463257,6|0,0:0|0:0,0:0:0:0:
310,127,168883,2,0,L|495:141,1,159.999990463257,2|2,0:0|0:0,0:0:0:0:
202,49,169483,1,8,0:0:0:0:
85,341,169883,6,0,P|48:274|59:182,1,159.999990463257
254,187,170483,1,2,0:0:0:0:
366,302,170683,2,0,L|198:323,1,159.999990463257,2|0,0:0|0:0,0:0:0:0:
364,229,171283,1,2,0:0:0:0:
279,234,171483,1,0,0:0:0:0:
437,184,171683,1,2,0:0:0:0:
46,68,171883,5,8,0:0:0:0:
241,66,172283,1,8,0:0:0:0:
400,64,172683,1,8,0:0:0:0:
90,250,173083,5,6,0:0:0:0:
233,250,173483,2,0,L|321:252,1,79.9999952316285,0|2,0:0|0:0,0:0:0:0:
165,137,173883,2,0,L|82:143,1,79.9999952316285,0|2,0:0|0:0,0:0:0:0:
398,190,174283,2,0,P|424:115|387:19,1,159.999990463257,8|0,0:0|0:0,0:0:0:0:
195,229,174883,1,2,0:0:0:0:
80,170,175083,1,0,0:0:0:0:
157,75,175283,1,2,0:0:0:0:
450,343,175483,6,0,L|458:163,1,159.999990463257,2|0,0:0|0:0,0:0:0:0:
285,176,176083,2,0,L|109:202,1,159.999990463257,2|2,0:0|0:0,0:0:0:0:
322,236,176683,2,0,P|368:162|311:110,1,159.999990463257,8|2,0:0|0:0,0:0:0:0:
140,161,177283,1,2,0:0:0:0:
280,165,177483,1,8,0:0:0:0:
440,175,177683,1,8,0:0:0:0:
51,336,177883,6,0,P|53:254|111:208,1,159.999990463257,6|0,0:0|0:0,0:0:0:0:
330,202,178483,2,0,L|424:201,2,79.9999952316285,2|0|2,0:0|0:0|0:0,0:0:0:0:
35,169,179083,2,0,P|52:85|123:65,1,159.999990463257,8|0,0:0|0:0,0:0:0:0:
288,60,179683,2,0,L|392:57,1,79.9999952316285,2|0,0:0|0:0,0:0:0:0:
208,62,180083,1,2,0:0:0:0:
480,320,180283,6,0,L|456:144,1,159.999990463257,6|0,0:0|0:0,0:0:0:0:
267,326,180883,2,0,L|438:323,1,159.999990463257,2|2,0:0|0:0,0:0:0:0:
151,210,181483,2,0,P|125:131|188:128,1,159.999990463257,8|8,0:0|0:0,0:0:0:0:
356,98,182083,2,0,L|454:98,2,79.9999952316285,2|8|2,0:0|0:0|0:0,0:0:0:0:
64,336,182683,6,0,L|67:172,1,159.999990463257,6|2,0:0|0:0,0:0:0:0:
231,161,183283,2,0,L|127:166,1,79.9999952316285,8|0,0:0|0:0,0:0:0:0:
35,172,183683,1,2,0:0:0:0:
301,324,183883,2,0,L|400:320,2,79.9999952316285,8|0|2,0:0|0:0|0:0,0:0:0:0:
440,203,184483,2,0,P|477:119|412:90,1,159.999990463257,8|2,0:0|0:0,0:0:0:0:
147,155,185083,6,0,L|26:161,1,119.999992847443,6|0,0:0|0:0,0:0:0:0:
104,248,185483,2,0,L|241:247,1,119.999992847443,2|0,0:0|0:0,0:0:0:0:
379,279,185883,2,0,P|389:241|400:158,1,119.999992847443
195,154,186283,2,0,P|198:93|254:62,1,119.999992847443,8|0,0:0|0:0,0:0:0:0:
371,333,186683,2,0,L|246:315,1,119.999992847443,2|0,0:0|0:0,0:0:0:0:
473,149,187083,5,8,0:0:0:0:
84,297,188683,6,0,B|98:208|98:208|176:172,1,159.999990463257,6|0,0:0|0:0,0:0:0:0:
331,204,189283,2,0,L|485:135,1,159.999990463257,2|2,0:0|0:0,0:0:0:0:
209,136,189883,2,0,L|357:67,1,159.999990463257,8|0,0:0|0:0,0:0:0:0:
139,314,190483,2,0,L|47:313,2,79.9999952316285,2|0|2,0:0|0:0|0:0,0:0:0:0:
429,291,191083,6,0,B|472:218|472:218|396:198,1,159.999990463257,2|0,0:0|0:0,0:0:0:0:
193,227,191683,2,0,L|271:189,1,79.9999952316285,2|0,0:0|0:0,0:0:0:0:
144,145,192083,1,2,0:0:0:0:
472,313,192283,2,0,L|454:146,1,159.999990463257,8|8,0:0|0:0,0:0:0:0:
280,159,192883,1,2,0:0:0:0:
126,175,193083,1,8,0:0:0:0:
167,317,193283,1,2,0:0:0:0:
466,322,193483,6,0,L|465:148,1,159.999990463257,6|0,0:0|0:0,0:0:0:0:
244,110,194083,2,0,L|86:176,1,159.999990463257,2|2,0:0|0:0,0:0:0:0:
388,256,194683,2,0,L|448:96,1,159.999990463257,8|0,0:0|0:0,0:0:0:0:
103,172,195283,1,2,0:0:0:0:
228,154,195483,1,0,0:0:0:0:
106,65,195683,1,2,0:0:0:0:
391,163,195883,6,0,P|433:102|367:67,1,159.999990463257,2|2,0:0|0:0,0:0:0:0:
254,331,196483,2,0,L|413:323,1,159.999990463257,8|2,0:0|0:0,0:0:0:0:
210,218,197083,2,0,L|132:197,1,79.9999952316285,8|0,0:0|0:0,0:0:0:0:
373,126,197483,2,0,L|372:22,1,79.9999952316285,2|8,0:0|0:0,0:0:0:0:
317,47,197783,1,0,0:0:0:0:
158,95,197883,2,0,L|60:75,1,79.9999952316285,8|8,0:0|0:0,0:0:0:0:
415,342,198283,6,0,P|449:288|385:227,1,159.999990463257,6|0,0:0|0:0,0:0:0:0:
160,173,198883,2,0,P|129:87|185:55,1,159.999990463257,2|2,0:0|0:0,0:0:0:0:
388,314,199483,2,0,L|213:338,1,159.999990463257,8|0,0:0|0:0,0:0:0:0:
343,242,200083,1,2,0:0:0:0:
404,176,200283,1,0,0:0:0:0:
363,106,200483,1,2,0:0:0:0:
83,335,200683,6,0,L|213:211,1,159.999990463257,2|0,0:0|0:0,0:0:0:0:
361,173,201283,2,0,L|207:110,1,159.999990463257,2|2,0:0|0:0,0:0:0:0:
410,174,201883,2,0,L|411:273,1,79.9999952316285,8|0,0:0|0:0,0:0:0:0:
243,118,202283,2,0,L|145:130,1,79.9999952316285,8|2,0:0|0:0,0:0:0:0:
360,54,202683,2,0,L|470:44,1,79.9999952316285,8|2,0:0|0:0,0:0:0:0:
168,174,203083,6,0,P|125:131|203:71,1,159.999990463257,6|0,0:0|0:0,0:0:0:0:
309,323,203683,2,0,L|136:334,1,159.999990463257,2|2,0:0|0:0,0:0:0:0:
436,230,204283,2,0,L|269:237,1,159.999990463257,8|0,0:0|0:0,0:0:0:0:
97,234,204883,1,2,0:0:0:0:
34,172,205083,1,0,0:0:0:0:
99,117,205283,1,2,0:0:0:0:
391,117,205483,6,0,L|477:115,2,79.9999952316285,8|2|8,0:0|0:0|0:0,0:0:0:0:
199,131,206083,1,8,0:0:0:0:
110,131,206283,1,0,0:0:0:0:
203,219,206483,1,2,0:0:0:0:
422,275,206683,2,0,L|360:326,1,79.9999952316285,8|0,0:0|0:0,0:0:0:0:
87,299,207083,1,2,0:0:0:0:
241,204,207283,1,2,0:0:0:0:
89,196,207483,1,8,0:0:0:0:
47,151,207583,1,0,0:0:0:0:
74,97,207683,1,8,0:0:0:0:
128,80,207783,1,0,0:0:0:0:
390,89,207883,5,6,0:0:0:0:
229,355,208083,2,0,L|232:269,1,79.9999952316285,0|0,0:0|0:0,0:0:0:0:
437,268,208483,2,0,L|490:198,1,79.9999952316285,2|0,0:0|0:0,0:0:0:0:
370,166,208883,1,2,0:0:0:0:
110,161,209083,1,8,0:0:0:0:
265,160,209283,1,0,0:0:0:0:
420,167,209483,1,0,0:0:0:0:
305,283,209683,2,0,L|214:292,1,79.9999952316285,2|0,0:0|0:0,0:0:0:0:
106,300,210083,1,2,0:0:0:0:
394,303,210283,6,0,P|432:229|379:218,1,159.999990463257,6|0,0:0|0:0,0:0:0:0:
254,118,210883,2,0,L|422:111,1,159.999990463257,2|2,0:0|0:0,0:0:0:0:
131,332,211483,2,0,P|81:307|131:241,1,159.999990463257,8|2,0:0|0:0,0:0:0:0:
322,114,212083,1,2,0:0:0:0:
220,116,212283,1,8,0:0:0:0:
423,111,212483,1,2,0:0:0:0:
122,325,212683,6,0,L|40:324,2,79.9999952316285,6|0|0,0:0|0:0|0:0,0:0:0:0:
383,329,213283,2,0,P|372:251|299:231,1,159.999990463257,2|2,0:0|0:0,0:0:0:0:
164,106,213883,2,0,L|333:85,1,159.999990463257,8|2,0:0|0:0,0:0:0:0:
171,296,214483,2,0,L|254:287,1,79.9999952316285,8|0,0:0|0:0,0:0:0:0:
439,278,214883,1,2,0:0:0:0:
169,64,215083,5,6,0:0:0:0:
58,100,215283,1,0,0:0:0:0:
133,172,215483,1,2,0:0:0:0:
422,299,215683,2,0,L|439:129,1,159.999990463257,8|2,0:0|0:0,0:0:0:0:
244,127,216283,1,8,0:0:0:0:
169,125,216483,1,0,0:0:0:0:
446,327,216683,6,0,L|435:229,1,79.9999952316285,2|8,0:0|0:0,0:0:0:0:
357,254,216983,1,8,0:0:0:0:
272,254,217083,2,0,L|372:254,1,79.9999952316285,8|2,0:0|0:0,0:0:0:0:
78,174,217483,5,6,0:0:0:0:
261,182,217683,2,0,L|352:184,1,79.9999952316285
58,345,218083,2,0,P|56:261|91:189,1,159.999990463257,2|2,0:0|0:0,0:0:0:0:
368,271,218683,2,0,L|335:196,1,79.9999952316285,8|0,0:0|0:0,0:0:0:0:
161,196,219083,1,0,0:0:0:0:
427,189,219283,2,0,P|460:116|405:54,1,159.999990463257,2|2,0:0|0:0,0:0:0:0:
112,335,219883,6,0,P|45:274|38:196,1,159.999990463257,6|0,0:0|0:0,0:0:0:0:
183,197,220483,2,0,L|277:202,2,79.9999952316285,2|0|2,0:0|0:0|0:0,0:0:0:0:
468,286,221083,2,0,L|441:125,1,159.999990463257,8|2,0:0|0:0,0:0:0:0:
245,289,221683,1,2,0:0:0:0:
156,288,221883,1,2,0:2:0:0:
331,283,222083,1,2,0:0:0:0:
52,277,222283,6,0,P|40:198|49:106,1,159.999990463257,6|0,0:0|0:0,0:0:0:0:
176,310,222883,2,0,L|74:336,1,79.9999952316285,2|0,0:0|0:0,0:0:0:0:
215,223,223283,1,2,0:0:0:0:
472,343,223483,2,0,L|477:178,1,159.999990463257,8|0,0:0|0:0,0:0:0:0:
373,111,224083,1,8,0:0:0:0:
285,62,224283,1,0,0:0:0:0:
179,66,224483,1,2,0:0:0:0:
476,350,224683,6,0,L|463:225,1,119.999992847443,6|0,0:0|0:0,0:0:0:0:
350,179,225083,2,0,L|471:152,1,119.999992847443,6|0,0:0|0:0,0:0:0:0:
371,83,225483,2,0,L|239:78,1,119.999992847443,6|0,0:0|0:0,0:0:0:0:
504,71,225883,5,12,0:0:0:0:
158,155,227083,5,4,0:0:0:0:
307,148,227483,2,0,L|484:141,1,159.999990463257,2|2,0:0|0:0,0:0:0:0:
204,304,228683,2,0,L|39:310,1,159.999990463257,2|2,0:0|0:0,0:0:0:0:
303,221,229883,2,0,L|339:47,1,159.999990463257,2|2,0:0|0:0,0:0:0:0:
142,242,231083,2,0,L|68:71,1,159.999990463257,2|2,0:0|0:0,0:0:0:0:
382,92,231883,5,4,0:0:0:0:
214,89,232283,2,0,L|36:94,1,159.999990463257,2|2,0:0|0:0,0:0:0:0:
299,286,233483,2,0,L|475:281,1,159.999990463257,2|2,0:0|0:0,0:0:0:0:
371,116,234083,5,2,0:0:0:0:
109,299,234283,1,8,0:0:0:0:
360,271,234683,5,8,0:0:0:0:
464,200,234883,1,2,0:0:0:0:
364,131,235083,1,2,0:0:0:0:
250,126,235283,1,2,0:0:0:0:
410,37,235483,1,8,0:0:0:0:
163,176,235883,5,2,0:0:0:0:
91,137,236083,1,2,0:0:0:0:
64,54,236283,1,2,0:0:0:0:
405,63,236683,5,6,0:0:0:0:
212,168,237083,2,0,L|167:87,1,79.9999952316285,0|2,0:0|0:0,0:0:0:0:
284,109,237483,2,0,L|340:32,1,79.9999952316285,0|2,0:0|0:0,0:0:0:0:
119,41,237883,5,8,0:0:0:0:
318,349,238283,2,0,L|343:249,1,79.9999952316285,0|2,0:0|0:0,0:0:0:0:
457,262,238683,2,0,L|420:169,1,79.9999952316285,2|2,0:2|0:0,0:0:0:0:
256,156,239083,5,2,0:0:0:0:
86,335,239483,2,0,L|81:243,1,79.9999952316285,2|2,0:2|0:0,0:0:0:0:
208,328,239883,2,0,L|296:296,1,79.9999952316285,2|2,0:2|0:0,0:0:0:0:
77,112,240283,5,8,0:0:0:0:
409,320,240683,2,0,L|433:240,1,79.9999952316285,2|2,0:2|0:0,0:0:0:0:
112,231,241083,5,8,0:0:0:0:
43,171,241283,1,8,0:0:0:0:
333,98,241483,1,6,0:0:0:0:
357,200,241883,2,0,L|323:123,1,79.9999952316285,0|2,0:0|0:0,0:0:0:0:
137,343,242283,2,0,L|227:334,1,79.9999952316285,0|2,0:0|0:0,0:0:0:0:
110,175,242683,5,8,0:0:0:0:
300,221,243083,2,0,L|276:138,1,79.9999952316285,0|2,0:0|0:0,0:0:0:0:
471,58,243483,2,0,L|390:59,1,79.9999952316285,2|2,0:2|0:0,0:0:0:0:
103,180,243883,6,0,P|55:105|116:88,1,159.999990463257,2|2,0:0|0:2,0:0:0:0:
232,320,244483,2,0,L|63:339,1,159.999990463257,2|2,0:0|0:0,0:0:0:0:
337,233,245083,2,0,P|399:183|406:103,1,159.999990463257,12|2,0:0|0:2,0:0:0:0:
204,177,245683,1,2,0:0:0:0:
123,118,245883,1,8,0:0:0:0:
202,67,246083,1,8,0:0:0:0:
483,65,246283,5,6,0:0:0:0:
273,319,246683,2,0,L|273:222,1,79.9999952316285,2|2,0:2|0:0,0:0:0:0:
66,311,247083,2,0,L|86:223,1,79.9999952316285,2|2,0:2|0:0,0:0:0:0:
270,137,247483,5,8,0:0:0:0:
230,294,247883,2,0,L|318:296,1,79.9999952316285,2|2,0:2|0:0,0:0:0:0:
118,146,248283,2,0,L|30:145,1,79.9999952316285,2|2,0:2|0:0,0:0:0:0:
249,148,248683,5,2,0:0:0:0:
130,322,249083,2,0,L|136:216,1,79.9999952316285,2|2,0:2|0:0,0:0:0:0:
315,273,249483,2,0,L|252:200,1,79.9999952316285,2|2,0:2|0:0,0:0:0:0:
43,121,249883,5,8,0:0:0:0:
306,133,250283,2,0,L|211:128,1,79.9999952316285,2|2,0:2|0:0,0:0:0:0:
483,232,250683,5,8,0:0:0:0:
430,169,250883,1,8,0:0:0:0:
150,159,251083,1,6,0:0:0:0:
328,316,251483,2,0,L|289:212,1,79.9999952316285,2|2,0:2|0:0,0:0:0:0:
92,272,251883,2,0,L|144:203,1,79.9999952316285,2|2,0:2|0:0,0:0:0:0:
302,155,252283,5,8,0:0:0:0:
90,229,252683,2,0,L|91:148,1,79.9999952316285,2|2,0:2|0:0,0:0:0:0:
265,329,253083,2,0,L|167:333,1,79.9999952316285,2|2,0:2|0:0,0:0:0:0:
445,315,253483,6,0,P|483:234|416:208,1,159.999990463257,2|2,0:0|0:2,0:0:0:0:
229,229,254083,2,0,L|54:234,1,159.999990463257,2|2,0:0|0:0,0:0:0:0:
385,338,254683,2,0,L|429:169,1,159.999990463257,12|2,0:0|0:2,0:0:0:0:
234,242,255283,1,2,0:0:0:0:
214,141,255483,1,8,0:0:0:0:
319,131,255683,1,8,0:0:0:0:
51,134,255883,5,6,0:0:0:0:
273,339,256283,2,0,L|250:237,1,79.9999952316285,2|2,0:2|0:0,0:0:0:0:
421,202,256683,2,0,L|444:116,1,79.9999952316285,2|2,0:2|0:0,0:0:0:0:
204,188,257083,5,8,0:0:0:0:
415,184,257483,2,0,L|433:89,1,79.9999952316285,2|2,0:2|0:0,0:0:0:0:
253,328,257883,2,0,L|160:330,1,79.9999952316285,2|2,0:2|0:0,0:0:0:0:
358,167,258283,5,2,0:0:0:0:
113,275,258683,2,0,L|96:181,1,79.9999952316285,2|2,0:2|0:0,0:0:0:0:
295,160,259083,2,0,L|310:65,1,79.9999952316285,2|2,0:2|0:0,0:0:0:0:
94,66,259483,5,8,0:0:0:0:
291,304,259883,2,0,L|204:308,1,79.9999952316285,2|2,0:2|0:0,0:0:0:0:
418,93,260283,2,0,L|305:102,1,79.9999952316285,8|8,0:0|0:0,0:0:0:0:
51,95,260683,5,6,0:0:0:0:
262,300,261083,2,0,L|319:232,1,79.9999952316285,2|10,0:2|0:0,0:0:0:0:
153,74,261483,2,0,L|233:69,1,79.9999952316285,2|2,0:2|0:0,0:0:0:0:
85,170,261883,5,8,0:0:0:0:
276,288,262283,1,2,0:2:0:0:
198,270,262483,1,10,0:0:0:0:
304,121,262683,1,2,0:2:0:0:
225,104,262883,1,2,0:0:0:0:
500,60,263083,5,6,0:0:0:0:
460,301,263683,1,2,0:2:0:0:
100,317,264283,5,12,0:0:0:0:
45,54,264883,1,2,0:2:0:0:
452,53,265483,5,6,0:0:0:0:
256,192,265683,12,0,275083,0:0:0:0:
