osu file format v14

[General]
AudioFilename: audio.mp3
AudioLeadIn: 0
PreviewTime: 164532
Countdown: 0
SampleSet: Soft
StackLeniency: 1
Mode: 0
LetterboxInBreaks: 0
WidescreenStoryboard: 1

[Editor]
Bookmarks: 23104,23639,74532,75604
DistanceSpacing: 2.2
BeatDivisor: 3
GridSize: 4
TimelineZoom: 0.7999998

[Metadata]
Title:My Heart Is Buried In Venice
TitleUnicode:My Heart Is Buried In Venice
Artist:Ricky Montgomery
ArtistUnicode:Ricky Montgomery
Creator:Yuuya_ke
Version:Chapter II
Source:
Tags:hantrik mpg mappers' guild featured artist fa & the honeysticks alternative english
BeatmapID:2624867
BeatmapSetID:1261423

[Difficulty]
HPDrainRate:3
CircleSize:3.8
OverallDifficulty:7
ApproachRate:7.5
SliderMultiplier:1.5
SliderTickRate:1

[Events]
//Background and Video events
0,0,"ok.jpg",0,0
//Break Periods
2,172768,176921
//Storyboard Layer 0 (Background)
//Storyboard Layer 1 (Fail)
//Storyboard Layer 2 (Pass)
//Storyboard Layer 3 (Foreground)
//Storyboard Layer 4 (Overlay)
//Storyboard Sound Samples

[TimingPoints]
604,535.714285714286,6,2,2,30,1,0
19889,-100,6,2,2,40,0,0
22032,-100,6,2,2,30,0,0
33639,-100,6,2,2,40,0,0
34354,-100,6,2,2,30,0,0
46496,-100,6,2,2,40,0,0
46675,-100,6,2,2,30,0,0
52032,-100,6,2,2,40,0,0
52836,-100,6,2,2,30,0,0
53639,-100,6,2,2,40,0,0
54443,-100,6,2,2,30,0,0
58461,-100,6,2,2,40,0,0
60604,-100,6,2,2,5,0,0
60648,-100,6,2,2,40,0,0
61675,-86.9565217391304,6,2,1,50,0,0
103282,-86.9565217391304,6,2,1,5,0,0
103461,-86.9565217391304,6,2,1,50,0,0
105068,-86.9565217391304,6,2,1,60,0,1
105112,-86.9565217391304,6,2,1,60,0,0
106675,-80,6,2,1,60,0,0
121139,-80,6,2,1,70,0,0
121675,-80,6,2,1,60,0,0
129175,-80,6,2,1,70,0,0
130246,-80,6,2,1,60,0,0
131675,-80,6,2,1,70,0,0
135961,-80,6,2,1,5,0,0
136139,-80,6,2,1,70,0,0
136496,-80,6,2,1,5,0,0
136675,-80,6,2,1,70,0,0
137032,-80,6,2,1,5,0,0
137211,-80,6,2,1,70,0,0
138282,-80,6,2,1,30,0,0
138818,-86.9565217391304,6,2,1,60,0,0
166139,-86.9565217391304,6,2,1,30,0,0
177389,-86.9565217391304,6,2,1,20,0,0
178996,-86.9565217391304,6,2,1,15,0,0
179532,-86.9565217391304,6,2,1,10,0,0
180068,-86.9565217391304,6,2,1,5,0,0
180604,-86.9565217391304,6,2,1,5,0,0

[Colours]
Combo1 : 148,177,174
Combo2 : 180,228,233
Combo3 : 186,207,207
Combo4 : 164,208,189

[HitObjects]
27,177,425,5,8,0:0:0:0:
27,177,604,2,0,P|98:190|153:134,1,150,2|0,3:2|0:0,0:0:0:0:
223,16,1496,1,2,0:0:0:0:
223,16,1675,2,0,L|240:128,1,100,2|0,0:0|0:0,0:0:0:0:
320,143,2211,6,0,B|396:142|388:114|473:115,1,150,10|0,0:0|0:0,0:0:0:0:
500,253,3104,1,2,0:0:0:0:
500,253,3282,2,0,B|489:305|481:362,1,100,2|0,0:0|0:0,0:0:0:0:
394,322,3818,6,0,P|356:363|269:347,1,150,2|0,3:2|0:0,0:0:0:0:
195,228,4711,1,2,0:0:0:0:
195,228,4889,2,0,L|294:216,1,100,2|2,0:0|0:0,0:0:0:0:
377,263,5425,6,0,B|402:206|362:172|388:113,1,150,10|0,0:0|0:0,0:0:0:0:
303,13,6318,1,2,0:0:0:0:
303,13,6496,2,0,P|294:62|287:111,1,100,10|0,0:0|0:0,0:0:0:0:
207,156,7032,6,0,P|137:167|48:180,1,150,0|2,3:0|0:0,0:0:0:0:
0,300,7925,1,2,0:0:0:0:
159,384,8639,6,0,P|216:336|288:358,1,150,10|0,0:0|0:0,0:0:0:0:
410,294,9532,1,0,0:0:0:0:
338,249,9711,1,10,0:0:0:0:
338,249,10246,6,0,P|348:177|361:93,1,150,2|0,3:2|0:0,0:0:0:0:
492,22,11139,1,2,0:0:0:0:
492,22,11318,2,0,P|438:18|362:9,1,100,2|0,0:0|0:0,0:0:0:0:
324,77,11854,6,0,P|253:111|161:86,1,150,10|0,0:0|0:0,0:0:0:0:
94,17,12746,1,2,0:0:0:0:
94,17,12925,1,10,0:0:0:0:
31,192,13461,6,0,P|20:128|0:34,2,150,2|2|2,3:2|0:0|0:0,0:0:0:0:
164,106,14889,1,2,0:0:0:0:
164,106,15068,2,0,P|217:152|303:134,1,150,8|2,0:0|0:0,0:0:0:0:
388,14,16139,1,10,0:0:0:0:
498,99,16496,5,2,0:0:0:0:
498,99,16675,2,0,B|517:164|473:190|493:254,1,150,0|0,3:0|0:0,0:0:0:0:
435,371,17568,2,0,P|389:316|299:325,1,150,2|2,0:0|0:0,0:0:0:0:
235,357,18282,5,10,0:0:0:0:
388,226,18818,1,0,0:0:0:0:
238,158,19175,1,2,0:0:0:0:
238,158,19354,2,0,P|246:214|254:268,1,100,10|2,0:0|0:0,0:0:0:0:
182,313,19889,6,0,P|88:303|50:234,2,150,2|2|2,3:2|0:0|0:0,0:0:0:0:
342,265,21318,1,2,0:0:0:0:
412,313,21496,6,0,P|418:247|424:160,1,150,8|2,0:0|0:0,0:0:0:0:
335,0,22568,1,10,0:0:0:0:
484,76,22925,5,2,0:0:0:0:
484,76,23104,2,0,B|445:64|412:88|412:88|372:69|332:87,1,150,0|0,3:0|0:0,0:0:0:0:
217,27,23996,1,2,0:0:0:0:
217,27,24175,2,0,L|209:84,2,50,2|0|2,0:0|0:0|0:0,0:0:0:0:
125,48,24711,6,0,B|97:41|75:15|75:15|86:72|58:101,1,150,10|0,0:0|0:0,0:0:0:0:
15,231,25604,1,2,0:0:0:0:
15,231,25782,2,0,P|62:199|114:209,1,100,10|0,0:0|0:0,0:0:0:0:
109,287,26318,6,0,L|180:147,1,150,2|2,3:2|0:0,0:0:0:0:
187,25,27211,1,2,0:0:0:0:
187,25,27389,2,0,P|166:17|141:7,2,50,0|0|0,0:0|0:0|0:0,0:0:0:0:
269,61,27925,6,0,P|340:75|383:15,1,150,10|2,0:0|0:0,0:0:0:0:
489,118,28818,1,2,0:0:0:0:
489,118,28996,2,0,P|479:171|470:228,1,100,8|0,0:0|0:0,0:0:0:0:
402,266,29532,6,0,B|350:256|350:256|316:280|316:280|256:287,2,150,2|0|2,3:2|0:0|0:0,0:0:0:0:
373,100,31139,2,0,P|298:45|236:54,1,150,10|0,0:0|0:0,0:0:0:0:
157,153,32032,1,2,0:0:0:0:
157,153,32211,2,0,L|54:141,1,100,8|2,0:0|0:0,0:0:0:0:
9,66,32746,5,2,3:2:0:0:
112,236,33282,1,2,0:2:0:0:
39,359,33639,2,0,P|92:319|181:341,1,150,10|0,0:0|0:0,0:0:0:0:
246,280,34354,6,0,P|327:293|405:305,2,150,10|2|10,0:0|0:0|0:0,0:0:0:0:
133,177,35782,1,2,0:0:0:0:
133,177,35961,2,0,B|179:154|221:185|285:152,1,150,0|0,3:0|0:0,0:0:0:0:
358,61,36854,1,0,0:0:0:0:
358,61,37032,2,0,L|364:0,2,50,2|0|0,0:0|0:0|0:0,0:0:0:0:
440,107,37568,6,0,P|461:170|444:264,1,150,8|0,0:2|0:0,0:0:0:0:
354,355,38461,1,0,0:0:0:0:
436,383,38639,1,8,0:0:0:0:
436,383,39175,6,0,P|421:314|406:235,2,150,2|10|10,3:2|0:0|0:0,0:0:0:0:
301,246,40782,1,10,0:0:0:0:
192,330,41139,2,0,P|129:368|40:352,1,150,2|2,0:0|0:0,0:0:0:0:
0,297,41854,1,8,0:0:0:0:
0,297,42389,5,2,3:2:0:0:
73,178,42746,2,0,P|84:114|57:34,1,150,2|8,0:0|0:0,0:0:0:0:
159,60,43461,2,0,P|211:54|267:48,1,100,8|0,0:0|0:0,0:0:0:0:
344,26,43996,6,0,B|362:96|315:111|334:183,1,150,10|0,0:0|0:0,0:0:0:0:
208,245,44889,1,2,0:0:0:0:
208,245,45068,2,0,P|151:251|110:220,1,100,8|0,0:0|0:0,0:0:0:0:
28,246,45604,6,0,P|86:262|114:350,1,150,2|2,3:2|0:0,0:0:0:0:
242,264,46496,1,2,0:0:0:0:
242,264,46675,2,0,P|240:242|238:213,2,50,2|0|0,0:0|0:0|0:0,0:0:0:0:
316,312,47211,6,0,B|379:320|388:278|466:291,1,150,10|0,0:0|0:0,0:0:0:0:
487,151,48104,1,2,0:0:0:0:
487,151,48282,2,0,L|470:-9,1,150,8|0,0:0|3:0,0:0:0:0:
471,1,49354,5,2,0:0:0:0:
324,78,49711,1,2,0:0:0:0:
324,78,49889,2,0,P|359:84|383:90,2,50,0|0|2,0:0|0:0|0:0,0:0:0:0:
251,22,50425,6,0,B|212:24|184:42|184:42|139:39|111:8,1,150,8|0,0:0|0:0,0:0:0:0:
28,133,51318,1,2,0:0:0:0:
28,133,51496,2,0,P|40:182|50:235,1,100,10|0,0:0|0:0,0:0:0:0:
133,259,52032,5,2,3:2:0:0:
278,146,52389,2,0,P|262:223|251:307,1,150,2|2,0:0|0:0,0:0:0:0:
252,293,53639,5,2,0:0:0:0:
155,148,53996,2,0,P|144:81|135:-9,1,150,2|2,0:0|0:0,0:0:0:0:
135,0,55246,5,2,3:2:0:0:
283,79,55604,2,0,B|356:52|408:118|483:81,1,200,2|0,0:0|0:0,0:0:0:0:
478,83,56854,6,0,P|467:38|414:-3,1,100,10|2,0:0|0:0,0:0:0:0:
323,173,57746,1,2,0:0:0:0:
323,173,57925,1,8,0:0:0:0:
134,102,58461,6,0,P|64:77|-6:49,2,150,2|2|2,3:2|0:0|0:0,0:0:0:0:
241,224,59889,1,2,0:0:0:0:
241,224,60068,2,0,B|173:283|81:274|63:221|173:159|176:293,1,250,8|2,0:0|0:0,0:0:0:0:
173,269,61675,6,0,P|155:200|222:125,2,172.500003290176,0|8|8,3:0|0:3|0:3,0:0:0:0:
341,369,63282,5,8,0:0:0:0:
387,215,63639,1,8,0:3:0:0:
208,345,64175,1,10,0:0:0:0:
208,345,64354,1,8,0:0:0:0:
432,297,64889,5,8,0:0:0:0:
322,171,65246,1,8,0:3:0:0:
498,9,65782,2,0,P|519:71|497:120,1,115.000002193451,8|0,0:3|0:0,0:0:0:0:
417,62,66318,5,8,0:0:0:0:
417,62,66496,1,8,0:3:0:0:
274,15,66854,1,8,0:0:0:0:
213,72,67032,1,8,0:3:0:0:
213,72,67211,2,0,P|181:74|145:60,1,57.5000010967255,8|8,0:3|0:3,0:0:0:0:
79,22,67568,1,8,0:0:0:0:
79,22,68104,6,0,P|48:101|70:187,1,172.500003290176,6|0,3:2|1:0,0:0:0:0:
217,284,68996,1,2,0:0:0:0:
141,337,69175,2,0,P|78:357|31:333,1,115.000002193451,0|0,1:0|0:0,0:0:0:0:
136,245,69711,6,0,P|138:191|179:147,1,115.000002193451,10|0,0:0|0:0,0:0:0:0:
279,141,70246,2,0,P|202:121|100:93,1,172.500003290176,2|2,1:2|1:2,0:0:0:0:
256,14,71139,5,0,0:0:0:0:
256,14,71318,2,0,B|320:50|359:1|427:34,1,172.500003290176,2|0,3:2|1:0,0:0:0:0:
507,168,72211,1,0,1:0:0:0:
507,168,72389,2,0,P|499:236|496:295,1,115.000002193451,0|0,1:0|1:0,0:0:0:0:
442,358,72925,6,0,B|407:327|407:327|356:371|282:345,1,172.500003290176,10|0,0:0|1:0,0:0:0:0:
288,347,73996,1,8,0:0:0:0:
335,204,74354,5,2,3:2:0:0:
335,204,74532,2,0,P|259:224|161:187,1,172.500003290176,2|0,3:2|1:0,0:0:0:0:
307,99,75425,1,2,1:2:0:0:
213,103,75604,1,0,1:0:0:0:
213,103,76139,6,0,P|177:32|74:34,1,172.500003290176,10|2,0:0|1:2,0:0:0:0:
11,161,77032,2,0,P|26:226|37:342,1,172.500003290176,2|0,1:2|3:0,0:0:0:0:
115,384,77746,6,0,B|208:393|192:342|287:353,2,172.500003290176,2|0|0,3:2|3:0|3:0,0:0:0:0:
142,213,79175,1,0,0:0:0:0:
44,225,79354,6,0,P|38:170|26:108,1,115.000002193451,8|0,0:0|0:0,0:0:0:0:
45,23,79889,1,0,1:0:0:0:
45,23,80246,1,8,0:0:0:0:
135,42,80425,2,0,P|195:45|247:11,1,115.000002193451,8|2,0:0|3:2,0:0:0:0:
305,81,80961,6,0,B|360:89|408:98|408:98|441:72|417:27,1,172.500003290176,6|0,3:2|1:0,0:0:0:0:
462,193,81854,2,0,P|442:273|517:262,1,172.500003290176,2|2,1:2|1:2,0:0:0:0:
488,371,82568,6,0,P|453:314|344:312,1,172.500003290176,10|2,0:0|1:2,0:0:0:0:
199,373,83461,1,2,1:2:0:0:
199,373,83639,2,0,P|209:315|218:254,1,115.000002193451,0|2,1:0|3:2,0:0:0:0:
281,195,84175,6,0,P|305:130|249:18,1,172.500003290176,2|0,3:2|1:0,0:0:0:0:
116,117,85068,2,0,B|58:131|1:93|1:93|29:149,1,172.500003290176,2|0,1:2|0:0,0:0:0:0:
106,204,85782,6,0,L|85:385,1,172.500003290176,10|0,0:0|1:0,0:0:0:0:
0,216,86675,2,0,P|84:197|116:113,1,172.500003290176,2|2,0:0|0:0,0:0:0:0:
184,205,87389,6,0,B|251:219|285:166|365:189,1,172.500003290176,4|2,3:2|1:2,0:0:0:0:
412,245,88104,2,0,L|401:319,1,57.5000010967255,2|2,0:0|1:2,0:0:0:0:
403,301,88996,6,0,P|331:354|218:317,1,172.500003290176,8|0,0:0|1:0,0:0:0:0:
153,230,89889,1,0,1:0:0:0:
153,230,90068,1,8,0:0:0:0:
274,125,90425,5,2,1:2:0:0:
274,125,90604,2,0,B|287:5|287:5|314:65,1,172.500003290176,6|0,3:2|1:0,0:0:0:0:
412,204,91496,1,8,0:0:0:0:
499,168,91675,1,0,1:0:0:0:
499,168,92211,6,0,P|512:226|500:298,1,115.000002193451,8|8,0:0|0:3,0:0:0:0:
312,375,93104,1,8,0:0:0:0:
312,375,93193,1,8,0:3:0:0:
312,375,93282,2,0,L|442:361,1,115.000002193451,8|2,1:3|1:2,0:0:0:0:
388,265,93818,6,0,P|344:191|234:190,2,172.500003290176,6|2|2,3:2|1:2|1:2,0:0:0:0:
482,16,95425,5,10,0:0:0:0:
347,102,95782,2,0,P|285:95|154:88,1,172.500003290176,2|2,0:0|0:0,0:0:0:0:
12,34,97032,5,2,3:2:0:0:
175,88,97389,2,0,P|162:183|155:321,1,230.000004386902,2|0,0:0|0:0,0:0:0:0:
12,362,98639,6,0,P|21:289|69:302,1,115.000002193451,10|2,0:0|0:0,0:0:0:0:
45,287,99532,2,0,P|90:362|172:345,1,172.500003290176,2|0,0:0|0:0,0:0:0:0:
211,271,100246,6,0,L|187:85,2,172.500003290176,2|2|2,3:2|3:2|3:2,0:0:0:0:
351,379,101854,6,0,P|410:326|505:338,1,172.500003290176,2|2,3:2|3:2,0:0:0:0:
402,202,102746,1,2,0:0:0:0:
402,202,102925,2,0,P|396:144|387:73,1,115.000002193451,0|0,3:2|0:0,0:0:0:0:
299,160,103461,6,0,L|115:136,2,172.500003290176,0|0|0,3:0|3:0|3:0,0:0:0:0:
91,368,105068,6,0,P|-9:311|183:273,1,460.000008773804,14|0,0:0|0:0,0:0:0:0:
183,245,106675,6,0,L|164:47,1,187.5,6|0,3:2|1:0,0:0:0:0:
335,3,107568,1,0,1:0:0:0:
335,3,107746,2,0,P|415:35|456:20,1,125,0|0,1:0|1:0,0:0:0:0:
502,120,108282,6,0,P|436:139|429:252,1,187.5,10|2,0:0|1:2,0:0:0:0:
503,380,109175,1,0,0:0:0:0:
503,380,109354,2,0,P|460:343|378:342,1,125,2|0,1:2|3:0,0:0:0:0:
313,384,109889,6,0,L|124:355,1,187.5,2|0,3:2|1:0,0:0:0:0:
7,263,110782,1,0,1:0:0:0:
7,263,110961,1,0,1:0:0:0:
163,149,111318,1,0,1:0:0:0:
118,229,111496,6,0,P|110:156|90:43,2,187.5,10|2|2,0:0|1:2|3:2,0:0:0:0:
232,107,112925,5,0,3:0:0:0:
232,107,113104,2,0,P|316:109|387:15,1,187.5,2|0,3:2|1:0,0:0:0:0:
206,13,113996,2,0,L|13:33,1,187.5,2|0,1:2|1:0,0:0:0:0:
0,143,114711,6,0,P|50:184|61:246,1,125,10|0,0:0|0:0,0:0:0:0:
35,339,115246,2,0,P|92:317|152:331,1,125,2|0,3:2|1:0,0:0:0:0:
237,384,115782,1,2,3:2:0:0:
237,384,116318,6,0,B|252:312|252:312|244:268|244:268|258:194,1,187.5,6|0,3:2|1:0,0:0:0:0:
148,28,117211,1,0,1:0:0:0:
148,28,117389,2,0,L|162:160,1,125,0|0,1:0|3:0,0:0:0:0:
75,200,117925,6,0,B|114:286|41:315|73:398,1,187.5,10|0,0:0|1:0,0:0:0:0:
209,272,118818,1,8,0:3:0:0:
209,272,118907,1,8,0:3:0:0:
209,272,118996,2,0,P|274:261|346:279,1,125,8|0,0:3|3:0,0:0:0:0:
402,343,119532,6,0,B|452:293|452:293|425:160,1,187.5,6|0,3:2|1:0,0:0:0:0:
318,8,120425,2,0,P|376:75|462:55,1,187.5,2|0,1:2|1:0,0:0:0:0:
329,102,121139,6,0,B|280:114|280:114|143:102,1,187.5,10|2,0:0|1:2,0:0:0:0:
24,226,122032,1,8,0:0:0:0:
24,226,122211,2,0,P|18:167|5:95,1,125,2|0,1:2|3:0,0:0:0:0:
76,9,122746,6,0,L|272:27,1,187.5,6|0,3:2|1:0,0:0:0:0:
395,143,123639,1,2,1:2:0:0:
395,143,123818,1,0,1:0:0:0:
152,281,124354,6,0,L|292:265,1,125,10|0,0:0|0:0,0:0:0:0:
340,358,124889,1,10,0:0:0:0:
340,358,125068,2,0,L|275:351,1,62.5,8|8,0:3|0:3,0:0:0:0:
254,184,125425,5,10,0:0:0:0:
344,214,125604,1,8,0:3:0:0:
430,232,125782,1,8,0:0:0:0:
344,214,125961,6,0,P|404:188|431:63,1,187.5,6|0,3:2|1:0,0:0:0:0:
260,9,126854,1,0,1:0:0:0:
260,9,127032,1,0,1:0:0:0:
152,136,127389,1,2,0:0:0:0:
220,192,127568,6,0,P|159:219|84:198,1,125,10|2,0:0|0:0,0:0:0:0:
346,68,128461,1,2,1:2:0:0:
346,68,128639,2,0,P|407:41|482:62,1,125,8|0,0:0|3:0,0:0:0:0:
492,154,129175,6,0,L|459:349,1,187.5,6|0,3:2|1:0,0:0:0:0:
292,384,130068,2,0,P|284:297|191:283,1,187.5,2|0,3:2|3:0,0:0:0:0:
79,213,130782,6,0,B|160:225|179:176|270:194,1,187.5,10|0,0:0|1:0,0:0:0:0:
366,11,131675,1,10,0:0:0:0:
278,28,131854,1,8,0:3:0:0:
95,0,132211,1,0,3:0:0:0:
10,37,132389,6,0,B|91:24|91:24|127:76|197:62,1,187.5,4|0,3:2|1:0,0:0:0:0:
0,172,133282,1,0,3:0:0:0:
0,172,133461,1,0,1:0:0:0:
148,253,133818,1,0,1:0:0:0:
81,307,133996,6,0,P|177:287|270:270,1,187.5,8|0,1:2|1:0,0:0:0:0:
445,366,134889,1,8,1:2:0:0:
491,287,135068,2,0,P|494:229|499:162,1,125,8|0,1:2|1:0,0:0:0:0:
413,115,135604,6,0,P|447:76|521:66,1,125,2|0,3:2|0:0,0:0:0:0:
400,209,136139,2,0,P|349:210|293:156,1,125,0|0,3:0|0:0,0:0:0:0:
199,86,136675,2,0,P|205:148|211:219,1,125,0|0,3:0|0:0,0:0:0:0:
225,303,137211,5,12,0:0:0:0:
19,209,138818,6,0,P|2:134|88:42,2,172.500003290176,6|0|0,3:2|1:0|1:0,0:0:0:0:
171,84,140246,1,0,1:0:0:0:
239,137,140425,6,0,P|300:131|366:124,1,115.000002193451,10|0,0:0|0:0,0:0:0:0:
411,58,140961,1,0,1:0:0:0:
505,205,141318,1,0,0:0:0:0:
505,205,141496,2,0,P|505:263|496:321,1,115.000002193451,0|0,1:0|3:0,0:0:0:0:
411,347,142032,6,0,P|332:369|272:306,1,172.500003290176,2|0,3:2|1:0,0:0:0:0:
112,350,142925,1,0,1:0:0:0:
112,350,143104,2,0,P|113:293|70:239,1,115.000002193451,0|0,1:0|0:0,0:0:0:0:
74,245,143550,1,2,0:0:0:0:
68,244,143639,6,0,P|56:166|40:63,2,172.500003290176,10|0|0,0:0|1:0|1:0,0:0:0:0:
212,149,145068,1,0,3:0:0:0:
167,231,145246,6,0,B|144:358|144:358|186:328,1,172.500003290176,6|0,3:2|1:0,0:0:0:0:
327,260,146139,2,0,P|297:264|260:265,1,57.5000010967255,0|0,1:0|1:0,0:0:0:0:
507,158,146854,6,0,P|461:99|359:90,1,172.500003290176,10|0,0:0|1:0,0:0:0:0:
224,165,147746,1,2,1:2:0:0:
224,165,147925,2,0,P|219:108|210:39,1,115.000002193451,0|0,1:0|0:0,0:0:0:0:
114,99,148461,6,0,B|-12:82|-12:82|11:95|25:114,1,172.500003290176,2|8,3:2|0:0,0:0:0:0:
206,15,149532,1,0,1:0:0:0:
335,81,149889,1,8,0:0:0:0:
419,41,150068,6,0,P|430:96|425:166,1,115.000002193451,0|0,3:0|3:0,0:0:0:0:
309,348,150961,1,8,0:0:0:0:
376,281,151139,2,0,P|317:258|262:265,1,115.000002193451,0|0,3:0|0:0,0:0:0:0:
180,316,151675,6,0,P|112:265|0:293,2,172.500003290176,6|0|0,3:2|1:0|1:2,0:0:0:0:
307,178,153104,1,0,1:0:0:0:
375,234,153282,6,0,L|393:118,1,115.000002193451,10|0,0:0|0:0,0:0:0:0:
351,33,153818,2,0,L|368:161,1,115.000002193451,0|0,1:0|1:0,0:0:0:0:
385,227,154354,2,0,L|403:111,1,115.000002193451,0|0,1:0|3:0,0:0:0:0:
474,253,154889,6,0,B|416:226|376:284|297:255,1,172.500003290176,2|0,3:2|1:0,0:0:0:0:
178,340,155782,1,0,0:0:0:0:
178,340,155961,2,0,P|174:286|167:205,1,115.000002193451,0|2,1:0|0:0,0:0:0:0:
82,196,156496,6,0,P|94:108|110:21,1,172.500003290176,8|0,0:0|1:0,0:0:0:0:
109,25,157389,1,8,3:0:0:0:
196,80,157568,5,8,0:3:0:0:
282,62,157746,1,8,0:3:0:0:
361,39,157925,1,8,0:3:0:0:
282,62,158104,6,0,L|253:239,1,172.500003290176,6|0,3:2|1:0,0:0:0:0:
117,342,158996,2,0,B|193:363|249:324|249:324|288:355,1,172.500003290176,0|0,3:0|3:0,0:0:0:0:
334,266,159711,6,0,P|423:276|505:285,1,172.500003290176,10|0,0:0|1:0,0:0:0:0:
463,93,160604,1,8,0:0:0:0:
463,93,160782,2,0,P|483:149|451:211,1,115.000002193451,0|0,1:0|0:0,0:0:0:0:
379,148,161318,6,0,L|203:118,2,172.500003290176,2|0|8,3:2|3:0|0:0,0:0:0:0:
250,232,162657,2,0,L|195:260,1,57.5000010967255,0|8,3:0|0:0,0:0:0:0:
198,258,162925,6,0,L|323:240,1,115.000002193451,8|0,0:0|3:0,0:0:0:0:
311,241,163818,1,0,3:0:0:0:
217,298,163996,2,0,P|121:298|84:232,1,172.500003290176,0|4,3:0|3:2,0:0:0:0:
106,0,166139,5,0,0:0:0:0:
321,78,167746,1,2,0:0:0:0:
137,114,169354,1,2,0:0:0:0:
292,184,170961,1,0,0:0:0:0:
171,227,172568,1,2,0:0:0:0:
256,192,177746,12,0,180604,0:0:0:0:
