osu file format v14

[General]
AudioFilename: audio.mp3
AudioLeadIn: 0
PreviewTime: 164532
Countdown: 0
SampleSet: Soft
StackLeniency: 1
Mode: 0
LetterboxInBreaks: 0
WidescreenStoryboard: 1

[Editor]
Bookmarks: 23104,23639,74532,75604
DistanceSpacing: 1.2
BeatDivisor: 3
GridSize: 4
TimelineZoom: 0.7999998

[Metadata]
Title:My Heart Is Buried In Venice
TitleUnicode:My Heart Is Buried In Venice
Artist:Ricky Montgomery
ArtistUnicode:Ricky Montgomery
Creator:Yuuya_ke
Version:Chapter I
Source:
Tags:hantrik mpg mappers' guild featured artist fa & the honeysticks alternative english
BeatmapID:2625143
BeatmapSetID:1261423

[Difficulty]
HPDrainRate:2.5
CircleSize:3.2
OverallDifficulty:4
ApproachRate:5.5
SliderMultiplier:1.4
SliderTickRate:1

[Events]
//Background and Video events
0,0,"ok.jpg",0,0
//Break Periods
2,172768,176546
//Storyboard Layer 0 (Background)
//Storyboard Layer 1 (Fail)
//Storyboard Layer 2 (Pass)
//Storyboard Layer 3 (Foreground)
//Storyboard Layer 4 (Overlay)
//Storyboard Sound Samples

[TimingPoints]
604,535.714285714286,6,2,2,30,1,0
19889,-100,3,2,2,40,0,0
22032,-100,3,2,2,30,0,0
33639,-100,3,2,2,40,0,0
34354,-100,3,2,2,30,0,0
46496,-100,3,2,2,40,0,0
46675,-100,3,2,2,30,0,0
52032,-100,3,2,2,40,0,0
52836,-100,3,2,2,30,0,0
53639,-100,3,2,2,40,0,0
54443,-100,3,2,2,30,0,0
58461,-100,3,2,2,40,0,0
60604,-100,3,2,2,5,0,0
60648,-100,3,2,2,40,0,0
61675,-94.3396226415094,3,2,1,50,0,0
105068,-94.3396226415094,3,2,1,60,0,1
105112,-94.3396226415094,3,2,1,60,0,0
106675,-90.9090909090909,3,2,1,60,0,0
121139,-90.9090909090909,3,2,1,70,0,0
121675,-90.9090909090909,3,2,1,60,0,0
129175,-90.9090909090909,3,2,1,70,0,0
130246,-90.9090909090909,3,2,1,60,0,0
131675,-90.9090909090909,3,2,1,70,0,0
138282,-90.9090909090909,3,2,1,30,0,0
138818,-94.3396226415094,3,2,1,60,0,0
166139,-94.3396226415094,3,2,1,30,0,0
177389,-94.3396226415094,3,2,1,20,0,0
178996,-94.3396226415094,3,2,1,15,0,0
179532,-94.3396226415094,3,2,1,10,0,0
180068,-94.3396226415094,3,2,1,5,0,0
180604,-94.3396226415094,3,2,1,5,0,0

[Colours]
Combo1 : 148,177,174
Combo2 : 180,228,233
Combo3 : 186,207,207
Combo4 : 164,208,189

[HitObjects]
33,75,425,5,8,0:0:0:0:
39,83,604,2,0,P|98:98|170:26,1,140,2|0,3:2|0:0,0:0:0:0:
254,105,1496,1,2,0:0:0:0:
259,97,1675,2,0,L|377:83,1,93.3333333333333,2|0,0:0|0:0,0:0:0:0:
394,113,2211,6,0,B|410:174|365:191|382:250,1,140,10|0,0:0|0:0,0:0:0:0:
418,345,3104,1,2,0:0:0:0:
411,353,3282,2,0,L|294:335,1,93.3333333333333,2|0,0:0|0:0,0:0:0:0:
270,355,3818,6,0,P|245:291|304:245,1,140,2|0,3:2|0:0,0:0:0:0:
334,143,4711,1,2,0:0:0:0:
329,153,4889,2,0,L|219:142,1,93.3333333333333,2|2,0:0|0:0,0:0:0:0:
199,179,5425,6,0,P|151:194|58:67,1,233.333333333333,10|2,0:0|0:0,0:0:0:0:
93,32,6496,1,10,0:0:0:0:
93,32,7032,6,0,P|131:89|179:156,1,140,0|2,3:0|0:0,0:0:0:0:
240,236,7925,2,0,P|172:238|91:243,1,140,2|0,0:0|0:0,0:0:0:0:
46,257,8639,6,0,B|149:243|157:337|265:325,1,233.333333333333,10|0,0:0|0:0,0:0:0:0:
308,356,9711,1,10,0:0:0:0:
308,356,10246,6,0,L|459:337,1,140,2|0,3:2|0:0,0:0:0:0:
500,242,11139,1,2,0:0:0:0:
491,237,11318,2,0,P|504:193|491:148,1,93.3333333333333,2|0,0:0|0:0,0:0:0:0:
438,128,11854,6,0,B|389:159|335:154|335:154|283:106|308:28,1,233.333333333333,10|2,0:0|0:0,0:0:0:0:
349,6,12925,1,10,0:0:0:0:
199,82,13461,6,0,B|57:56,2,140,2|2|2,3:2|0:0|0:0,0:0:0:0:
274,164,14889,2,0,P|230:130|129:143,1,140,2|0,0:0|0:0,0:0:0:0:
113,175,15604,1,2,0:0:0:0:
113,175,16139,2,0,P|122:223|129:266,1,93.3333333333333,10|2,0:0|0:0,0:0:0:0:
158,310,16675,5,0,3:0:0:0:
321,177,17568,1,2,0:0:0:0:
313,169,17746,2,0,P|268:175|201:176,1,93.3333333333333,0|2,0:0|0:0,0:0:0:0:
173,144,18282,2,0,P|280:152|357:60,1,233.333333333333,10|2,0:0|0:0,0:0:0:0:
333,11,19354,1,10,0:0:0:0:
440,139,19889,6,0,P|450:63|464:-10,2,140,2|2|2,3:2|0:0|0:0,0:0:0:0:
341,192,21318,2,0,P|359:283|342:348,1,140,2|0,0:0|0:0,0:0:0:0:
389,368,22032,2,0,L|296:379,1,93.3333333333333,2|0,0:0|0:0,0:0:0:0:
244,357,22568,1,10,0:0:0:0:
153,297,22925,5,2,0:0:0:0:
149,307,23104,2,0,B|116:295|85:311|85:311|48:296|9:313,1,140,0|0,3:0|0:0,0:0:0:0:
41,197,23996,1,2,0:0:0:0:
47,206,24175,2,0,P|54:148|37:103,1,93.3333333333333,2|2,0:0|0:0,0:0:0:0:
14,67,24711,1,10,0:0:0:0:
158,151,25246,2,0,P|217:144|254:140,1,93.3333333333333,0|2,0:0|0:0,0:0:0:0:
301,164,25782,1,10,0:0:0:0:
466,132,26318,6,0,P|494:184|460:275,1,140,2|2,3:2|0:0,0:0:0:0:
393,336,27211,2,0,P|365:284|399:193,1,140,2|0,0:0|0:0,0:0:0:0:
353,161,27925,2,0,P|345:82|338:18,1,140,10|2,0:0|0:0,0:0:0:0:
238,72,28818,2,0,P|182:76|96:79,1,140,2|0,0:0|0:0,0:0:0:0:
46,57,29532,6,0,P|13:120|59:196,2,140,2|0|2,3:2|0:0|0:0,0:0:0:0:
166,173,31139,2,0,P|151:243|138:323,1,140,10|0,0:0|0:0,0:0:0:0:
39,357,32032,1,2,0:0:0:0:
44,366,32211,2,0,P|85:348|142:354,1,93.3333333333333,8|2,0:0|0:0,0:0:0:0:
184,371,32746,5,2,3:2:0:0:
254,218,33282,1,2,0:2:0:0:
162,154,33639,2,0,P|146:69|166:18,1,140,10|0,0:0|0:0,0:0:0:0:
217,40,34354,2,0,P|300:54|373:64,2,140,10|2|10,0:0|0:0|0:0,0:0:0:0:
117,110,35782,5,2,0:0:0:0:
126,105,35961,2,0,P|154:182|204:228,1,140,0|0,3:0|0:0,0:0:0:0:
315,199,36854,1,0,0:0:0:0:
309,208,37032,2,0,L|292:327,1,93.3333333333333,2|0,0:0|0:0,0:0:0:0:
251,334,37568,5,8,0:2:0:0:
447,261,38461,1,0,0:0:0:0:
456,256,38639,1,8,0:0:0:0:
356,121,39175,6,0,P|430:136|479:90,2,140,2|10|10,3:2|0:0|0:0,0:0:0:0:
223,17,40782,1,10,0:0:0:0:
163,111,41139,2,0,P|240:107|314:103,1,140,2|2,0:0|0:0,0:0:0:0:
356,121,41854,1,8,0:0:0:0:
285,273,42389,5,2,3:2:0:0:
344,368,42746,2,0,P|279:361|200:354,1,140,2|8,0:0|0:0,0:0:0:0:
0,258,43996,2,0,P|6:215|5:164,1,93.3333333333333,10|2,0:0|0:0,0:0:0:0:
103,28,44889,2,0,B|170:20|183:42|252:35,1,140,2|0,0:0|0:0,0:0:0:0:
296,19,45604,6,0,P|300:88|289:157,2,140,2|2|2,3:2|0:0|0:0,0:0:0:0:
169,129,47211,1,10,0:0:0:0:
223,226,47568,2,0,P|275:198|372:218,1,140,0|2,0:0|0:0,0:0:0:0:
380,255,48282,1,8,0:0:0:0:
471,188,48639,5,2,0:0:0:0:
477,196,48818,2,0,P|467:268|457:347,1,140,0|2,3:0|0:0,0:0:0:0:
363,372,49711,1,2,0:0:0:0:
358,381,49889,2,0,P|315:371|255:360,1,93.3333333333333,0|2,0:0|0:0,0:0:0:0:
213,378,50425,1,8,0:0:0:0:
37,264,51318,1,2,0:0:0:0:
31,256,51496,2,0,P|38:210|41:139,1,93.3333333333333,10|0,0:0|0:0,0:0:0:0:
12,115,52032,5,2,3:2:0:0:
109,61,52389,2,0,P|191:51|229:5,1,140,2|2,0:0|0:0,0:0:0:0:
372,181,53639,1,2,0:0:0:0:
275,125,53996,2,0,P|193:115|155:69,1,140,2|2,0:0|0:0,0:0:0:0:
172,299,55246,5,2,3:2:0:0:
150,188,55604,1,2,0:0:0:0:
370,311,56675,1,0,0:0:0:0:
378,304,56854,2,0,P|423:291|479:297,1,93.3333333333333,10|2,0:0|0:0,0:0:0:0:
320,216,57746,2,0,P|291:116|316:71,1,140,2|0,0:0|0:0,0:0:0:0:
331,39,58461,6,0,P|406:51|468:63,2,140,2|2|2,3:2|0:0|0:0,0:0:0:0:
200,144,60068,2,0,B|164:190|102:201|4:165|26:85|65:97|76:128,1,233.333333333333,8|2,0:0|0:0,0:0:0:0:
77,125,61675,6,0,B|89:205|54:195|66:288,2,148.40000022644,0|8|8,3:0|0:3|0:3,0:0:0:0:
219,18,63282,2,0,B|267:40|267:40|314:31,1,98.9333334842936,8|8,0:0|0:3,0:0:0:0:
474,111,64175,1,10,0:0:0:0:
471,122,64354,1,8,0:0:0:0:
323,222,64889,5,8,0:0:0:0:
365,111,65246,2,0,P|293:126|213:143,2,148.40000022644,8|8|8,0:3|0:3|0:0,0:0:0:0:
402,157,66496,1,8,0:3:0:0:
321,234,66854,1,8,0:0:0:0:
317,244,67032,2,0,B|305:295|305:295|331:353,1,98.9333334842936,8|8,0:3|0:3,0:0:0:0:
368,377,67568,1,8,0:0:0:0:
488,248,68104,6,0,P|497:155|470:89,1,148.40000022644,6|0,3:2|1:0,0:0:0:0:
400,15,68996,1,2,0:0:0:0:
392,23,69175,2,0,P|333:41|280:35,1,98.9333334842936,0|0,1:0|0:0,0:0:0:0:
241,16,69711,1,10,0:0:0:0:
146,166,70246,2,0,P|98:156|45:147,1,98.9333334842936,2|0,1:2|1:0,0:0:0:0:
10,102,70782,1,2,1:2:0:0:
158,4,71318,6,0,P|197:85|162:140,1,148.40000022644,2|0,3:2|1:0,0:0:0:0:
74,197,72211,2,0,P|153:218|232:237,1,148.40000022644,0|0,1:0|1:0,0:0:0:0:
265,269,72925,2,0,B|199:261|187:303|107:293,2,148.40000022644,10|0|8,0:0|1:0|0:0,0:0:0:0:
390,142,74532,6,0,P|347:164|243:154,1,148.40000022644,2|0,3:2|1:0,0:0:0:0:
213,44,75425,1,2,1:2:0:0:
216,55,75604,1,0,1:0:0:0:
392,32,76139,1,10,0:0:0:0:
326,198,76675,1,2,1:2:0:0:
404,287,77032,2,0,P|334:254|256:289,1,148.40000022644,2|0,1:2|3:0,0:0:0:0:
239,326,77746,6,0,P|162:337|78:351,1,148.40000022644,2|0,3:2|3:0,0:0:0:0:
212,216,78818,1,0,3:0:0:0:
46,154,79354,2,0,P|30:205|57:270,1,98.9333334842936,8|0,0:0|0:0,0:0:0:0:
168,124,80246,1,8,0:0:0:0:
164,134,80425,2,0,L|150:28,1,98.9333334842936,8|2,0:0|3:2,0:0:0:0:
104,0,80961,6,0,P|184:37|250:8,1,148.40000022644,6|0,3:2|1:0,0:0:0:0:
308,114,81854,2,0,P|382:92|456:138,1,148.40000022644,2|2,1:2|1:2,0:0:0:0:
473,173,82568,2,0,P|403:201|334:228,1,148.40000022644,10|2,0:0|1:2,0:0:0:0:
235,163,83461,2,0,P|161:146|80:125,1,148.40000022644,2|2,1:2|3:2,0:0:0:0:
52,82,84175,6,0,B|40:141|82:167|64:233,1,148.40000022644,2|0,3:2|1:0,0:0:0:0:
17,337,85068,1,2,1:2:0:0:
191,365,85604,1,0,0:0:0:0:
201,367,85782,2,0,B|259:374|259:374|290:357|290:357|363:364,1,148.40000022644,10|0,0:0|1:0,0:0:0:0:
458,334,86675,1,2,0:0:0:0:
296,260,87211,1,2,0:0:0:0:
301,270,87389,1,4,3:2:0:0:
455,184,87925,6,0,P|445:111|436:21,1,148.40000022644,2|0,1:2|1:0,0:0:0:0:
283,127,88996,2,0,P|215:141|122:72,1,148.40000022644,8|0,0:0|1:0,0:0:0:0:
146,107,90068,1,8,0:0:0:0:
63,192,90425,5,2,1:2:0:0:
68,202,90604,2,0,L|229:188,1,148.40000022644,6|0,3:2|1:0,0:0:0:0:
329,223,91496,2,0,P|373:288|336:360,1,148.40000022644,8|0,0:0|0:0,0:0:0:0:
292,361,92211,2,0,L|190:345,1,98.9333334842936,8|8,0:0|0:3,0:0:0:0:
19,302,93104,1,8,0:0:0:0:
24,312,93282,1,8,1:3:0:0:
157,193,93818,6,0,P|242:180|319:167,2,148.40000022644,6|2|2,3:2|1:2|1:2,0:0:0:0:
231,32,95425,1,10,0:0:0:0:
134,100,95782,2,0,P|81:124|-11:113,1,148.40000022644,2|2,0:0|0:0,0:0:0:0:
195,239,97032,1,2,3:2:0:0:
288,313,97389,2,0,P|341:337|473:287,1,197.866666968587,2|0,0:0|0:0,0:0:0:0:
456,116,98639,5,10,0:0:0:0:
377,204,98996,1,2,0:0:0:0:
377,204,99532,2,0,L|211:188,1,148.40000022644,2|0,0:0|0:0,0:0:0:0:
170,182,100246,5,2,3:2:0:0:
324,92,100782,1,2,3:2:0:0:
165,10,101318,1,2,3:2:0:0:
173,185,101854,5,2,3:2:0:0:
327,95,102389,1,2,3:2:0:0:
168,13,102925,1,2,3:2:0:0:
269,159,103461,6,0,P|344:146|439:178,2,148.40000022644,0|0|0,3:0|3:0|3:0,0:0:0:0:
113,245,105068,1,14,0:0:0:0:
113,245,106675,6,0,P|200:256|280:265,2,154.000004699707,6|0|0,3:2|1:0|1:0,0:0:0:0:
17,86,108282,2,0,P|67:90|114:69,1,102.666669799805,10|0,0:0|1:0,0:0:0:0:
158,26,108818,1,2,1:2:0:0:
308,134,109354,1,2,1:2:0:0:
397,49,109711,5,0,3:0:0:0:
404,58,109889,2,0,P|392:139|381:232,1,154.000004699707,2|0,3:2|1:0,0:0:0:0:
472,296,110782,2,0,P|413:340|332:323,1,154.000004699707,0|0,1:0|1:0,0:0:0:0:
292,368,111496,2,0,P|237:360|175:351,1,102.666669799805,10|0,0:0|0:0,0:0:0:0:
135,325,112032,1,2,1:2:0:0:
215,231,112389,1,8,0:0:0:0:
221,240,112568,2,0,P|232:190|242:139,1,102.666669799805,2|0,3:2|3:0,0:0:0:0:
205,90,113104,6,0,P|129:136|47:114,1,154.000004699707,2|0,3:2|1:0,0:0:0:0:
16,238,113996,1,2,1:2:0:0:
124,14,114711,2,0,B|185:2|208:45|278:28,1,154.000004699707,10|2,0:0|3:2,0:0:0:0:
431,127,115782,1,2,3:2:0:0:
269,216,116318,6,0,B|343:197|343:197|349:238|390:267,1,154.000004699707,6|0,3:2|1:0,0:0:0:0:
496,321,117211,1,0,1:0:0:0:
490,311,117389,2,0,P|495:254|502:209,1,102.666669799805,0|0,1:0|3:0,0:0:0:0:
453,172,117925,2,0,P|447:95|441:17,1,154.000004699707,10|0,0:0|1:0,0:0:0:0:
329,71,118818,1,8,0:3:0:0:
318,76,118996,2,0,P|265:70|214:66,1,102.666669799805,8|0,0:3|3:0,0:0:0:0:
164,100,119532,6,0,P|83:109|24:37,1,154.000004699707,6|0,3:2|1:0,0:0:0:0:
22,186,120425,2,0,P|40:262|49:343,1,154.000004699707,2|0,1:2|1:0,0:0:0:0:
97,375,121139,2,0,P|135:315|224:325,1,154.000004699707,10|2,0:0|1:2,0:0:0:0:
320,374,122032,1,8,0:0:0:0:
329,369,122211,1,2,1:2:0:0:
379,259,122568,5,0,3:0:0:0:
367,258,122746,2,0,P|380:190|387:104,1,154.000004699707,6|0,3:2|1:0,0:0:0:0:
291,27,123639,2,0,P|278:95|271:181,1,154.000004699707,2|0,1:2|1:0,0:0:0:0:
281,240,124354,1,10,0:0:0:0:
463,267,124889,6,0,L|476:207,2,51.3333348999024,10|8|8,0:0|0:3|0:3,0:0:0:0:
475,327,125425,2,0,L|491:383,2,51.3333348999024,10|8|8,0:0|0:3|0:0,0:0:0:0:
417,304,125961,6,0,P|342:311|254:321,1,154.000004699707,6|0,3:2|1:0,0:0:0:0:
87,376,127032,1,0,1:0:0:0:
35,264,127389,1,2,0:0:0:0:
29,273,127568,2,0,P|33:216|35:162,1,102.666669799805,10|2,0:0|0:0,0:0:0:0:
212,121,128460,1,2,1:2:0:0:
220,114,128639,2,0,P|216:171|214:225,1,102.666669799805,8|0,0:0|3:0,0:0:0:0:
248,268,129175,6,0,P|180:285|101:243,1,154.000004699707,6|0,3:2|1:0,0:0:0:0:
16,167,130068,2,0,P|25:249|32:328,1,154.000004699707,2|0,3:2|3:0,0:0:0:0:
72,367,130782,2,0,P|141:320|219:345,1,154.000004699707,10|0,0:0|1:0,0:0:0:0:
323,373,131675,1,10,0:0:0:0:
312,367,131854,2,0,P|311:313|312:263,1,102.666669799805,8|0,0:3|3:0,0:0:0:0:
355,221,132389,5,4,3:2:0:0:
212,105,132925,1,0,1:0:0:0:
313,35,133282,1,0,3:0:0:0:
308,44,133461,2,0,P|333:96|314:149,1,102.666669799805,0|0,1:0|1:0,0:0:0:0:
272,172,133996,1,8,1:2:0:0:
435,83,134532,1,0,1:0:0:0:
472,200,134889,1,8,1:2:0:0:
467,210,135068,1,8,1:2:0:0:
307,298,135604,6,0,B|278:285|250:288|250:288|224:269|224:269|194:281|156:276,2,154.000004699707,2|0|0,3:2|3:0|3:0,0:0:0:0:
472,379,137211,1,12,0:0:0:0:
472,379,138818,6,0,P|446:318|458:238,1,148.40000022644,6|0,3:2|1:0,0:0:0:0:
452,119,139711,2,0,P|381:98|292:72,1,148.40000022644,0|0,1:0|1:0,0:0:0:0:
262,113,140425,2,0,B|209:125|170:89|105:103,1,148.40000022644,10|0,0:0|1:0,0:0:0:0:
19,32,141318,1,0,0:0:0:0:
12,41,141496,2,0,P|24:103|20:150,1,98.9333334842936,0|0,1:0|3:0,0:0:0:0:
0,193,142032,6,0,P|85:203|158:212,1,148.40000022644,2|0,3:2|1:0,0:0:0:0:
250,149,142925,1,0,1:0:0:0:
253,159,143104,1,0,1:0:0:0:
384,276,143639,2,0,P|444:228|534:241,2,148.40000022644,10|0|0,0:0|1:0|1:0,0:0:0:0:
303,362,145068,5,0,3:0:0:0:
295,368,145246,2,0,P|233:355|127:333,1,148.40000022644,6|0,3:2|1:0,0:0:0:0:
66,253,146139,2,0,P|39:202|76:110,1,148.40000022644,0|0,1:0|0:0,0:0:0:0:
98,70,146854,2,0,P|155:110|232:91,1,148.40000022644,10|0,0:0|1:0,0:0:0:0:
312,11,147746,1,2,1:2:0:0:
310,21,147925,1,0,1:0:0:0:
418,72,148282,5,0,0:0:0:0:
410,78,148461,2,0,P|425:157|424:234,1,148.40000022644,2|8,3:2|0:0,0:0:0:0:
347,383,149532,1,0,1:0:0:0:
263,299,149889,1,8,0:0:0:0:
272,306,150068,2,0,P|326:299|375:293,1,98.9333334842936,0|0,3:0|3:0,0:0:0:0:
497,170,150961,1,8,0:0:0:0:
492,179,151139,1,0,3:0:0:0:
329,103,151675,6,0,P|380:43|457:48,2,148.40000022644,6|0|0,3:2|1:0|1:2,0:0:0:0:
169,22,153282,1,10,0:0:0:0:
29,133,153818,1,0,1:0:0:0:
169,22,154354,1,0,1:0:0:0:
188,139,154711,5,0,3:0:0:0:
190,149,154889,2,0,L|214:309,1,148.40000022644,2|0,3:2|1:0,0:0:0:0:
318,347,155782,1,0,0:0:0:0:
323,355,155961,1,0,1:0:0:0:
146,382,156496,2,0,P|90:377|30:308,1,148.40000022644,8|0,0:0|1:0,0:0:0:0:
46,192,157389,1,8,3:0:0:0:
54,198,157568,2,0,L|45:147,2,49.4666667421468,8|8|8,0:3|0:3|0:3,0:0:0:0:
86,147,158104,6,0,P|96:74|107:-2,1,148.40000022644,6|0,3:2|1:0,0:0:0:0:
210,58,158996,2,0,P|279:43|370:27,1,148.40000022644,0|0,3:0|3:0,0:0:0:0:
392,75,159711,2,0,P|360:135|359:218,1,148.40000022644,10|0,0:0|1:0,0:0:0:0:
434,305,160604,1,8,0:0:0:0:
437,315,160782,1,0,1:0:0:0:
269,380,161318,6,0,B|223:361|223:361|180:366|180:366|120:343,2,148.40000022644,2|0|8,3:2|3:0|0:0,0:0:0:0:
263,201,162925,1,8,0:0:0:0:
155,149,163282,2,0,P|129:81|164:19,1,148.40000022644,0|0,3:0|3:0,0:0:0:0:
221,5,163996,1,0,3:0:0:0:
47,46,164532,5,4,3:2:0:0:
274,100,166139,1,0,0:0:0:0:
75,160,167746,1,2,0:0:0:0:
255,215,169354,1,2,0:0:0:0:
111,279,170961,1,0,0:0:0:0:
233,326,172568,1,2,0:0:0:0:
256,192,177746,12,0,180604,0:0:0:0:
