osu file format v14

[General]
AudioFilename: audio.mp3
AudioLeadIn: 0
PreviewTime: 32720
Countdown: 0
SampleSet: Soft
StackLeniency: 0.7
Mode: 0
LetterboxInBreaks: 0
WidescreenStoryboard: 1

[Editor]
Bookmarks: 668,2563,17720,32878,36668,40457,44247,48036,61299,63194,78352,84036,85931,93510,97299,101089,104878,108668,121931,123826,138984,154141,161720,176878,192036,199615,206247,207194,222352,235615
DistanceSpacing: 0.8
BeatDivisor: 4
GridSize: 32
TimelineZoom: 2.6

[Metadata]
Title:Line Without a Hook
TitleUnicode:Line Without a Hook
Artist:Ricky Montgomery
ArtistUnicode:Ricky Montgomery
Creator:hypercyte
Version:Insane
Source:osu!
Tags:alternative rock indie english featured artist fa mapper's guild mappers guild mpg hypercute rohmontgomery rickymontgomery the honeysticks full spread
BeatmapID:2234671
BeatmapSetID:1062477

[Difficulty]
HPDrainRate:6
CircleSize:4
OverallDifficulty:7.5
ApproachRate:9
SliderMultiplier:1.6
SliderTickRate:1

[Events]
//Background and Video events
0,0,"4 without a hook.jpg",0,0
//Break Periods
2,176878,191089
//Storyboard Layer 0 (Background)
//Storyboard Layer 1 (Fail)
//Storyboard Layer 2 (Pass)
//Storyboard Layer 3 (Foreground)
//Storyboard Layer 4 (Overlay)
//Storyboard Sound Samples

[TimingPoints]
668,315.789473684211,3,2,0,60,1,0
668,-200,3,2,4,44,0,0
2562,-111.111111111111,3,2,4,54,0,0
3273,-111.111111111111,3,2,4,5,0,0
3352,-111.111111111111,3,2,4,54,0,0
4378,-111.111111111111,3,2,4,5,0,0
4457,-111.111111111111,3,2,4,54,0,0
10852,-111.111111111111,3,2,4,5,0,0
10931,-111.111111111111,3,2,4,54,0,0
17720,-117.647058823529,3,2,4,54,0,0
26010,-117.647058823529,3,2,4,5,0,0
26089,-117.647058823529,3,2,4,54,0,0
27904,-117.647058823529,3,2,4,5,0,0
27983,-117.647058823529,3,2,4,54,0,0
31220,-117.647058823529,3,2,4,5,0,0
31299,-117.647058823529,3,2,4,54,0,0
31536,-117.647058823529,3,2,4,5,0,0
31615,-117.647058823529,3,2,4,54,0,0
31852,-117.647058823529,3,2,4,5,0,0
31931,-117.647058823529,3,2,4,54,0,0
32878,-74.0740740740741,3,2,4,84,0,0
33115,-74.0740740740741,3,2,4,5,0,0
33194,-74.0740740740741,3,2,4,84,0,0
33431,-74.0740740740741,3,2,4,5,0,0
33510,-74.0740740740741,3,2,4,84,0,0
33746,-74.0740740740741,3,2,4,5,0,0
33825,-333.333333333333,3,2,4,84,0,0
34773,-74.0740740740741,3,2,4,84,0,0
35010,-74.0740740740741,3,2,4,5,0,0
35089,-74.0740740740741,3,2,4,84,0,0
35325,-74.0740740740741,3,2,4,5,0,0
35404,-74.0740740740741,3,2,4,84,0,0
35641,-74.0740740740741,3,2,4,5,0,0
35720,-500,3,2,4,84,0,0
36668,-86.9565217391304,3,2,4,74,0,0
37931,-100,3,2,4,74,0,0
38562,-86.9565217391304,3,2,4,74,0,0
39510,-111.111111111111,3,2,4,74,0,0
40457,-74.0740740740741,3,2,4,84,0,0
40694,-74.0740740740741,3,2,4,5,0,0
40773,-74.0740740740741,3,2,4,84,0,0
41010,-74.0740740740741,3,2,4,5,0,0
41089,-74.0740740740741,3,2,4,84,0,0
42352,-74.0740740740741,3,2,4,84,0,0
42589,-74.0740740740741,3,2,4,5,0,0
42668,-74.0740740740741,3,2,4,84,0,0
42904,-74.0740740740741,3,2,4,5,0,0
42983,-74.0740740740741,3,2,4,84,0,0
44246,-86.9565217391304,3,2,4,74,0,0
47325,-86.9565217391304,3,2,4,5,0,0
47404,-86.9565217391304,3,2,4,74,0,0
48036,-166.666666666667,3,2,4,54,0,0
61299,-80,3,2,4,74,0,0
61536,-80,3,2,4,5,0,0
61615,-80,3,2,4,74,0,0
61852,-80,3,2,4,5,0,0
61931,-80,3,2,4,74,0,0
62168,-80,3,2,4,5,0,0
62246,-80,3,2,4,74,0,0
63194,-90.9090909090909,3,2,4,64,0,0
63904,-90.9090909090909,3,2,4,5,0,0
63983,-90.9090909090909,3,2,4,64,0,0
65799,-90.9090909090909,3,2,4,5,0,0
65878,-90.9090909090909,3,2,4,64,0,0
69115,-90.9090909090909,3,2,4,5,0,0
69194,-90.9090909090909,3,2,4,64,0,0
69273,-90.9090909090909,3,2,4,5,0,0
69352,-90.9090909090909,3,2,4,64,0,0
69825,-83.3333333333333,3,2,4,64,0,0
70062,-83.3333333333333,3,2,4,5,0,0
70141,-83.3333333333333,3,2,4,64,0,0
70773,-90.9090909090909,3,2,4,64,0,0
74562,-100,3,2,4,64,0,0
78352,-100,3,2,4,44,0,0
80246,-333.333333333333,3,2,4,44,0,0
82141,-500,3,2,4,44,0,0
84036,-83.3333333333333,3,2,4,74,0,0
84273,-83.3333333333333,3,2,4,5,0,0
84352,-83.3333333333333,3,2,4,74,0,0
84589,-83.3333333333333,3,2,4,5,0,0
84668,-83.3333333333333,3,2,4,74,0,0
84904,-83.3333333333333,3,2,4,5,0,0
84983,-83.3333333333333,3,2,4,74,0,0
85931,-90.9090909090909,3,2,4,74,0,0
86404,-100,3,2,4,74,0,0
87115,-66.6666666666667,3,2,4,5,0,0
87194,-100,3,2,4,74,0,0
90983,-100,3,2,4,74,0,0
93510,-133.333333333333,3,2,4,64,0,0
94457,-90.9090909090909,3,2,4,64,0,0
95404,-133.333333333333,3,2,4,64,0,0
96273,-66.6666666666667,3,2,4,5,0,0
96352,-90.9090909090909,3,2,4,64,0,0
97299,-119.047619047619,3,2,4,64,0,0
101089,-76.9230769230769,3,2,4,84,0,0
101325,-76.9230769230769,3,2,4,5,0,0
101404,-76.9230769230769,3,2,4,84,0,0
101641,-76.9230769230769,3,2,4,5,0,0
101720,-76.9230769230769,3,2,4,84,0,0
101957,-76.9230769230769,3,2,4,5,0,0
102036,-76.9230769230769,3,2,4,84,0,0
102352,-333.333333333333,3,2,4,84,0,0
102983,-76.9230769230769,3,2,4,84,0,0
103220,-76.9230769230769,3,2,4,5,0,0
103299,-76.9230769230769,3,2,4,84,0,0
103536,-76.9230769230769,3,2,4,5,0,0
103615,-76.9230769230769,3,2,4,84,0,0
103852,-76.9230769230769,3,2,4,5,0,0
103931,-76.9230769230769,3,2,4,84,0,0
104246,-90.9090909090909,3,2,4,84,0,0
104878,-86.9565217391304,3,2,4,64,0,0
107010,-66.6666666666667,3,2,4,5,0,0
107089,-86.9565217391304,3,2,4,64,0,0
107325,-66.6666666666667,3,2,4,5,0,0
107404,-86.9565217391304,3,2,4,64,0,0
107641,-66.6666666666667,3,2,4,5,0,0
107720,-86.9565217391304,3,2,4,64,0,0
108352,-111.111111111111,3,2,4,64,0,0
108589,-66.6666666666667,3,2,4,5,0,0
108668,-133.333333333333,3,2,4,54,0,0
121931,-133.333333333333,3,2,4,64,0,0
122168,-133.333333333333,3,2,4,5,0,0
122246,-105.263157894737,3,2,4,64,0,0
122483,-105.263157894737,3,2,4,5,0,0
122562,-86.9565217391303,3,2,4,64,0,0
122799,-86.9565217391303,3,2,4,5,0,0
122878,-74.0740740740741,3,2,4,74,0,0
123825,-90.9090909090909,3,2,4,64,0,0
128562,-100,3,2,4,64,0,0
129746,-66.6666666666667,3,2,4,5,0,0
129825,-100,3,2,4,64,0,0
130062,-66.6666666666667,3,2,4,5,0,0
130141,-100,3,2,4,64,0,0
130378,-66.6666666666667,3,2,4,5,0,0
130457,-100,3,2,4,64,0,0
136378,-66.6666666666667,3,2,4,5,0,0
136457,-100,3,2,4,64,0,0
137325,-66.6666666666667,3,2,4,5,0,0
137404,-100,3,2,4,64,0,0
137957,-66.6666666666667,3,2,4,5,0,0
138036,-100,3,2,4,64,0,0
138983,-83.3333333333333,3,2,4,84,0,1
139220,-83.3333333333333,3,2,4,5,0,1
139299,-83.3333333333333,3,2,4,84,0,1
139536,-83.3333333333333,3,2,4,5,0,1
139615,-83.3333333333333,3,2,4,84,0,1
139931,-83.3333333333333,3,2,4,84,0,1
140168,-83.3333333333333,3,2,4,5,0,1
140246,-83.3333333333333,3,2,4,84,0,1
140483,-83.3333333333333,3,2,4,5,0,1
140562,-83.3333333333333,3,2,4,84,0,1
140878,-83.3333333333333,3,2,4,84,0,1
141115,-83.3333333333333,3,2,4,5,0,1
141194,-83.3333333333333,3,2,4,84,0,1
141431,-83.3333333333333,3,2,4,5,0,1
141510,-83.3333333333333,3,2,4,84,0,1
141549,-83.3333333333333,3,2,4,5,0,1
141825,-83.3333333333333,3,2,4,84,0,1
142062,-83.3333333333333,3,2,4,5,0,1
142141,-83.3333333333333,3,2,4,84,0,1
142378,-83.3333333333333,3,2,4,5,0,1
142457,-83.3333333333333,3,2,4,84,0,1
142496,-83.3333333333333,3,2,4,5,0,1
142773,-83.3333333333333,3,2,4,84,0,1
143010,-83.3333333333333,3,2,4,5,0,1
143089,-83.3333333333333,3,2,4,84,0,1
143325,-83.3333333333333,3,2,4,5,0,1
143404,-83.3333333333333,3,2,4,84,0,1
143720,-83.3333333333333,3,2,4,84,0,1
143957,-83.3333333333333,3,2,4,5,0,1
144036,-83.3333333333333,3,2,4,84,0,1
144273,-83.3333333333333,3,2,4,5,0,1
144352,-83.3333333333333,3,2,4,84,0,1
144668,-83.3333333333333,3,2,4,84,0,1
144904,-83.3333333333333,3,2,4,5,0,1
144983,-83.3333333333333,3,2,4,84,0,1
145299,-83.3333333333333,3,2,4,84,0,1
145615,-83.3333333333333,3,2,4,84,0,1
145852,-83.3333333333333,3,2,4,5,0,1
145931,-83.3333333333333,3,2,4,84,0,1
146168,-83.3333333333333,3,2,4,5,0,1
146246,-83.3333333333333,3,2,4,84,0,1
148457,-83.3333333333333,3,2,4,84,0,1
148694,-83.3333333333333,3,2,4,5,0,1
148773,-83.3333333333333,3,2,4,84,0,1
149404,-83.3333333333333,3,2,4,94,0,1
149641,-83.3333333333333,3,2,4,5,0,1
149720,-83.3333333333333,3,2,4,94,0,1
150352,-83.3333333333333,3,2,4,64,0,1
150589,-83.3333333333333,3,2,4,5,0,1
150668,-83.3333333333333,3,2,4,64,0,1
151299,-83.3333333333333,3,2,4,74,0,1
151536,-83.3333333333333,3,2,4,5,0,1
151615,-83.3333333333333,3,2,4,74,0,1
152246,-83.3333333333333,3,2,4,84,0,1
152483,-83.3333333333333,3,2,4,5,0,1
152562,-83.3333333333333,3,2,4,84,0,1
153194,-83.3333333333333,3,2,4,94,0,1
153431,-83.3333333333333,3,2,4,5,0,1
153510,-83.3333333333333,3,2,4,94,0,1
154141,-83.3333333333333,3,2,4,84,0,1
154378,-83.3333333333333,3,2,4,5,0,1
154457,-83.3333333333333,3,2,4,84,0,1
156273,-83.3333333333333,3,2,4,5,0,1
156352,-83.3333333333333,3,2,4,84,0,1
158168,-83.3333333333333,3,2,4,5,0,1
158246,-83.3333333333333,3,2,4,84,0,1
158878,-83.3333333333333,3,2,4,84,0,1
159115,-83.3333333333333,3,2,4,5,0,1
159194,-83.3333333333333,3,2,4,84,0,1
159825,-83.3333333333333,3,2,4,84,0,1
160062,-83.3333333333333,3,2,4,5,0,1
160141,-83.3333333333333,3,2,4,84,0,1
160773,-227.272727272727,3,2,4,84,0,0
161641,-100,3,2,4,5,0,0
161720,-100,3,2,4,64,0,0
162904,-66.6666666666667,3,2,4,5,0,0
162983,-100,3,2,4,64,0,0
166694,-66.6666666666667,3,2,4,5,0,0
166773,-100,3,2,4,64,0,0
167641,-66.6666666666667,3,2,4,5,0,0
167720,-100,3,2,4,64,0,0
168589,-66.6666666666667,3,2,4,5,0,0
168668,-100,3,2,4,64,0,0
170010,-66.6666666666667,3,2,4,5,0,0
170089,-100,3,2,4,64,0,0
170483,-66.6666666666667,3,2,4,5,0,0
170562,-100,3,2,4,64,0,0
173325,-66.6666666666667,3,2,4,5,0,0
173404,-100,3,2,4,64,0,0
174273,-66.6666666666667,3,2,4,5,0,0
174352,-100,3,2,4,64,0,0
174983,-80,3,2,4,64,0,0
175220,-66.6666666666667,3,2,4,5,0,0
175299,-80,3,2,4,64,0,0
175536,-66.6666666666667,3,2,4,5,0,0
175615,-80,3,2,4,64,0,0
175852,-66.6666666666667,3,2,4,5,0,0
175931,-80,3,2,4,64,0,0
176878,-200,3,2,4,44,0,0
177825,-333.333333333333,3,2,4,44,0,0
178773,-200,3,2,4,44,0,0
179720,-500,3,2,4,44,0,0
180668,-200,3,2,4,44,0,0
181615,-500,3,2,4,44,0,0
182562,-200,3,2,4,44,0,0
183510,-400,3,2,4,44,0,0
184457,-200,3,2,4,44,0,0
185404,-500,3,2,4,44,0,0
186352,-200,3,2,4,44,0,0
187299,-400,3,2,4,44,0,0
188246,-200,3,2,4,44,0,0
191089,-400,3,2,4,44,0,0
192036,-142.857142857143,3,2,4,44,0,0
198668,-133.333333333333,3,2,4,44,0,0
199615,-117.647058823529,3,2,4,54,0,0
199852,-66.6666666666667,3,2,4,5,0,0
199931,-117.647058823529,3,2,4,54,0,0
200799,-66.6666666666667,3,2,4,5,0,0
200878,-117.647058823529,3,2,4,54,0,0
201510,-125,3,2,4,64,0,0
201746,-66.6666666666667,3,2,4,5,0,0
201825,-125,3,2,4,64,0,0
202457,-111.111111111111,3,2,4,64,0,0
202694,-66.6666666666667,3,2,4,5,0,0
202773,-111.111111111111,3,2,4,64,0,0
203404,-100,3,2,4,74,0,0
203641,-66.6666666666667,3,2,4,5,0,0
203720,-100,3,2,4,74,0,0
204352,-90.9090909090909,3,2,4,74,0,0
204589,-66.6666666666667,3,2,4,5,0,0
204668,-90.9090909090909,3,2,4,74,0,0
205299,-83.3333333333333,3,2,4,84,0,0
205536,-66.6666666666667,3,2,4,5,0,0
205615,-83.3333333333333,3,2,4,84,0,0
207194,-83.3333333333333,3,2,4,74,0,0
207431,-66.6666666666667,3,2,4,5,0,0
207510,-83.3333333333333,3,2,4,74,0,0
211220,-66.6666666666667,3,2,4,5,0,0
211299,-83.3333333333333,3,2,4,74,0,0
212799,-66.6666666666667,3,2,4,5,0,0
212878,-83.3333333333333,3,2,4,74,0,0
214062,-66.6666666666667,3,2,4,5,0,0
214141,-83.3333333333333,3,2,4,74,0,0
219273,-66.6666666666667,3,2,4,5,0,0
219352,-83.3333333333333,3,2,4,74,0,0
220694,-66.6666666666667,3,2,4,5,0,0
220773,-83.3333333333333,3,2,4,74,0,0
221325,-66.6666666666667,3,2,4,5,0,0
221404,-83.3333333333333,3,2,4,74,0,0
222352,-87.719298245614,3,2,4,74,0,0
235220,-87.719298245614,3,2,4,5,0,0
235299,-87.719298245614,3,2,4,74,0,0
235615,-166.666666666667,3,2,4,64,0,0
237589,-166.666666666667,3,2,4,44,0,0
240352,-166.666666666667,3,2,4,5,0,0

[Colours]
Combo1 : 141,156,207
Combo2 : 255,201,147
Combo3 : 255,153,40
Combo4 : 189,205,232

[HitObjects]
230,207,1615,5,2,0:3:0:0:
230,207,1931,2,0,L|226:248,2,40,2|2|8,0:3|0:3|0:1,0:0:0:0:
237,122,2404,1,8,0:1:0:0:
143,290,2562,6,0,P|203:280|250:340,1,143.999995605469,14|0,0:0|0:0,0:0:0:0:
118,302,3036,2,0,P|85:271|86:230,1,71.9999978027344,8|0,0:0|0:0,0:0:0:0:
166,109,3352,5,8,0:0:0:0:
166,109,3510,2,0,L|236:121,1,71.9999978027344,10|0,0:1|0:0,0:0:0:0:
365,187,3825,2,0,L|295:199,1,71.9999978027344,2|0,0:0|0:0,0:0:0:0:
161,258,4141,2,0,L|231:270,1,71.9999978027344,2|0,0:0|0:0,0:0:0:0:
391,185,4457,6,0,B|418:220|418:220|388:320,1,143.999995605469,8|0,0:0|0:0,0:0:0:0:
365,187,4931,2,0,L|380:30,1,143.999995605469,8|8,0:0|0:0,0:0:0:0:
271,214,5404,6,0,P|233:172|218:170,1,71.9999978027344,8|0,0:1|0:0,0:0:0:0:
94,150,5720,2,0,P|107:205|105:236,1,71.9999978027344,2|0,0:0|0:0,0:0:0:0:
177,277,6036,2,0,P|166:311|164:347,1,71.9999978027344,2|0,0:0|0:0,0:0:0:0:
76,134,6352,6,0,P|124:101|197:149,1,143.999995605469,8|0,0:0|0:0,0:0:0:0:
66,142,6825,2,0,P|85:74|158:44,1,143.999995605469,8|8,0:0|0:0,0:0:0:0:
319,137,7299,6,0,B|354:150|354:150|472:114,1,143.999995605469,8|0,0:1|0:0,0:0:0:0:
229,156,7773,2,0,B|216:191|216:191|227:224,1,71.9999978027344,2|0,0:0|0:0,0:0:0:0:
256,303,8089,1,0,0:0:0:0:
108,231,8246,6,0,L|78:383,1,143.999995605469,8|0,0:0|0:0,0:0:0:0:
86,220,8720,2,0,L|104:126,1,71.9999978027344,8|0,0:0|0:0,0:0:0:0:
256,303,9036,1,8,0:0:0:0:
332,248,9194,6,0,L|419:259,1,71.9999978027344,8|0,0:1|0:0,0:0:0:0:
262,93,9510,1,8,0:0:0:0:
99,149,9825,1,8,0:0:0:0:
290,86,10141,6,0,B|320:70|320:70|304:201,1,143.999995605469,10|0,0:0|0:0,0:0:0:0:
280,297,10615,2,0,P|224:299|202:281,1,71.9999978027344,8|0,0:0|0:0,0:0:0:0:
185,198,10931,1,8,0:0:0:0:
71,320,11089,6,0,L|222:289,2,143.999995605469,10|2|2,0:1|0:0|0:0,0:0:0:0:
20,165,11878,5,0,0:0:0:0:
20,165,12036,2,0,P|46:135|136:170,1,143.999995605469,8|0,0:0|0:0,0:0:0:0:
212,291,12510,2,0,P|238:321|328:286,1,143.999995605469,8|8,0:0|0:0,0:0:0:0:
322,124,12983,6,0,L|307:207,1,71.9999978027344,10|2,0:1|0:0,0:0:0:0:
433,212,13299,2,0,L|402:56,1,143.999995605469,2|2,0:0|0:0,0:0:0:0:
221,33,13773,5,2,0:0:0:0:
221,33,13931,2,0,P|182:44|155:80,1,71.9999978027344,10|2,0:0|0:0,0:0:0:0:
75,134,14246,2,0,P|36:123|9:87,1,71.9999978027344,2|10,0:0|0:0,0:0:0:0:
176,177,14562,2,0,L|214:257,1,71.9999978027344,2|10,0:0|0:0,0:0:0:0:
67,336,14878,6,0,B|109:317|109:317|224:341,2,143.999995605469,10|2|2,0:1|0:0|0:0,0:0:0:0:
217,357,15668,5,0,0:0:0:0:
217,357,15825,2,0,L|316:329,1,71.9999978027344,10|0,0:0|0:0,0:0:0:0:
414,244,16141,2,0,P|411:296|397:319,1,71.9999978027344,2|8,0:0|0:0,0:0:0:0:
267,248,16457,2,0,P|253:215|254:179,1,71.9999978027344,2|8,0:0|0:0,0:0:0:0:
312,65,16773,6,0,L|474:94,1,143.999995605469,8|10,0:1|0:0,0:0:0:0:
296,45,17404,1,10,0:1:0:0:
183,106,17562,1,8,0:1:0:0:
111,70,17720,6,0,P|158:104|139:184,1,136.000002593994,10|0,0:0|0:0,0:0:0:0:
81,55,18194,2,0,P|131:44|218:6,1,136.000002593994,8|8,0:0|0:0,0:0:0:0:
431,80,18668,6,0,B|399:70|399:70|356:84,1,68.0000012969971,8|0,0:1|0:0,0:0:0:0:
278,180,18983,2,0,P|295:217|293:257,1,68.0000012969971,2|0,0:0|0:0,0:0:0:0:
199,319,19299,2,0,L|111:312,1,68.0000012969971,2|0,0:0|0:0,0:0:0:0:
77,156,19615,6,0,P|103:221|38:258,1,136.000002593994,10|0,0:0|0:0,0:0:0:0:
60,148,20089,2,0,L|87:8,1,136.000002593994,8|8,0:0|0:0,0:0:0:0:
225,153,20562,6,0,L|365:103,1,136.000002593994,8|0,0:1|0:0,0:0:0:0:
371,221,21036,2,0,L|436:249,1,68.0000012969971,2|0,0:0|0:0,0:0:0:0:
512,284,21352,1,0,0:0:0:0:
347,209,21510,6,0,L|272:232,1,68.0000012969971,10|2,0:0|0:0,0:0:0:0:
191,296,21825,1,2,0:0:0:0:
98,228,21983,1,10,0:0:0:0:
11,324,22141,2,0,L|0:247,1,68.0000012969971,2|10,0:0|0:0,0:0:0:0:
0,93,22457,6,0,P|69:67|129:118,2,136.000002593994,10|2|10,0:1|0:0|0:0,0:0:0:0:
148,108,23246,5,0,0:0:0:0:
148,108,23404,2,0,P|210:105|253:30,1,136.000002593994,10|2,0:0|0:0,0:0:0:0:
349,152,23878,2,0,P|403:181|412:266,1,136.000002593994,8|8,0:0|0:0,0:0:0:0:
266,292,24352,6,0,P|241:320|197:326,1,68.0000012969971,10|0,0:1|0:0,0:0:0:0:
10,220,24668,2,0,L|42:279,1,68.0000012969971,8|0,0:0|0:0,0:0:0:0:
141,273,24983,2,0,L|122:338,1,68.0000012969971,8|0,0:0|0:0,0:0:0:0:
102,153,25299,6,0,L|142:0,1,136.000002593994,10|0,0:0|0:0,0:0:0:0:
90,169,25773,2,0,B|54:184|54:184|11:170,1,68.0000012969971,8|0,0:0|0:0,0:0:0:0:
232,124,26089,1,8,0:0:0:0:
308,163,26246,6,0,P|326:211|312:248,1,68.0000012969971,8|0,0:1|0:0,0:0:0:0:
278,51,26562,2,0,L|346:31,1,68.0000012969971,2|0,0:0|0:0,0:0:0:0:
214,140,26878,2,0,L|148:159,1,68.0000012969971,2|0,0:0|0:0,0:0:0:0:
36,258,27194,6,0,B|88:270|88:270|111:289|111:289|186:301,1,136.000002593994,10|0,0:0|0:0,0:0:0:0:
13,250,27668,2,0,P|-4:196|53:146,1,136.000002593994,8|8,0:0|0:0,0:0:0:0:
188,297,28141,6,0,P|236:286|255:272,1,68.0000012969971,8|0,0:1|0:0,0:0:0:0:
407,150,28457,2,0,P|429:194|422:225,1,68.0000012969971,2|0,0:0|0:0,0:0:0:0:
498,275,28773,2,0,P|482:321|455:338,1,68.0000012969971,2|0,0:0|0:0,0:0:0:0:
388,128,29089,6,0,P|405:72|483:47,1,136.000002593994,8|0,0:0|0:0,0:0:0:0:
407,150,29562,2,0,L|262:129,1,136.000002593994,10|8,0:0|0:0,0:0:0:0:
85,131,30036,6,0,P|61:168|106:254,1,136.000002593994,8|0,0:1|0:0,0:0:0:0:
104,119,30510,1,0,0:0:0:0:
104,119,30668,2,0,P|98:81|72:50,1,68.0000012969971,2|0,0:0|0:0,0:0:0:0:
105,265,30983,6,0,P|186:221|218:215,1,102.000001945496,8|0,0:0|0:0,0:0:0:0:
212,239,31299,2,0,P|300:265|327:283,1,102.000001945496,8|0,0:0|0:0,0:0:0:0:
322,292,31615,2,0,P|369:274|411:245,1,102.000001945496,8|0,0:0|0:0,0:0:0:0:
294,303,31931,6,0,B|275:336|275:336|282:371,1,68.0000012969971,8|0,0:1|0:0,0:0:0:0:
353,162,32246,2,0,P|357:113|335:93,1,68.0000012969971,8|0,0:0|0:0,0:0:0:0:
152,45,32562,2,0,L|61:58,1,68.0000012969971,8|0,0:1|0:0,0:0:0:0:
228,220,32878,6,0,B|267:117|267:117|208:132,1,162.000000617981,14|0,0:0|0:0,0:0:0:0:
219,245,33194,2,0,B|288:330|288:330|305:271,1,162.000000617981,12|0,0:0|0:0,0:0:0:0:
194,223,33510,2,0,B|85:240|85:240|127:284,1,162.000000617981,12|0,0:0|0:0,0:0:0:0:
121,277,33825,1,2,0:0:0:0:
327,148,34773,6,0,P|379:176|338:265,1,162.000000617981,14|0,0:0|0:0,0:0:0:0:
294,146,35089,2,0,P|292:86|389:77,1,162.000000617981,12|0,0:0|0:0,0:0:0:0:
306,180,35404,2,0,P|255:211|199:131,1,162.000000617981,12|0,0:0|0:0,0:0:0:0:
195,146,35720,1,2,0:0:0:0:
435,324,36668,6,0,P|431:257|487:146,1,184.000003509522,14|0,0:0|0:0,0:0:0:0:
441,44,37141,2,0,P|392:36|355:59,1,92.0000017547608,8|0,0:0|0:0,0:0:0:0:
277,168,37457,1,8,0:0:0:0:
185,114,37615,6,0,L|274:137,1,92.0000017547608,10|0,0:1|0:0,0:0:0:0:
383,236,37931,1,0,0:0:0:0:
320,323,38089,1,8,0:0:0:0:
237,256,38246,2,0,P|178:264|157:286,1,80,10|0,0:0|0:0,0:0:0:0:
345,151,38562,6,0,L|433:120,1,92.0000017547608,10|0,0:0|0:0,0:0:0:0:
175,132,38878,6,0,L|92:62,1,92.0000017547608,2|8,0:0|0:0,0:0:0:0:
244,289,39194,6,0,L|226:384,1,92.0000017547608,2|8,0:0|0:0,0:0:0:0:
267,94,39510,6,0,L|284:4,1,71.9999978027344,10|0,0:1|0:0,0:0:0:0:
334,250,39825,6,0,L|404:310,1,71.9999978027344,10|0,0:0|0:0,0:0:0:0:
166,230,40141,6,0,L|79:261,1,71.9999978027344,10|0,0:1|0:0,0:0:0:0:
334,251,40457,6,0,B|367:201|367:201|326:106,1,162.000000617981,14|0,0:0|0:0,0:0:0:0:
247,44,40773,2,0,B|214:94|214:94|254:187,1,162.000000617981,12|0,0:0|0:0,0:0:0:0:
334,251,41089,2,0,B|377:184|377:184|323:58,1,216.000000823975,12|0,0:0|0:0,0:0:0:0:
334,251,42352,6,0,L|154:236,1,162.000000617981,12|0,0:0|0:0,0:0:0:0:
148,146,42668,2,0,L|309:159,1,162.000000617981,14|0,0:0|0:0,0:0:0:0:
344,262,42983,2,0,L|89:240,1,216.000000823975,12|0,0:0|0:0,0:0:0:0:
337,268,44246,6,0,B|367:259|373:231|373:231|329:100,1,184.000003509522,14|0,0:0|0:0,0:0:0:0:
321,275,44720,2,0,P|331:322|374:353,1,92.0000017547608,8|0,0:0|0:0,0:0:0:0:
202,202,45036,1,8,0:0:0:0:
134,257,45194,6,0,L|39:246,1,92.0000017547608,10|0,0:1|0:0,0:0:0:0:
218,185,45510,2,0,L|309:195,1,92.0000017547608,0|8,0:0|0:0,0:0:0:0:
430,217,45825,1,8,0:0:0:0:
430,217,46141,2,0,B|466:173|466:173|406:44,1,184.000003509522,10|0,0:0|0:0,0:0:0:0:
212,77,46615,1,8,0:1:0:0:
100,29,46773,1,8,0:0:0:0:
218,91,46931,1,8,0:0:0:0:
407,44,47089,6,0,L|511:54,1,92.0000017547608,10|0,0:1|0:0,0:0:0:0:
483,213,47404,1,8,0:1:0:0:
379,144,47562,1,8,0:3:0:0:
273,205,47720,1,4,0:3:0:0:
273,205,48036,6,0,B|57:165|57:165|130:128,1,287.999991210938,10|2,0:0|0:3,0:0:0:0:
242,65,49299,1,0,0:0:0:0:
377,279,49615,1,8,0:0:0:0:
446,175,49931,6,0,B|356:150|356:150|267:206,1,191.999994140625,10|2,0:0|0:0,0:0:0:0:
464,189,50878,2,0,P|497:149|420:44,1,191.999994140625,2|8,0:3|0:0,0:0:0:0:
257,267,51825,6,0,B|211:279|211:279|74:226,1,191.999994140625,10|2,0:0|0:0,0:0:0:0:
283,277,52773,2,0,P|306:316|287:366,1,95.9999970703126,2|0,0:3|0:0,0:0:0:0:
210,116,53404,1,2,0:0:0:0:
367,59,53720,6,0,L|326:250,1,191.999994140625,10|2,0:0|0:0,0:0:0:0:
210,118,54668,1,2,0:3:0:0:
372,40,54983,1,8,0:0:0:0:
372,40,55299,1,8,0:0:0:0:
332,277,55615,6,0,B|288:253|229:273|242:300|188:313|145:294,1,191.999994140625,10|2,0:0|0:0,0:0:0:0:
360,282,56562,2,0,P|381:231|357:190,2,95.9999970703126,2|2|2,0:3|0:0|0:0,0:0:0:0:
213,123,57510,6,0,P|286:117|405:65,1,191.999994140625,8|2,0:0|0:0,0:0:0:0:
188,109,58457,2,0,P|139:144|133:198,1,95.9999970703126,2|0,0:3|0:0,0:0:0:0:
248,299,59089,1,8,0:0:0:0:
407,173,59404,6,0,P|494:197|485:301,1,191.999994140625,10|2,0:0|0:0,0:0:0:0:
369,173,60352,2,0,P|361:121|385:77,2,95.9999970703126,2|0|0,0:3|0:0|0:0,0:0:0:0:
222,253,61299,6,0,B|162:206|162:206|73:230,1,150,14|0,0:0|0:0,0:0:0:0:
9,227,61615,2,0,B|79:198|79:198|102:109,1,150,12|0,0:0|0:0,0:0:0:0:
142,58,61931,2,0,B|131:133|131:133|196:197,1,150,14|0,0:0|0:0,0:0:0:0:
222,253,62246,6,0,L|356:226,1,100,14|0,0:0|0:0,0:0:0:0:
453,35,62562,1,12,0:0:0:0:
305,29,62720,1,8,0:1:0:0:
392,161,62878,2,0,L|501:136,1,100,14|0,0:1|0:0,0:0:0:0:
198,267,63194,6,0,B|162:260|153:233|153:233|178:108,1,176.000005371094,14|0,0:0|0:0,0:0:0:0:
231,270,63668,2,0,P|233:345|141:377,1,176.000005371094,8|8,0:0|0:0,0:0:0:0:
289,199,64141,6,0,L|406:212,1,88.000002685547,8|0,0:1|0:0,0:0:0:0:
477,216,64457,1,2,0:0:0:0:
269,170,64615,2,0,L|171:160,2,88.000002685547,2|0|0,0:0|0:0|0:0,0:0:0:0:
464,66,65089,6,0,P|418:18|303:55,1,176.000005371094,8|0,0:0|0:0,0:0:0:0:
174,176,65562,2,0,L|-23:152,1,176.000005371094,8|8,0:0|0:0,0:0:0:0:
345,206,66036,6,0,B|370:242|370:242|324:377,1,176.000005371094,8|0,0:1|0:0,0:0:0:0:
313,188,66510,2,0,P|331:135|366:120,1,88.000002685547,2|0,0:0|0:0,0:0:0:0:
446,156,66825,1,0,0:0:0:0:
305,29,66983,6,0,B|340:63|340:63|310:200,1,176.000005371094,8|0,0:0|0:0,0:0:0:0:
284,18,67457,2,0,P|360:-15|433:34,1,176.000005371094,8|8,0:0|0:0,0:0:0:0:
216,96,67931,6,0,L|39:70,1,176.000005371094,8|0,0:1|0:0,0:0:0:0:
104,180,68404,1,0,0:0:0:0:
104,180,68562,2,0,P|121:228|105:265,1,88.000002685547,2|0,0:0|0:0,0:0:0:0:
350,304,68878,6,0,B|300:285|300:285|219:309,1,132.00000402832,8|0,0:0|0:0,0:0:0:0:
224,307,69194,1,8,0:0:0:0:
382,311,69352,2,0,P|403:270|386:228,1,88.000002685547,8|0,0:1|0:0,0:0:0:0:
315,183,69668,1,8,0:0:0:0:
447,76,69825,6,0,P|384:93|344:89,1,95.9999970703126,8|0,0:1|0:0,0:0:0:0:
117,56,70141,1,8,0:0:0:0:
53,166,70299,1,8,0:1:0:0:
141,241,70457,1,8,0:1:0:0:
213,183,70615,1,8,0:1:0:0:
332,289,70773,6,0,P|396:297|479:213,1,176.000005371094,12|0,0:0|0:0,0:0:0:0:
313,275,71246,2,0,P|258:299|248:334,1,88.000002685547,8|0,0:0|0:0,0:0:0:0:
388,172,71562,1,8,0:0:0:0:
342,90,71720,6,0,B|300:102|300:102|240:96,1,88.000002685547,8|0,0:1|0:0,0:0:0:0:
118,54,72036,1,2,0:0:0:0:
118,54,72194,2,0,P|89:94|149:191,1,176.000005371094,2|0,0:0|0:0,0:0:0:0:
65,318,72668,6,0,B|129:298|129:298|193:304|193:304|247:291,1,176.000005371094,10|0,0:0|0:0,0:0:0:0:
47,322,73141,2,0,P|25:275|46:235,1,88.000002685547,8|0,0:0|0:0,0:0:0:0:
240,272,73457,1,8,0:0:0:0:
306,215,73615,6,0,P|309:161|273:132,1,88.000002685547,8|0,0:1|0:0,0:0:0:0:
196,102,73931,2,0,L|89:129,1,88.000002685547,0|0,0:0|0:0,0:0:0:0:
94,223,74246,2,0,L|179:201,1,88.000002685547,10|0,0:0|0:0,0:0:0:0:
310,50,74562,6,0,B|361:73|361:73|389:118|389:118|442:140,1,160,8|0,0:0|0:0,0:0:0:0:
290,33,75036,2,0,L|109:63,1,160,8|8,0:0|0:0,0:0:0:0:
29,221,75510,6,0,L|221:191,1,160,8|0,0:1|0:0,0:0:0:0:
302,190,75983,1,0,0:0:0:0:
302,190,76141,2,0,P|314:236|299:269,1,80,8|0,0:0|0:0,0:0:0:0:
293,58,76457,6,0,P|336:105|433:85,1,160,10|0,0:0|0:0,0:0:0:0:
289,35,76931,1,8,0:1:0:0:
189,77,77089,2,0,L|85:70,1,80,8|0,0:0|0:0,0:0:0:0:
302,191,77404,6,0,L|473:166,2,160,10|8|8,0:1|0:0|0:0,0:0:0:0:
302,191,78352,1,14,0:0:0:0:
256,192,78431,12,2,82141,0:0:0:0:
231,194,84036,6,0,B|126:182|126:182|154:155,1,143.999995605469,14|0,0:1|0:0,0:0:0:0:
260,166,84352,6,0,B|364:177|364:177|336:204,1,143.999995605469,14|0,0:1|0:0,0:0:0:0:
247,137,84668,2,0,L|262:42,1,95.9999970703126,14|0,0:1|0:0,0:0:0:0:
336,204,84983,5,10,0:1:0:0:
275,281,85141,1,8,0:1:0:0:
123,218,85299,1,10,0:1:0:0:
50,285,85457,1,8,0:3:0:0:
119,355,85615,2,0,L|216:359,1,95.9999970703126,6|0,0:3|0:0,0:0:0:0:
210,114,85931,6,0,P|116:162|138:237,1,176.000005371094,14|0,0:0|0:0,0:0:0:0:
230,119,86404,2,0,P|250:62|235:38,1,80,8|0,0:0|0:0,0:0:0:0:
162,13,86720,1,8,0:0:0:0:
346,117,86878,6,0,L|438:97,1,80,12|0,0:1|0:0,0:0:0:0:
467,199,87194,2,0,P|493:269|436:318,1,160,0|0,0:0|0:0,0:0:0:0:
314,268,87668,5,0,0:0:0:0:
314,268,87825,2,0,B|253:254|253:254|142:304,1,160,10|0,0:0|0:0,0:0:0:0:
330,270,88299,2,0,P|356:229|353:192,1,80,8|0,0:0|0:0,0:0:0:0:
299,126,88615,1,8,0:0:0:0:
380,187,88773,6,0,P|401:141|445:113,1,80,8|0,0:1|0:0,0:0:0:0:
237,51,89089,2,0,L|142:73,1,80,0|0,0:0|0:0,0:0:0:0:
53,137,89404,2,0,L|130:155,1,80,0|0,0:0|0:0,0:0:0:0:
291,291,89720,6,0,B|360:274|360:274|392:276|392:276|450:261,1,160,10|0,0:0|0:0,0:0:0:0:
271,267,90194,2,0,L|166:254,1,80,8|0,0:0|0:0,0:0:0:0:
107,242,90510,1,8,0:0:0:0:
38,374,90668,6,0,P|24:332|-14:306,1,80,8|0,0:1|0:0,0:0:0:0:
70,150,90983,1,0,0:0:0:0:
70,150,91141,1,8,0:2:0:0:
107,242,91299,2,0,L|90:160,1,80,8|0,0:2|0:0,0:0:0:0:
254,341,91615,6,0,L|290:163,1,160,10|0,0:0|0:0,0:0:0:0:
247,357,92089,2,0,L|222:258,1,80,8|0,0:0|0:0,0:0:0:0:
196,189,92404,1,8,0:0:0:0:
357,291,92562,6,0,L|376:213,1,80,8|0,0:1|0:0,0:0:0:0:
266,106,92878,2,0,L|285:183,1,80,8|0,0:0|0:0,0:0:0:0:
349,295,93194,2,0,L|368:217,1,80,8|0,0:1|0:0,0:0:0:0:
258,71,93510,6,0,B|188:67|157:125|186:156|146:212|82:204,1,240.000009155274,12|0,0:0|0:0,0:0:0:0:
278,81,94457,2,0,B|301:120|301:120|282:163,1,88.000002685547,8|0,0:0|0:0,0:0:0:0:
195,312,95404,6,0,B|254:277|254:277|341:255|341:255|418:205,1,240.000009155274,12|0,0:0|0:0,0:0:0:0:
174,330,96352,2,0,L|78:310,1,88.000002685547,8|0,0:0|0:0,0:0:0:0:
248,109,97299,6,0,B|236:162|236:162|257:200|257:200|243:257,1,134.399995898438,12|0,0:0|0:0,0:0:0:0:
241,255,97773,1,0,0:0:0:0:
241,255,97931,2,0,P|179:255|168:248,1,67.1999979492188,8|0,0:0|0:0,0:0:0:0:
329,149,98246,6,0,P|361:141|445:210,1,134.399995898438,8|0,0:1|0:0,0:0:0:0:
441,216,98720,1,0,0:0:0:0:
441,216,98878,2,0,P|430:253|438:288,1,67.1999979492188,8|0,0:0|0:0,0:0:0:0:
458,114,99194,6,0,P|383:137|299:152,1,134.399995898438,8|0,0:0|0:0,0:0:0:0:
478,104,99668,2,0,P|497:63|493:31,1,67.1999979492188,8|0,0:0|0:0,0:0:0:0:
409,22,99983,1,8,0:0:0:0:
328,148,100141,6,0,P|285:138|253:124,1,67.1999979492188,8|0,0:1|0:0,0:0:0:0:
167,56,100457,2,0,P|124:66|92:80,1,67.1999979492188,8|0,0:0|0:0,0:0:0:0:
59,172,100773,1,8,0:1:0:0:
59,172,101089,6,0,B|21:241|21:241|66:317,1,155.999992858887,12|0,0:0|0:0,0:0:0:0:
80,309,101404,2,0,B|118:240|118:240|73:164,1,155.999992858887,12|0,0:0|0:0,0:0:0:0:
59,172,101720,2,0,B|21:241|21:241|66:317,1,155.999992858887,12|0,0:0|0:0,0:0:0:0:
76,323,102036,1,12,0:0:0:0:
76,323,102983,6,0,B|145:285|145:285|221:330,1,155.999992858887,12|0,0:0|0:0,0:0:0:0:
213,344,103299,2,0,B|144:382|144:382|68:337,1,155.999992858887,12|0,0:0|0:0,0:0:0:0:
76,323,103615,2,0,B|145:285|145:285|221:330,1,155.999992858887,12|0,0:0|0:0,0:0:0:0:
229,340,103931,1,12,0:0:0:0:
229,340,104246,5,8,0:3:0:0:
306,217,104404,1,8,0:1:0:0:
239,124,104562,2,0,P|181:139|163:184,1,88.000002685547,8|0,0:1|0:0,0:0:0:0:
450,182,104878,6,0,B|478:165|477:131|477:131|400:10,1,184.000003509522,12|0,0:0|0:0,0:0:0:0:
424,197,105352,2,0,L|409:292,1,92.0000017547608,8|0,0:0|0:0,0:0:0:0:
392,375,105668,1,8,0:0:0:0:
450,182,105825,6,0,L|435:91,1,92.0000017547608,8|0,0:1|0:0,0:0:0:0:
368,23,106141,1,0,0:0:0:0:
368,23,106299,2,0,P|315:15|269:122,1,184.000003509522,2|0,0:0|0:0,0:0:0:0:
107,226,106773,6,0,L|255:207,1,138.000002632141,8|0,0:0|0:0,0:0:0:0:
88,231,107089,2,0,P|53:200|72:134,1,92.0000017547608,8|0,0:0|0:0,0:0:0:0:
264,204,107404,2,0,P|299:235|280:301,1,92.0000017547608,8|0,0:0|0:0,0:0:0:0:
67,140,107720,6,0,L|158:126,1,92.0000017547608,12|0,0:1|0:0,0:0:0:0:
234,32,108036,1,8,0:1:0:0:
269,21,108141,1,8,0:1:0:0:
303,33,108246,1,8,0:1:0:0:
321,61,108352,2,0,P|313:111|286:135,1,71.9999978027344,8|0,0:1|0:0,0:0:0:0:
433,228,108668,6,0,B|360:222|360:222|321:239|321:239|227:231,1,180.000006866455,14|8,0:0|0:0,0:0:0:0:
458,233,109457,1,8,0:0:0:0:
458,233,109615,2,0,P|477:165|445:118,2,120.000004577637,8|2|2,0:1|0:0|0:0,0:0:0:0:
256,176,110562,6,0,P|194:183|170:293,1,180.000006866455,10|8,0:0|0:0,0:0:0:0:
290,159,111352,1,8,0:0:0:0:
290,159,111510,2,0,B|308:101|308:101|264:41,2,120.000004577637,8|0|0,0:1|0:0|0:0,0:0:0:0:
238,326,112457,6,0,P|295:265|384:305,1,180.000006866455,10|8,0:0|0:0,0:0:0:0:
223,337,113246,1,8,0:0:0:0:
223,337,113404,2,0,P|213:280|244:221,1,120.000004577637,8|0,0:1|0:0,0:0:0:0:
477,154,114036,1,2,0:0:0:0:
477,154,114352,6,0,B|422:161|393:120|406:95|385:52|323:54,1,180.000006866455,8|8,0:0|0:0,0:0:0:0:
259,88,114983,1,8,0:0:0:0:
259,88,115299,2,0,B|203:109|203:109|120:90,2,120.000004577637,8|8|8,0:1|0:0|0:0,0:0:0:0:
494,12,116246,6,0,B|508:46|508:46|479:205,1,180.000006866455,14|8,0:0|0:0,0:0:0:0:
482,208,117036,1,8,0:0:0:0:
482,208,117194,2,0,B|432:207|432:207|406:215|406:215|350:213,2,120.000004577637,8|2|2,0:1|0:0|0:0,0:0:0:0:
277,120,118141,6,0,P|232:127|201:260,1,180.000006866455,10|8,0:0|0:0,0:0:0:0:
296,127,118931,1,8,0:0:0:0:
296,127,119089,2,0,B|316:71|316:71|280:7,2,120.000004577637,8|0|0,0:1|0:0|0:0,0:0:0:0:
176,260,120036,6,0,L|369:214,1,180.000006866455,10|8,0:0|0:0,0:0:0:0:
438,191,120668,1,8,0:0:0:0:
438,190,120983,2,0,L|315:161,2,120.000004577637,8|0|0,0:1|0:0|0:0,0:0:0:0:
232,62,121931,6,0,B|182:73|182:73|167:88|167:88|134:100,1,90.0000034332277,8|0,0:0|0:0,0:0:0:0:
150,94,122246,6,0,B|192:111|192:111|209:127|209:127|245:140,1,113.999996955872,8|0,0:0|0:0,0:0:0:0:
267,149,122562,6,0,B|206:176|206:176|184:198|184:198|136:215,1,138.000002632141,8|0,0:0|0:0,0:0:0:0:
111,230,122878,6,0,L|215:269,1,108.000000411987,12|0,0:1|0:0,0:0:0:0:
350,324,123194,1,8,0:1:0:0:
434,242,123352,1,8,0:1:0:0:
386,146,123510,1,8,0:1:0:0:
386,146,123825,6,0,B|364:155|330:152|330:152|298:163|278:201|278:201|254:190|222:190,1,176.000005371094,14|0,0:0|0:0,0:0:0:0:
398,132,124299,2,0,P|452:153|466:198,1,88.000002685547,8|0,0:0|0:0,0:0:0:0:
217,188,124615,1,8,0:0:0:0:
135,105,124773,6,0,L|228:98,1,88.000002685547,8|0,0:1|0:0,0:0:0:0:
405,238,125089,1,2,0:0:0:0:
318,320,125246,1,2,0:0:0:0:
390,204,125404,2,0,P|434:182|478:188,1,88.000002685547,0|0,0:0|0:0,0:0:0:0:
299,342,125720,6,0,B|215:330|215:330|184:337|184:337|111:326,1,176.000005371094,8|0,0:0|0:0,0:0:0:0:
323,240,126194,2,0,P|336:286|313:323,1,88.000002685547,8|0,0:0|0:0,0:0:0:0:
125,328,126510,1,8,0:0:0:0:
110,232,126668,6,0,P|91:270|104:311,1,88.000002685547,8|0,0:1|0:0,0:0:0:0:
209,186,126983,2,0,P|227:147|214:106,1,88.000002685547,0|2,0:0|0:0,0:0:0:0:
133,64,127299,1,8,0:0:0:0:
133,64,127457,1,0,0:0:0:0:
229,200,127615,6,0,P|309:171|400:211,1,176.000005371094,8|0,0:0|0:0,0:0:0:0:
209,186,128089,2,0,P|164:192|109:158,2,88.000002685547,8|8|0,0:0|0:0|0:0,0:0:0:0:
384,55,128562,6,0,B|356:96|356:96|394:213,2,160,8|0|2,0:1|0:0|0:0,0:0:0:0:
414,202,129352,1,0,0:0:0:0:
377,289,129510,6,0,P|336:306|296:296,1,80,8|0,0:0|0:0,0:0:0:0:
367,142,129825,2,0,P|402:169|413:208,1,80,8|0,0:0|0:0,0:0:0:0:
246,221,130141,2,0,P|251:176|280:147,1,80,8|0,0:0|0:0,0:0:0:0:
497,28,130457,6,0,B|481:56|462:64|462:64|341:41,1,160,12|8,0:1|0:1,0:0:0:0:
172,17,130931,1,8,0:1:0:0:
111,112,131089,1,8,0:3:0:0:
172,199,131246,1,8,0:1:0:0:
63,298,131404,6,0,B|115:285|115:285|161:304|161:304|227:283,1,160,12|0,0:0|0:0,0:0:0:0:
38,306,131878,2,0,P|12:261|27:217,1,80,8|0,0:0|0:0,0:0:0:0:
76,154,132194,1,8,0:0:0:0:
8,32,132352,6,0,P|54:58|98:59,1,80,8|0,0:1|0:0,0:0:0:0:
226,118,132668,1,2,0:0:0:0:
322,52,132825,1,2,0:0:0:0:
206,135,132983,2,0,L|179:49,1,80,0|0,0:0|0:0,0:0:0:0:
368,235,133299,6,0,L|529:204,1,160,10|0,0:0|0:0,0:0:0:0:
356,248,133773,2,0,L|252:232,1,80,8|0,0:0|0:0,0:0:0:0:
172,217,134089,1,8,0:0:0:0:
17,308,134246,6,0,P|90:297|136:379,1,160,8|0,0:1|0:0,0:0:0:0:
156,205,134720,2,0,P|180:161|217:148,1,80,0|10,0:0|0:0,0:0:0:0:
300,172,135036,1,0,0:0:0:0:
366,32,135194,6,0,B|353:70|353:70|371:122,1,80,8|0,0:0|0:0,0:0:0:0:
462,238,135510,2,0,B|436:208|436:208|397:201,1,80,8|0,0:0|0:0,0:0:0:0:
300,172,135825,1,8,0:0:0:0:
299,171,135983,1,0,0:0:0:0:
175,264,136141,6,0,B|214:256|214:256|317:152,1,160,12|0,0:1|0:0,0:0:0:0:
155,265,136615,1,8,0:0:0:0:
54,171,136773,2,0,P|113:168|134:187,1,80,8|0,0:1|0:0,0:0:0:0:
315,313,137089,6,0,B|352:324|352:324|450:287,1,120,14|0,0:0|0:0,0:0:0:0:
296,301,137404,2,0,P|251:310|228:351,1,80,8|0,0:1|0:0,0:0:0:0:
411,217,137720,2,0,L|428:295,1,80,8|0,0:0|0:0,0:0:0:0:
216,66,138036,6,0,B|272:57|272:57|334:69|334:69|373:60,1,160,12|8,0:1|0:1,0:0:0:0:
266,150,138510,1,8,0:1:0:0:
388,56,138668,1,8,0:1:0:0:
388,56,138983,6,0,B|427:120|427:120|392:188,1,143.999995605469,14|0,0:0|0:0,0:0:0:0:
374,177,139299,2,0,B|335:241|335:241|370:309,1,143.999995605469,8|0,0:0|0:0,0:0:0:0:
375,311,139615,2,0,L|477:292,1,95.9999970703126,8|0,0:0|0:0,0:0:0:0:
187,208,139931,6,0,P|109:212|86:296,1,143.999995605469,12|0,0:1|0:0,0:0:0:0:
89,281,140246,2,0,P|109:210|48:148,1,143.999995605469,10|0,0:0|0:0,0:0:0:0:
74,159,140562,2,0,P|96:201|144:218,1,95.9999970703126,10|0,0:0|0:0,0:0:0:0:
324,352,140878,6,0,B|386:342|386:342|430:313|430:313|513:304,2,191.999994140625,14|8|10,0:0|0:0|0:0,0:0:0:0:
138,46,141825,6,0,P|57:69|40:188,2,191.999994140625,14|8|10,0:1|0:0|0:0,0:0:0:0:
308,187,142773,5,12,0:0:0:0:
308,187,143089,2,0,B|364:199|364:199|469:168,1,143.999995605469,10|0,0:0|0:0,0:0:0:0:
296,170,143404,2,0,P|239:197|229:235,1,95.9999970703126,10|0,0:0|0:0,0:0:0:0:
381,11,143720,6,0,L|363:122,1,95.9999970703126,14|0,0:1|0:0,0:0:0:0:
323,338,144036,2,0,L|140:317,1,143.999995605469,8|0,0:0|0:0,0:0:0:0:
162,317,144352,2,0,P|148:272|179:227,1,95.9999970703126,10|0,0:0|0:0,0:0:0:0:
457,193,144668,6,0,P|498:142|453:61,1,143.999995605469,12|0,0:0|0:0,0:0:0:0:
457,61,144983,2,0,B|409:73|409:73|364:56,1,95.9999970703126,10|0,0:0|0:0,0:0:0:0:
255,148,145299,2,0,B|303:136|303:136|348:153,1,95.9999970703126,10|0,0:0|0:0,0:0:0:0:
112,63,145615,6,0,L|130:161,1,95.9999970703126,14|0,0:1|0:0,0:0:0:0:
237,242,145931,2,0,L|254:147,1,95.9999970703126,10|0,0:0|0:0,0:0:0:0:
385,54,146246,2,0,L|367:148,1,95.9999970703126,10|0,0:0|0:0,0:0:0:0:
194,332,146562,6,0,B|143:324|123:280|148:252|118:203|69:196,1,191.999994140625,14|8,0:0|0:0,0:0:0:0:
226,243,147036,1,0,0:0:0:0:
226,243,147194,2,0,P|259:229|285:166,1,95.9999970703126,8|0,0:0|0:0,0:0:0:0:
216,58,147510,6,0,B|273:50|273:50|336:63|336:63|414:48,1,191.999994140625,14|8,0:1|0:0,0:0:0:0:
202,78,147983,1,0,0:0:0:0:
202,78,148141,2,0,L|104:90,1,95.9999970703126,8|0,0:0|0:0,0:0:0:0:
351,174,148457,6,0,P|410:222|347:315,1,191.999994140625,14|8,0:0|0:0,0:0:0:0:
240,362,148931,1,0,0:0:0:0:
240,362,149089,2,0,P|177:332|142:345,1,95.9999970703126,8|0,0:0|0:0,0:0:0:0:
0,224,149404,6,0,L|211:165,1,191.999994140625,14|8,0:1|0:0,0:0:0:0:
329,129,149878,2,0,P|365:177|350:222,1,95.9999970703126,0|8,0:0|0:0,0:0:0:0:
150,72,150352,6,0,P|250:47|341:7,2,191.999994140625,14|8|8,0:0|0:0|0:0,0:0:0:0:
95,292,151299,6,0,P|83:246|101:202,1,95.9999970703126,14|0,0:1|0:0,0:0:0:0:
239,234,151615,2,0,L|336:238,1,95.9999970703126,8|0,0:0|0:0,0:0:0:0:
478,162,151931,2,0,P|489:207|471:251,1,95.9999970703126,8|0,0:0|0:0,0:0:0:0:
338,58,152246,6,0,B|260:52|260:52|223:118,1,143.999995605469,14|0,0:1|0:0,0:0:0:0:
217,130,152562,2,0,P|165:129|140:86,1,95.9999970703126,8|0,0:1|0:0,0:0:0:0:
351,43,152878,2,0,P|403:44|428:87,1,95.9999970703126,8|0,0:1|0:0,0:0:0:0:
347,270,153194,6,0,L|329:171,1,95.9999970703126,14|0,0:1|0:0,0:0:0:0:
338,294,153510,1,8,0:1:0:0:
244,242,153668,1,8,0:1:0:0:
329,175,153825,1,8,0:1:0:0:
427,222,153983,1,8,0:1:0:0:
503,148,154141,6,0,P|511:101|425:37,1,143.999995605469,12|0,0:0|0:0,0:0:0:0:
438,34,154457,2,0,B|346:66|346:66|242:34,1,191.999994140625,10|10,0:0|0:0,0:0:0:0:
0,195,155089,6,0,L|103:182,1,95.9999970703126,14|0,0:1|0:0,0:0:0:0:
192,275,155404,2,0,L|295:262,1,95.9999970703126,8|0,0:0|0:0,0:0:0:0:
385,355,155720,2,0,L|488:342,1,95.9999970703126,8|0,0:0|0:0,0:0:0:0:
503,148,156036,6,0,P|511:101|425:37,1,143.999995605469,12|0,0:0|0:0,0:0:0:0:
438,34,156352,2,0,B|346:66|346:66|242:34,1,191.999994140625,10|10,0:0|0:0,0:0:0:0:
0,195,156983,6,0,L|103:182,1,95.9999970703126,14|0,0:1|0:0,0:0:0:0:
192,275,157299,2,0,L|295:262,1,95.9999970703126,8|0,0:0|0:0,0:0:0:0:
385,355,157615,2,0,L|488:342,1,95.9999970703126,8|0,0:0|0:0,0:0:0:0:
503,148,157931,6,0,B|455:149|422:106|440:83|403:38|357:34,2,191.999994140625,14|8|8,0:0|0:0|0:0,0:0:0:0:
336,117,158720,5,0,0:0:0:0:
336,117,158878,2,0,P|276:121|234:138,1,95.9999970703126,14|0,0:1|0:0,0:0:0:0:
57,178,159194,2,0,P|117:182|159:199,1,95.9999970703126,8|0,0:0|0:0,0:0:0:0:
215,296,159510,1,8,0:0:0:0:
215,296,159825,6,0,B|262:272|262:272|302:232|302:232|349:207,1,143.999995605469,14|0,0:0|0:0,0:0:0:0:
355,204,160141,2,0,P|348:141|308:124,1,95.9999970703126,8|0,0:0|0:0,0:0:0:0:
171,109,160457,2,0,P|178:46|218:29,1,95.9999970703126,8|0,0:0|0:0,0:0:0:0:
385,8,160773,5,14,0:1:0:0:
34,48,161720,6,0,B|98:59|98:59|133:85|133:85|189:93,1,160,12|0,0:0|0:0,0:0:0:0:
12,48,162194,2,0,P|-11:96|0:128,1,80,8|0,0:0|0:0,0:0:0:0:
57,214,162510,1,8,0:0:0:0:
0,342,162668,6,0,P|46:313|154:304,2,160,12|0|8,0:1|0:0|0:0,0:0:0:0:
175,310,163457,5,0,0:0:0:0:
175,310,163615,2,0,B|196:275|196:275|148:145,1,160,8|0,0:0|0:0,0:0:0:0:
166,329,164089,2,0,P|202:362|298:312,1,160,8|8,0:0|0:0,0:0:0:0:
503,316,164562,6,0,B|465:327|465:327|427:297,1,80,12|0,0:1|0:0,0:0:0:0:
374,233,164878,1,8,0:0:0:0:
374,233,165036,1,8,0:0:0:0:
421,149,165194,2,0,P|465:134|511:154,1,80,8|0,0:0|0:0,0:0:0:0:
278,191,165510,6,0,L|101:174,1,160,8|0,0:0|0:0,0:0:0:0:
296,180,165983,2,0,P|318:126|298:94,1,80,8|0,0:0|0:0,0:0:0:0:
213,65,166299,1,8,0:0:0:0:
371,63,166457,6,0,L|275:99,1,80,12|0,0:1|0:0,0:0:0:0:
100,172,166773,2,0,P|63:120|117:41,1,160,0|8,0:0|0:0,0:0:0:0:
118,177,167246,5,0,0:0:0:0:
118,177,167404,2,0,L|107:259,1,80,8|0,0:0|0:0,0:0:0:0:
233,155,167720,1,8,0:0:0:0:
247,243,167878,2,0,L|258:325,1,80,8|0,0:0|0:0,0:0:0:0:
417,191,168194,1,8,0:0:0:0:
403,279,168352,6,0,L|392:361,1,80,8|0,0:1|0:0,0:0:0:0:
345,133,168668,1,8,0:1:0:0:
428,95,168825,1,8,0:1:0:0:
501,158,168983,1,8,0:1:0:0:
331,118,169299,6,0,B|262:129|262:129|234:148|234:148|161:157,1,160,8|0,0:0|0:0,0:0:0:0:
345,133,169773,2,0,P|360:175|343:213,1,80,8|0,0:0|0:0,0:0:0:0:
275,265,170089,1,8,0:0:0:0:
157,144,170246,6,0,L|77:153,1,80,12|0,0:1|0:0,0:0:0:0:
231,81,170562,2,0,P|237:29|209:2,2,80,0|0|0,0:0|0:0|0:0,0:0:0:0:
84,250,171036,1,0,0:0:0:0:
16,306,171194,6,0,L|181:260,1,160,8|0,0:0|0:0,0:0:0:0:
315,222,171668,2,0,P|353:266|326:365,1,160,8|8,0:0|0:0,0:0:0:0:
293,207,172141,6,0,L|306:112,1,80,8|0,0:1|0:0,0:0:0:0:
339,26,172457,2,0,P|416:24|460:108,1,160,0|0,0:0|0:0,0:0:0:0:
241,63,172931,5,0,0:0:0:0:
241,63,173089,2,0,L|137:59,1,80,8|0,0:0|0:0,0:0:0:0:
75,143,173404,1,0,0:0:0:0:
10,83,173562,2,0,P|61:93|83:138,1,80,8|0,0:0|0:0,0:0:0:0:
145,282,173878,1,8,0:0:0:0:
211,221,174036,6,0,L|48:268,2,160,8|0|0,0:1|0:0|0:0,0:0:0:0:
344,182,174825,5,0,0:0:0:0:
344,182,174983,2,0,P|387:240|332:297,1,150,8|0,0:0|0:0,0:0:0:0:
330,296,175299,2,0,L|156:273,1,150,8|0,0:0|0:0,0:0:0:0:
160,272,175615,2,0,P|105:312|131:391,1,150,8|0,0:0|0:0,0:0:0:0:
121,383,175931,1,8,0:0:0:0:
324,160,192036,6,0,L|441:130,2,111.999996582031,8|8|8,0:1|0:0|0:0,0:0:0:0:
178,204,192983,2,0,L|69:176,2,111.999996582031,8|8|8,0:0|0:0|0:0,0:0:0:0:
320,336,193931,6,0,P|346:286|309:235,1,111.999996582031,8|8,0:0|0:0,0:0:0:0:
178,206,194562,1,8,0:0:0:0:
337,20,194878,2,0,L|318:137,1,111.999996582031,8|8,0:0|0:0,0:0:0:0:
178,206,195510,1,8,0:0:0:0:
13,219,195825,6,0,P|90:242|109:286,2,111.999996582031,8|8|8,0:0|0:0|0:0,0:0:0:0:
178,206,196773,2,0,L|304:219,1,111.999996582031,8|8,0:0|0:0,0:0:0:0:
427,221,197404,1,8,0:0:0:0:
430,225,197720,2,0,P|446:181|393:127,1,111.999996582031,8|8,0:0|0:0,0:0:0:0:
247,96,198352,1,8,0:0:0:0:
106,237,198668,6,0,L|172:208,1,60.0000022888184,8|0,0:0|0:0,0:0:0:0:
247,96,198983,2,0,L|239:167,1,60.0000022888184,8|0,0:0|0:0,0:0:0:0:
302,295,199299,2,0,L|243:252,1,60.0000022888184,8|0,0:1|0:0,0:0:0:0:
36,267,199615,6,0,L|168:208,1,136.000002593994,12|8,0:1|0:0,0:0:0:0:
350,116,200246,1,8,0:0:0:0:
476,267,200562,6,0,L|343:208,1,136.000002593994,8|8,0:0|0:0,0:0:0:0:
162,116,201194,1,8,0:0:0:0:
36,267,201510,6,0,L|122:255,1,64,8|0,0:0|0:0,0:0:0:0:
158,126,201825,2,0,L|94:134,1,64,8|0,0:0|0:0,0:0:0:0:
22,84,202141,1,8,0:1:0:0:
22,84,202457,6,0,P|4:134|11:162,1,71.9999978027344,8|0,0:0|0:0,0:0:0:0:
226,195,202773,2,0,P|244:245|237:273,1,71.9999978027344,8|0,0:1|0:0,0:0:0:0:
84,367,203089,2,0,L|-10:367,1,71.9999978027344,8|0,0:1|0:0,0:0:0:0:
233,282,203404,6,0,L|365:293,1,120,8|0,0:1|0:0,0:0:0:0:
365,294,203720,2,0,P|392:256|380:221,1,80,8|0,0:1|0:0,0:0:0:0:
226,195,204036,2,0,P|218:149|184:132,1,80,8|0,0:1|0:0,0:0:0:0:
48,74,204352,6,0,L|206:45,1,132.00000402832,8|0,0:1|0:0,0:0:0:0:
182,31,204668,2,0,L|273:40,1,88.000002685547,8|0,0:1|0:0,0:0:0:0:
383,5,204983,2,0,L|461:74,1,88.000002685547,8|0,0:1|0:0,0:0:0:0:
458,209,205299,6,0,P|386:190|329:228,1,143.999995605469,8|0,0:1|0:0,0:0:0:0:
316,211,205615,2,0,P|265:246|220:238,1,95.9999970703126,8|0,0:1|0:0,0:0:0:0:
62,286,205931,2,0,P|109:288|145:319,1,95.9999970703126,8|0,0:1|0:0,0:0:0:0:
188,153,206246,5,8,0:1:0:0:
176,144,207194,6,0,B|241:135|241:135|289:92|289:92|362:72,1,191.999994140625,14|0,0:0|0:0,0:0:0:0:
151,151,207668,2,0,P|124:102|140:59,1,95.9999970703126,8|0,0:0|0:0,0:0:0:0:
220,26,207983,1,8,0:0:0:0:
327,187,208141,6,0,P|384:215|412:208,1,95.9999970703126,8|0,0:1|0:0,0:0:0:0:
512,85,208457,2,0,L|504:195,1,95.9999970703126,2|0,0:0|0:0,0:0:0:0:
419,303,208773,2,0,L|411:193,1,95.9999970703126,2|0,0:0|0:0,0:0:0:0:
275,19,209089,6,0,B|215:34|196:77|223:107|190:150|137:152,1,191.999994140625,10|0,0:0|0:0,0:0:0:0:
293,29,209562,2,0,P|347:58|348:101,1,95.9999970703126,8|0,0:0|0:0,0:0:0:0:
233,264,209878,1,8,0:0:0:0:
297,332,210036,6,0,P|348:320|375:280,1,95.9999970703126,8|0,0:1|0:0,0:0:0:0:
210,250,210352,2,0,P|159:262|132:302,1,95.9999970703126,0|2,0:0|0:0,0:0:0:0:
315,181,210668,2,0,P|311:124|262:96,1,95.9999970703126,0|0,0:0|0:0,0:0:0:0:
107,105,210983,6,0,L|326:61,1,191.999994140625,10|0,0:0|0:0,0:0:0:0:
90,117,211457,2,0,L|-18:110,1,95.9999970703126,8|0,0:0|0:0,0:0:0:0:
146,252,211773,1,8,0:0:0:0:
213,192,211931,6,0,L|308:198,1,95.9999970703126,8|0,0:1|0:0,0:0:0:0:
403,259,212246,2,0,P|410:320|382:347,1,95.9999970703126,0|0,0:0|0:0,0:0:0:0:
322,201,212562,2,0,P|315:140|343:113,1,95.9999970703126,2|0,0:0|0:0,0:0:0:0:
503,30,212878,6,0,B|458:45|458:45|302:21,1,191.999994140625,8|0,0:0|0:0,0:0:0:0:
101,29,213352,2,0,P|74:77|96:119,1,95.9999970703126,8|8,0:0|0:0,0:0:0:0:
161,210,213668,1,0,0:0:0:0:
85,262,213825,6,0,L|278:218,1,191.999994140625,8|10,0:1|0:0,0:0:0:0:
358,234,214299,1,10,0:1:0:0:
268,198,214457,1,10,0:1:0:0:
329,120,214615,1,10,0:1:0:0:
240,26,214773,6,0,B|179:41|179:41|147:79|147:79|66:97,1,191.999994140625,14|0,0:0|0:0,0:0:0:0:
265,41,215246,2,0,L|361:17,1,95.9999970703126,8|0,0:0|0:0,0:0:0:0:
512,150,215562,1,8,0:0:0:0:
460,75,215720,6,0,P|407:91|391:135,1,95.9999970703126,8|0,0:1|0:0,0:0:0:0:
337,261,216036,2,0,P|269:257|243:228,1,95.9999970703126,2|0,0:0|0:0,0:0:0:0:
144,142,216352,2,0,L|36:163,1,95.9999970703126,2|0,0:0|0:0,0:0:0:0:
0,341,216668,6,0,L|192:299,1,191.999994140625,10|0,0:0|0:0,0:0:0:0:
144,142,217141,2,0,P|117:198|140:230,1,95.9999970703126,8|0,0:0|0:0,0:0:0:0:
213,266,217457,1,8,0:0:0:0:
306,155,217615,6,0,P|357:178|409:157,1,95.9999970703126,8|0,0:1|0:0,0:0:0:0:
198,73,217931,2,0,P|147:50|95:71,1,95.9999970703126,0|2,0:0|0:0,0:0:0:0:
36,159,218246,1,0,0:0:0:0:
36,159,218562,6,0,B|104:181|104:181|143:229|143:229|210:248,1,191.999994140625,10|0,0:0|0:0,0:0:0:0:
313,156,219036,2,0,P|293:202|412:246,1,191.999994140625,8|8,0:0|0:0,0:0:0:0:
430,37,219510,6,0,L|320:68,1,95.9999970703126,8|0,0:1|0:0,0:0:0:0:
194,92,219825,2,0,P|164:49|176:8,1,95.9999970703126,0|0,0:0|0:0,0:0:0:0:
313,156,220141,2,0,P|322:201|293:238,1,95.9999970703126,0|0,0:0|0:0,0:0:0:0:
106,216,220457,6,0,B|91:324|91:324|132:295,1,143.999995605469,8|0,0:0|0:0,0:0:0:0:
117,198,220773,2,0,P|95:153|28:164,1,95.9999970703126,8|0,0:1|0:0,0:0:0:0:
238,291,221089,2,0,L|337:262,1,95.9999970703126,8|0,0:0|0:0,0:0:0:0:
468,204,221404,5,8,0:1:0:0:
409,128,221562,2,0,P|355:137|330:174,1,95.9999970703126,8|0,0:1|0:0,0:0:0:0:
385,296,221878,1,8,0:1:0:0:
326,372,222036,2,0,P|272:363|247:326,1,95.9999970703126,8|0,0:1|0:0,0:0:0:0:
53,243,222352,6,0,B|106:234|106:234|161:209|161:209|228:195,1,182.399997773438,14|0,0:0|0:0,0:0:0:0:
25,243,222825,2,0,P|8:198|26:159,1,91.1999988867188,8|0,0:0|0:0,0:0:0:0:
106,118,223141,1,8,0:0:0:0:
239,206,223299,6,0,L|344:181,1,91.1999988867188,8|0,0:1|0:0,0:0:0:0:
420,158,223615,2,0,P|432:109|402:72,2,91.1999988867188,2|2|0,0:0|0:0|0:0,0:0:0:0:
327,184,224089,1,0,0:0:0:0:
458,336,224246,6,0,L|413:130,1,182.399997773438,8|0,0:0|0:0,0:0:0:0:
448,348,224720,2,0,B|408:371|408:371|345:347,1,91.1999988867188,8|0,0:0|0:0,0:0:0:0:
279,316,225036,1,8,0:0:0:0:
138,370,225194,6,0,P|182:336|189:293,1,91.1999988867188,8|0,0:1|0:0,0:0:0:0:
133,197,225510,2,0,L|19:212,1,91.1999988867188,0|2,0:0|0:0,0:0:0:0:
211,124,225825,2,0,L|301:112,1,91.1999988867188,8|0,0:0|0:0,0:0:0:0:
504,270,226141,6,0,P|525:194|448:128,1,182.399997773438,8|0,0:0|0:0,0:0:0:0:
484,283,226615,2,0,P|474:335|502:368,1,91.1999988867188,8|8,0:0|0:0,0:0:0:0:
410,239,226931,1,0,0:0:0:0:
314,364,227089,6,0,L|403:384,1,91.1999988867188,8|0,0:1|0:0,0:0:0:0:
164,284,227404,2,0,P|124:310|111:355,1,91.1999988867188,0|0,0:0|0:0,0:0:0:0:
277,233,227720,2,0,P|290:181|263:147,1,91.1999988867188,2|0,0:0|0:0,0:0:0:0:
89,137,228036,6,0,L|282:109,1,182.399997773438,8|8,0:0|0:0,0:0:0:0:
71,141,228510,1,8,0:0:0:0:
71,141,228668,2,0,P|50:200|74:241,1,91.1999988867188,8|0,0:0|0:0,0:0:0:0:
281,94,228983,6,0,B|346:110|346:110|370:141|370:141|451:160,1,182.399997773438,12|8,0:1|0:1,0:0:0:0:
290,186,229457,1,8,0:1:0:0:
468,165,229615,1,8,0:1:0:0:
261,89,229931,6,0,B|204:105|191:143|217:168|193:209|145:217,1,182.399997773438,14|0,0:0|0:0,0:0:0:0:
276,101,230404,2,0,L|476:132,1,182.399997773438,8|8,0:0|0:0,0:0:0:0:
456,327,230878,6,0,P|454:278|420:251,1,91.1999988867188,8|0,0:1|0:0,0:0:0:0:
338,259,231194,1,2,0:0:0:0:
238,351,231352,2,0,P|188:338|154:302,2,91.1999988867188,2|0|0,0:0|0:0|0:0,0:0:0:0:
423,252,231825,6,0,L|399:64,1,182.399997773438,10|0,0:0|0:0,0:0:0:0:
338,259,232299,2,0,P|271:277|249:265,1,91.1999988867188,8|0,0:0|0:0,0:0:0:0:
240,173,232615,1,8,0:0:0:0:
100,216,232773,6,0,L|110:109,1,91.1999988867188,8|0,0:1|0:0,0:0:0:0:
248,82,233089,2,0,L|239:172,1,91.1999988867188,0|0,0:0|0:0,0:0:0:0:
89,231,233404,2,0,L|99:124,1,91.1999988867188,10|0,0:0|0:0,0:0:0:0:
261,82,233720,6,0,B|313:87|331:131|313:155|341:193|392:191,1,182.399997773438,12|8,0:0|0:0,0:0:0:0:
488,181,234194,1,0,0:0:0:0:
488,181,234352,2,0,P|507:135|491:98,1,91.1999988867188,8|0,0:0|0:0,0:0:0:0:
233,175,234668,6,0,B|185:189|185:189|176:197|176:197|136:207,1,91.1999988867188,8|0,0:1|0:0,0:0:0:0:
329,313,234983,2,0,L|459:337,1,136.799998330078,8|0,0:0|0:0,0:0:0:0:
462,340,235299,2,0,L|451:241,1,91.1999988867188,8|0,0:1|0:0,0:0:0:0:
414,121,235615,6,0,B|407:92|365:81|365:81|325:104|322:152|357:190,1,191.999994140625,14|0,0:0|0:0,0:0:0:0:
245,293,236562,6,0,B|197:305|173:352|173:352|170:298|126:265,1,191.999994140625,14|0,0:0|0:0,0:0:0:0:
131,269,237510,5,14,0:0:0:0:
256,192,237589,12,0,240352,0:0:0:0:
