osu file format v14

[General]
AudioFilename: audio.mp3
AudioLeadIn: 0
PreviewTime: 32720
Countdown: 0
SampleSet: Soft
StackLeniency: 0.7
Mode: 0
LetterboxInBreaks: 0
WidescreenStoryboard: 1

[Editor]
Bookmarks: 668,2563,17720,32878,36668,40457,44247,48036,61299,61615,63194,78352,84036,85931,93510,97299,101089,104878,108668,121931,123826,138984,154141,161720,176878,192036,199615,206247,207194,222352,235615
DistanceSpacing: 0.8
BeatDivisor: 4
GridSize: 32
TimelineZoom: 2.6

[Metadata]
Title:Line Without a Hook
TitleUnicode:Line Without a Hook
Artist:Ricky Montgomery
ArtistUnicode:Ricky Montgomery
Creator:hypercyte
Version:Hard
Source:osu!
Tags:alternative rock indie english featured artist fa mapper's guild mappers guild mpg hypercute rohmontgomery rickymontgomery the honeysticks full spread
BeatmapID:2241345
BeatmapSetID:1062477

[Difficulty]
HPDrainRate:5
CircleSize:3.6
OverallDifficulty:6
ApproachRate:8
SliderMultiplier:1.44
SliderTickRate:1

[Events]
//Background and Video events
0,0,"4 without a hook.jpg",0,0
//Break Periods
2,80446,83286
2,176878,191089
//Storyboard Layer 0 (Background)
//Storyboard Layer 1 (Fail)
//Storyboard Layer 2 (Pass)
//Storyboard Layer 3 (Foreground)
//Storyboard Layer 4 (Overlay)
//Storyboard Sound Samples

[TimingPoints]
668,315.789473684211,3,2,0,60,1,0
668,-100,3,2,4,44,0,0
2562,-100,3,2,4,54,0,0
3273,-100,3,2,4,5,0,0
3352,-100,3,2,4,54,0,0
4378,-100,3,2,4,5,0,0
4457,-100,3,2,4,54,0,0
10852,-100,3,2,4,5,0,0
10931,-100,3,2,4,54,0,0
17720,-100,3,2,4,54,0,0
26010,-100,3,2,4,5,0,0
26089,-100,3,2,4,54,0,0
27904,-100,3,2,4,5,0,0
27983,-100,3,2,4,54,0,0
32878,-100,3,2,4,84,0,0
33115,-100,3,2,4,5,0,0
33194,-100,3,2,4,84,0,0
33431,-100,3,2,4,5,0,0
33510,-100,3,2,4,84,0,0
33746,-100,3,2,4,5,0,0
33825,-100,3,2,4,84,0,0
34773,-100,3,2,4,84,0,0
35010,-100,3,2,4,5,0,0
35089,-100,3,2,4,84,0,0
35325,-100,3,2,4,5,0,0
35404,-100,3,2,4,84,0,0
35641,-100,3,2,4,5,0,0
35720,-100,3,2,4,84,0,0
36668,-100,3,2,4,74,0,0
37931,-100,3,2,4,74,0,0
38562,-100,3,2,4,74,0,0
39510,-100,3,2,4,74,0,0
40457,-100,3,2,4,84,0,0
40694,-100,3,2,4,5,0,0
40773,-100,3,2,4,84,0,0
41010,-100,3,2,4,5,0,0
41089,-100,3,2,4,84,0,0
42352,-100,3,2,4,84,0,0
42589,-100,3,2,4,5,0,0
42668,-100,3,2,4,84,0,0
42904,-100,3,2,4,5,0,0
42983,-100,3,2,4,84,0,0
44246,-100,3,2,4,74,0,0
47325,-100,3,2,4,5,0,0
47404,-100,3,2,4,74,0,0
48036,-166.666666666667,3,2,4,54,0,0
61299,-100,3,2,4,74,0,0
61536,-100,3,2,4,5,0,0
61615,-100,3,2,4,74,0,0
61852,-100,3,2,4,5,0,0
61931,-100,3,2,4,74,0,0
62168,-100,3,2,4,5,0,0
62246,-100,3,2,4,74,0,0
63194,-100,3,2,4,64,0,0
63904,-100,3,2,4,5,0,0
63983,-100,3,2,4,64,0,0
65799,-100,3,2,4,5,0,0
65878,-100,3,2,4,64,0,0
69115,-100,3,2,4,5,0,0
69194,-100,3,2,4,64,0,0
69273,-100,3,2,4,5,0,0
69352,-100,3,2,4,64,0,0
69825,-100,3,2,4,64,0,0
70062,-100,3,2,4,5,0,0
70141,-100,3,2,4,64,0,0
70773,-100,3,2,4,64,0,0
74562,-100,3,2,4,64,0,0
78352,-100,3,2,4,44,0,0
80246,-100,3,2,4,44,0,0
82141,-100,3,2,4,44,0,0
84036,-100,3,2,4,74,0,0
84273,-100,3,2,4,5,0,0
84352,-100,3,2,4,74,0,0
84589,-100,3,2,4,5,0,0
84668,-100,3,2,4,74,0,0
84904,-100,3,2,4,5,0,0
84983,-100,3,2,4,74,0,0
85931,-100,3,2,4,74,0,0
86404,-100,3,2,4,74,0,0
87115,-100,3,2,4,5,0,0
87194,-100,3,2,4,74,0,0
90983,-100,3,2,4,74,0,0
93510,-100,3,2,4,64,0,0
94457,-100,3,2,4,64,0,0
95404,-100,3,2,4,64,0,0
96273,-100,3,2,4,5,0,0
96352,-100,3,2,4,64,0,0
97299,-100,3,2,4,64,0,0
101089,-100,3,2,4,84,0,0
101404,-100,3,2,4,84,0,0
101720,-100,3,2,4,84,0,0
102036,-100,3,2,4,84,0,0
102352,-100,3,2,4,84,0,0
102983,-100,3,2,4,84,0,0
104246,-100,3,2,4,84,0,0
104878,-100,3,2,4,64,0,0
107010,-100,3,2,4,5,0,0
107089,-100,3,2,4,64,0,0
107325,-100,3,2,4,5,0,0
107404,-100,3,2,4,64,0,0
107641,-100,3,2,4,5,0,0
107720,-100,3,2,4,64,0,0
108352,-100,3,2,4,64,0,0
108589,-100,3,2,4,5,0,0
108668,-100,3,2,4,54,0,0
121931,-100,3,2,4,64,0,0
122246,-100,3,2,4,64,0,0
122562,-100,3,2,4,64,0,0
122878,-100,3,2,4,74,0,0
123825,-100,3,2,4,64,0,0
128562,-100,3,2,4,64,0,0
129746,-100,3,2,4,5,0,0
129825,-100,3,2,4,64,0,0
130062,-100,3,2,4,5,0,0
130141,-100,3,2,4,64,0,0
130378,-100,3,2,4,5,0,0
130457,-100,3,2,4,64,0,0
136378,-100,3,2,4,5,0,0
136457,-100,3,2,4,64,0,0
137325,-100,3,2,4,5,0,0
137404,-100,3,2,4,64,0,0
137957,-100,3,2,4,5,0,0
138036,-100,3,2,4,64,0,0
138983,-100,3,2,4,84,0,1
139220,-100,3,2,4,5,0,1
139299,-100,3,2,4,84,0,1
139536,-100,3,2,4,5,0,1
139615,-100,3,2,4,84,0,1
139931,-100,3,2,4,84,0,1
140168,-100,3,2,4,5,0,1
140246,-100,3,2,4,84,0,1
140483,-100,3,2,4,5,0,1
140562,-100,3,2,4,84,0,1
140878,-100,3,2,4,84,0,1
141115,-100,3,2,4,5,0,1
141194,-100,3,2,4,84,0,1
141431,-100,3,2,4,5,0,1
141510,-100,3,2,4,84,0,1
141549,-100,3,2,4,5,0,1
141825,-100,3,2,4,84,0,1
142062,-100,3,2,4,5,0,1
142141,-100,3,2,4,84,0,1
142378,-100,3,2,4,5,0,1
142457,-100,3,2,4,84,0,1
142496,-100,3,2,4,5,0,1
142773,-100,3,2,4,84,0,1
143010,-100,3,2,4,5,0,1
143089,-100,3,2,4,84,0,1
143325,-100,3,2,4,5,0,1
143404,-100,3,2,4,84,0,1
143720,-100,3,2,4,84,0,1
143957,-100,3,2,4,5,0,1
144036,-100,3,2,4,84,0,1
144273,-100,3,2,4,5,0,1
144352,-100,3,2,4,84,0,1
144668,-100,3,2,4,84,0,1
144904,-100,3,2,4,5,0,1
144983,-100,3,2,4,84,0,1
145299,-100,3,2,4,84,0,1
145615,-100,3,2,4,84,0,1
145852,-100,3,2,4,5,0,1
145931,-100,3,2,4,84,0,1
146168,-100,3,2,4,5,0,1
146246,-100,3,2,4,84,0,1
148457,-100,3,2,4,84,0,1
148694,-100,3,2,4,5,0,1
148773,-100,3,2,4,84,0,1
149404,-100,3,2,4,94,0,1
149641,-100,3,2,4,5,0,1
149720,-100,3,2,4,94,0,1
150352,-100,3,2,4,64,0,1
150589,-100,3,2,4,5,0,1
150668,-100,3,2,4,64,0,1
151299,-100,3,2,4,74,0,1
151536,-100,3,2,4,5,0,1
151615,-100,3,2,4,74,0,1
152246,-100,3,2,4,84,0,1
152483,-100,3,2,4,5,0,1
152562,-100,3,2,4,84,0,1
153194,-100,3,2,4,94,0,1
153431,-100,3,2,4,5,0,1
153510,-100,3,2,4,94,0,1
154141,-100,3,2,4,84,0,1
154378,-100,3,2,4,5,0,1
154457,-100,3,2,4,84,0,1
156273,-100,3,2,4,5,0,1
156352,-100,3,2,4,84,0,1
158168,-100,3,2,4,5,0,1
158246,-100,3,2,4,84,0,1
158878,-100,3,2,4,84,0,1
159115,-100,3,2,4,5,0,1
159194,-100,3,2,4,84,0,1
159825,-100,3,2,4,84,0,1
160062,-100,3,2,4,5,0,1
160141,-100,3,2,4,84,0,1
160773,-100,3,2,4,84,0,0
161641,-100,3,2,4,5,0,0
161720,-100,3,2,4,64,0,0
162904,-100,3,2,4,5,0,0
162983,-100,3,2,4,64,0,0
166694,-100,3,2,4,5,0,0
166773,-100,3,2,4,64,0,0
167641,-100,3,2,4,5,0,0
167720,-100,3,2,4,64,0,0
168589,-100,3,2,4,5,0,0
168668,-100,3,2,4,64,0,0
170010,-100,3,2,4,5,0,0
170089,-100,3,2,4,64,0,0
170483,-100,3,2,4,5,0,0
170562,-100,3,2,4,64,0,0
173325,-100,3,2,4,5,0,0
173404,-100,3,2,4,64,0,0
174273,-100,3,2,4,5,0,0
174352,-100,3,2,4,64,0,0
174983,-100,3,2,4,64,0,0
175220,-100,3,2,4,5,0,0
175299,-100,3,2,4,64,0,0
175536,-100,3,2,4,5,0,0
175615,-100,3,2,4,64,0,0
175852,-100,3,2,4,5,0,0
175931,-100,3,2,4,64,0,0
176878,-100,3,2,4,44,0,0
177825,-100,3,2,4,44,0,0
178773,-100,3,2,4,44,0,0
179720,-100,3,2,4,44,0,0
180668,-100,3,2,4,44,0,0
181615,-100,3,2,4,44,0,0
182562,-100,3,2,4,44,0,0
183510,-100,3,2,4,44,0,0
184457,-100,3,2,4,44,0,0
185404,-100,3,2,4,44,0,0
186352,-100,3,2,4,44,0,0
187299,-100,3,2,4,44,0,0
188246,-100,3,2,4,44,0,0
191089,-100,3,2,4,44,0,0
192036,-117.647058823529,3,2,4,44,0,0
198668,-117.647058823529,3,2,4,44,0,0
199615,-100,3,2,4,54,0,0
199852,-100,3,2,4,5,0,0
199931,-100,3,2,4,54,0,0
200799,-100,3,2,4,5,0,0
200878,-100,3,2,4,54,0,0
201510,-100,3,2,4,64,0,0
201746,-100,3,2,4,5,0,0
201825,-100,3,2,4,64,0,0
202457,-100,3,2,4,64,0,0
202694,-100,3,2,4,5,0,0
202773,-100,3,2,4,64,0,0
203404,-100,3,2,4,74,0,0
203641,-100,3,2,4,5,0,0
203720,-100,3,2,4,74,0,0
204352,-100,3,2,4,74,0,0
204589,-100,3,2,4,5,0,0
204668,-100,3,2,4,74,0,0
205299,-100,3,2,4,84,0,0
205536,-100,3,2,4,5,0,0
205615,-100,3,2,4,84,0,0
207194,-100,3,2,4,74,0,0
207431,-100,3,2,4,5,0,0
207510,-100,3,2,4,74,0,0
211220,-100,3,2,4,5,0,0
211299,-100,3,2,4,74,0,0
212799,-100,3,2,4,5,0,0
212878,-100,3,2,4,74,0,0
214062,-100,3,2,4,5,0,0
214141,-100,3,2,4,74,0,0
219273,-100,3,2,4,5,0,0
219352,-100,3,2,4,74,0,0
220694,-100,3,2,4,5,0,0
220773,-100,3,2,4,74,0,0
221325,-100,3,2,4,5,0,0
221404,-100,3,2,4,74,0,0
222352,-100,3,2,4,74,0,0
235615,-100,3,2,4,64,0,0
237589,-100,3,2,4,44,0,0
240352,-100,3,2,4,5,0,0

[Colours]
Combo1 : 141,156,207
Combo2 : 255,201,147
Combo3 : 255,153,40
Combo4 : 189,205,232

[HitObjects]
368,197,1615,5,2,0:3:0:0:
368,197,1931,2,0,L|458:210,2,72,2|2|8,0:3|0:3|0:1,0:0:0:0:
282,143,2404,1,8,0:1:0:0:
183,188,2562,6,0,P|156:232|196:328,1,144,14|0,0:0|0:0,0:0:0:0:
276,347,3036,2,0,L|370:330,1,72,8|0,0:0|0:0,0:0:0:0:
399,247,3352,1,8,0:0:0:0:
501,269,3510,2,0,P|489:215|500:188,1,72,10|0,0:1|0:0,0:0:0:0:
419,132,3825,2,0,P|431:78|420:51,1,72,2|0,0:0|0:0,0:0:0:0:
333,22,4141,1,2,0:0:0:0:
333,22,4457,6,0,B|290:21|269:54|283:73|255:105|213:102,1,144,8|0,0:0|0:0,0:0:0:0:
125,73,4931,2,0,P|70:106|67:180,1,144,8|8,0:0|0:0,0:0:0:0:
36,276,5404,2,0,L|115:263,1,72,8|0,0:1|0:0,0:0:0:0:
181,203,5720,2,0,L|349:212,1,144,2|2,0:0|0:0,0:0:0:0:
476,76,6352,6,0,P|509:121|462:202,1,144,8|0,0:0|0:0,0:0:0:0:
479,296,6825,2,0,L|325:292,1,144,8|8,0:0|0:0,0:0:0:0:
239,327,7299,2,0,P|173:303|173:222,1,144,8|0,0:1|0:0,0:0:0:0:
243,172,7773,2,0,P|250:128|238:98,1,72,2|0,0:0|0:0,0:0:0:0:
50,35,8246,6,0,B|116:43|116:43|218:17,1,144,8|0,0:0|0:0,0:0:0:0:
281,89,8720,2,0,P|319:53|346:46,1,72,8|0,0:0|0:0,0:0:0:0:
433,78,9036,1,8,0:0:0:0:
433,78,9194,2,0,L|413:228,2,144,8|8|8,0:1|0:0|0:0,0:0:0:0:
234,113,10141,6,0,B|198:131|198:131|84:106,1,144,10|0,0:0|0:0,0:0:0:0:
19,174,10615,2,0,P|-7:234|48:298,1,144,8|8,0:0|0:0,0:0:0:0:
130,327,11089,2,0,L|216:306,1,72,10|0,0:1|0:0,0:0:0:0:
268,235,11404,2,0,L|354:256,1,72,2|0,0:0|0:0,0:0:0:0:
433,285,11720,1,2,0:0:0:0:
433,285,12036,6,0,B|464:269|474:244|474:244|444:149,1,144,8|0,0:0|0:0,0:0:0:0:
437,62,12510,2,0,P|384:96|295:77,1,144,8|8,0:0|0:0,0:0:0:0:
206,77,12983,1,10,0:1:0:0:
206,77,13141,1,2,0:0:0:0:
137,151,13299,2,0,P|135:199|158:234,1,72,2|0,0:0|0:0,0:0:0:0:
241,250,13615,2,0,L|318:232,1,72,2|2,0:0|0:0,0:0:0:0:
399,282,13931,6,0,P|401:330|378:365,1,72,10|2,0:0|0:0,0:0:0:0:
293,375,14246,1,2,0:0:0:0:
293,375,14404,1,10,0:0:0:0:
194,353,14562,2,0,L|110:358,1,72,2|10,0:0|0:0,0:0:0:0:
29,315,14878,2,0,P|2:241|36:169,2,144,10|2|2,0:1|0:0|0:0,0:0:0:0:
195,201,15825,6,0,P|242:185|325:228,1,144,10|2,0:0|0:0,0:0:0:0:
414,267,16299,2,0,P|447:239|452:190,1,72,8|2,0:0|0:0,0:0:0:0:
412,120,16615,1,8,0:0:0:0:
447,25,16773,2,0,L|528:33,1,72,8|0,0:1|0:0,0:0:0:0:
354,40,17089,2,0,L|282:32,1,72,10|0,0:0|0:0,0:0:0:0:
181,42,17404,1,10,0:1:0:0:
181,42,17562,1,8,0:1:0:0:
237,125,17720,6,0,B|259:140|260:166|260:166|209:269,1,144,10|0,0:0|0:0,0:0:0:0:
123,287,18194,2,0,P|78:258|81:219,1,72,8|0,0:0|0:0,0:0:0:0:
112,149,18510,1,8,0:0:0:0:
112,149,18668,2,0,P|101:106|80:90,1,72,8|0,0:1|0:0,0:0:0:0:
12,15,18983,2,0,L|115:-1,1,72,2|0,0:0|0:0,0:0:0:0:
183,20,19299,1,2,0:0:0:0:
183,20,19615,6,0,L|337:25,1,144,10|0,0:0|0:0,0:0:0:0:
423,54,20089,2,0,P|458:119|414:179,1,144,8|8,0:0|0:0,0:0:0:0:
359,250,20562,2,0,P|308:234|203:227,1,144,8|0,0:1|0:0,0:0:0:0:
121,257,21036,2,0,P|94:222|96:182,1,72,2|0,0:0|0:0,0:0:0:0:
245,62,21510,5,10,0:0:0:0:
245,62,21668,1,2,0:0:0:0:
316,131,21825,2,0,P|362:124|386:90,1,72,2|10,0:0|0:0,0:0:0:0:
479,94,22141,2,0,L|468:177,1,72,2|10,0:0|0:0,0:0:0:0:
436,261,22457,2,0,P|388:283|289:240,1,144,10|2,0:1|0:0,0:0:0:0:
210,217,22931,1,8,0:0:0:0:
139,289,23089,2,0,P|142:338|168:365,1,72,10|0,0:0|0:0,0:0:0:0:
254,372,23404,6,0,L|403:345,1,144,10|2,0:0|0:0,0:0:0:0:
489,308,23878,2,0,P|497:252|425:194,1,144,8|8,0:0|0:0,0:0:0:0:
336,194,24352,2,0,P|316:165|319:125,1,72,10|0,0:1|0:0,0:0:0:0:
397,66,24668,2,0,L|478:78,1,72,8|0,0:0|0:0,0:0:0:0:
318,10,24983,2,0,L|246:0,1,72,8|0,0:0|0:0,0:0:0:0:
155,43,25299,6,0,L|178:188,1,144,10|0,0:0|0:0,0:0:0:0:
119,268,25773,2,0,P|33:261|35:205,1,144,8|8,0:0|0:0,0:0:0:0:
75,130,26246,1,8,0:1:0:0:
75,130,26562,2,0,P|136:137|156:150,1,72,2|0,0:0|0:0,0:0:0:0:
225,202,26878,2,0,P|286:195|306:182,1,72,2|0,0:0|0:0,0:0:0:0:
346,103,27194,6,0,B|414:86|414:86|489:124,1,144,10|0,0:0|0:0,0:0:0:0:
460,218,27668,2,0,P|436:274|490:336,1,144,8|8,0:0|0:0,0:0:0:0:
387,367,28141,1,8,0:1:0:0:
387,367,28457,2,0,L|290:355,1,72,2|0,0:0|0:0,0:0:0:0:
239,291,28773,2,0,L|142:303,1,72,2|0,0:0|0:0,0:0:0:0:
308,221,29089,6,0,B|321:148|321:148|270:93,1,144,8|0,0:0|0:0,0:0:0:0:
183,50,29562,2,0,P|145:109|75:120,1,144,10|8,0:0|0:0,0:0:0:0:
15,201,30036,2,0,L|45:358,1,144,8|0,0:1|0:0,0:0:0:0:
140,368,30510,2,0,P|186:354|211:322,1,72,0|2,0:0|0:0,0:0:0:0:
235,242,30825,1,0,0:0:0:0:
326,284,30983,6,0,B|376:274|376:274|425:287|425:287|475:277,2,144,8|8|8,0:0|0:0|0:0,0:0:0:0:
141,201,31931,2,0,P|133:152|148:123,1,72,8|0,0:1|0:0,0:0:0:0:
224,75,32246,2,0,L|309:89,1,72,8|0,0:0|0:0,0:0:0:0:
393,110,32562,1,8,0:1:0:0:
393,110,32878,6,0,B|413:78|413:78|406:38,1,72,14|0,0:0|0:0,0:0:0:0:
378,201,33194,2,0,B|395:234|395:234|433:248,1,72,12|0,0:0|0:0,0:0:0:0:
304,139,33510,2,0,B|266:137|266:137|235:163,1,72,12|0,0:0|0:0,0:0:0:0:
140,203,34773,6,0,P|128:153|145:118,1,72,14|0,0:0|0:0,0:0:0:0:
216,75,35089,2,0,P|265:89|287:121,1,72,12|0,0:0|0:0,0:0:0:0:
285,204,35404,2,0,P|247:239|208:242,1,72,12|0,0:0|0:0,0:0:0:0:
136,350,36668,6,0,L|307:324,1,144,14|0,0:0|0:0,0:0:0:0:
375,301,37141,2,0,P|394:238|382:209,1,72,8|0,0:0|0:0,0:0:0:0:
306,181,37457,1,8,0:0:0:0:
306,181,37615,2,0,P|282:119|325:49,1,144,10|0,0:1|0:0,0:0:0:0:
417,47,38089,1,8,0:0:0:0:
417,47,38246,1,10,0:0:0:0:
385,246,38562,6,0,P|363:284|327:296,1,72,10|0,0:0|0:0,0:0:0:0:
255,236,38878,2,0,P|211:235|182:210,1,72,2|8,0:0|0:0,0:0:0:0:
195,118,39194,1,2,0:0:0:0:
195,118,39352,1,8,0:0:0:0:
280,64,39510,2,0,L|370:77,1,72,10|0,0:1|0:0,0:0:0:0:
448,99,39825,2,0,L|391:170,1,72,10|0,0:0|0:0,0:0:0:0:
333,228,40141,2,0,L|299:143,1,72,10|0,0:1|0:0,0:0:0:0:
206,109,40457,6,0,B|157:117|157:117|121:155|121:155|60:164,2,144,14|12|12,0:0|0:0|0:0,0:0:0:0:
306,275,42352,6,0,B|355:267|355:267|391:229|391:229|452:220,2,144,12|14|12,0:0|0:0|0:0,0:0:0:0:
129,213,44246,6,0,B|108:208|97:185|97:185|119:75,1,144,14|0,0:0|0:0,0:0:0:0:
195,23,44720,2,0,P|246:20|305:113,1,144,8|8,0:0|0:0,0:0:0:0:
287,184,45194,2,0,B|356:166|356:166|452:208,1,144,10|0,0:1|0:0,0:0:0:0:
246,293,45825,2,0,P|196:276|184:260,1,72,8|0,0:0|0:0,0:0:0:0:
83,257,46141,6,0,P|110:207|108:115,1,144,10|0,0:0|0:0,0:0:0:0:
46,42,46615,2,0,P|6:58|-12:88,2,72,8|8|8,0:1|0:0|0:0,0:0:0:0:
128,100,47089,1,10,0:1:0:0:
328,45,47404,1,8,0:1:0:0:
415,95,47562,1,8,0:3:0:0:
505,50,47720,1,4,0:3:0:0:
505,50,48036,6,0,P|468:8|431:3,2,86.3999973632813,10|0|0,0:0|0:0|0:0,0:0:0:0:
438,151,48983,2,0,P|447:185|429:242,1,86.3999973632813,2|0,0:3|0:0,0:0:0:0:
318,224,49615,1,8,0:0:0:0:
318,224,49931,6,0,B|246:217|246:217|211:233|211:233|140:226,1,172.799994726563,10|2,0:0|0:0,0:0:0:0:
67,137,50878,2,0,P|61:82|76:45,2,86.3999973632813,2|0|8,0:3|0:0|0:0,0:0:0:0:
174,192,51825,6,0,L|352:165,1,172.799994726563,10|2,0:0|0:0,0:0:0:0:
463,138,52773,1,2,0:3:0:0:
346,349,53404,1,2,0:0:0:0:
346,349,53720,6,0,B|327:285|327:285|336:253|336:253|313:172,1,172.799994726563,10|2,0:0|0:0,0:0:0:0:
254,77,54668,2,0,P|205:71|172:99,2,86.3999973632813,2|8|8,0:3|0:0|0:0,0:0:0:0:
336,165,55615,6,0,P|412:151|442:53,1,172.799994726563,10|2,0:0|0:0,0:0:0:0:
336,18,56562,2,0,L|246:18,2,86.3999973632813,2|2|2,0:3|0:0|0:0,0:0:0:0:
445,69,57510,6,0,P|427:150|443:246,1,172.799994726563,8|2,0:0|0:0,0:0:0:0:
362,330,58457,2,0,P|308:317|292:205,1,172.799994726563,2|8,0:3|0:0,0:0:0:0:
227,108,59404,6,0,B|178:100|178:100|50:157,1,172.799994726563,10|2,0:0|0:0,0:0:0:0:
58,271,60352,1,2,0:3:0:0:
58,271,61299,6,0,B|90:291|90:291|136:284,1,72,14|0,0:0|0:0,0:0:0:0:
206,210,61615,2,0,B|238:190|238:190|284:197,1,72,12|0,0:0|0:0,0:0:0:0:
366,233,61931,1,14,0:0:0:0:
366,233,62246,6,0,P|378:195|366:89,1,144,14|12,0:0|0:0,0:0:0:0:
276,49,62720,1,8,0:1:0:0:
196,110,62878,2,0,P|134:99|120:80,1,72,14|0,0:1|0:0,0:0:0:0:
34,45,63194,6,0,P|52:106|52:202,1,144,14|0,0:0|0:0,0:0:0:0:
19,281,63668,2,0,P|49:345|129:341,1,144,8|8,0:0|0:0,0:0:0:0:
189,281,64141,2,0,P|238:282|258:306,1,72,8|0,0:1|0:0,0:0:0:0:
331,360,64457,1,2,0:0:0:0:
331,360,64615,2,0,P|374:325|377:304,1,72,2|0,0:0|0:0,0:0:0:0:
508,157,65089,6,0,B|461:143|461:143|408:145|408:145|353:126,1,144,8|0,0:0|0:0,0:0:0:0:
291,66,65562,2,0,P|225:68|166:132,1,144,8|8,0:0|0:0,0:0:0:0:
71,97,66036,2,0,L|91:260,1,144,8|0,0:1|0:0,0:0:0:0:
161,310,66510,2,0,L|140:380,2,72,2|0|0,0:0|0:0|0:0,0:0:0:0:
230,236,66983,6,0,B|268:256|268:256|372:233,1,144,8|0,0:0|0:0,0:0:0:0:
458,276,67457,2,0,P|467:207|420:150,1,144,8|8,0:0|0:0,0:0:0:0:
368,66,67931,2,0,L|526:71,1,144,8|0,0:1|0:0,0:0:0:0:
301,129,68562,2,0,L|211:121,1,72,2|0,0:0|0:0,0:0:0:0:
127,116,68878,6,0,P|96:174|121:250,1,144,8|8,0:0|0:0,0:0:0:0:
202,300,69352,2,0,L|286:280,1,72,8|0,0:1|0:0,0:0:0:0:
368,252,69668,1,8,0:0:0:0:
450,308,69825,2,0,L|469:225,1,72,8|0,0:1|0:0,0:0:0:0:
484,138,70141,1,8,0:0:0:0:
484,138,70299,1,8,0:1:0:0:
409,69,70457,1,8,0:1:0:0:
409,69,70615,1,8,0:1:0:0:
318,128,70773,6,0,B|254:121|254:121|227:131|227:131|166:126,1,144,12|0,0:0|0:0,0:0:0:0:
75,132,71246,1,8,0:0:0:0:
75,132,71404,2,0,P|61:177|73:204,1,72,0|8,0:0|0:0,0:0:0:0:
89,298,71720,2,0,P|150:283|250:278,1,144,8|2,0:1|0:0,0:0:0:0:
282,189,72194,2,0,P|352:205|423:209,1,144,2|0,0:0|0:0,0:0:0:0:
501,275,72668,6,0,B|509:321|509:321|468:363|468:363|418:356,1,144,10|0,0:0|0:0,0:0:0:0:
339,311,73141,2,0,P|272:305|247:328,1,72,8|0,0:0|0:0,0:0:0:0:
183,357,73457,1,8,0:0:0:0:
87,324,73615,2,0,B|78:258|78:258|88:226|88:226|84:170,2,144,8|0|10,0:1|0:0|0:0,0:0:0:0:
288,311,74562,6,0,L|269:160,1,144,8|0,0:0|0:0,0:0:0:0:
271,66,75036,2,0,P|332:25|402:64,1,144,8|8,0:0|0:0,0:0:0:0:
466,118,75510,2,0,B|444:178|444:178|456:208|456:208|440:262,1,144,8|0,0:1|0:0,0:0:0:0:
368,322,75983,1,0,0:0:0:0:
273,286,76141,2,0,P|297:242|318:228,1,72,8|0,0:0|0:0,0:0:0:0:
185,340,76457,6,0,L|39:328,1,144,10|0,0:0|0:0,0:0:0:0:
12,230,76931,1,8,0:1:0:0:
12,230,77089,2,0,P|23:176|41:156,1,72,8|0,0:0|0:0,0:0:0:0:
113,103,77404,2,0,L|280:118,2,144,10|8|8,0:1|0:0|0:0,0:0:0:0:
113,103,78352,5,14,0:0:0:0:
256,192,78510,12,2,80246,0:0:0:0:
206,183,84036,6,0,B|262:201|262:201|326:181,1,108,14|0,0:1|0:0,0:0:0:0:
359,176,84352,2,0,P|393:206|377:280,1,108,14|0,0:1|0:0,0:0:0:0:
353,299,84668,1,14,0:1:0:0:
153,320,84983,5,10,0:1:0:0:
81,249,85141,1,8,0:1:0:0:
132,162,85299,2,0,L|220:169,2,72,10|8|6,0:1|0:3|0:3,0:0:0:0:
315,75,85931,6,0,B|373:85|373:85|401:104|401:104|463:114,1,144,14|0,0:0|0:0,0:0:0:0:
502,199,86404,2,0,P|502:255|401:278,1,144,8|8,0:0|0:0,0:0:0:0:
339,246,86878,1,12,0:1:0:0:
339,246,87194,2,0,P|283:248|260:266,1,72,0|0,0:0|0:0,0:0:0:0:
178,213,87510,2,0,P|139:254|136:283,1,72,0|0,0:0|0:0,0:0:0:0:
23,296,87825,6,0,B|43:234|43:234|40:211|40:211|57:154,1,144,10|0,0:0|0:0,0:0:0:0:
25,60,88299,2,0,L|179:39,1,144,8|8,0:0|0:0,0:0:0:0:
260,89,88773,1,8,0:1:0:0:
260,89,89089,2,0,L|241:172,1,72,0|0,0:0|0:0,0:0:0:0:
299,243,89404,2,0,L|282:313,1,72,0|0,0:0|0:0,0:0:0:0:
193,361,89720,6,0,P|130:366|104:293,1,144,10|0,0:0|0:0,0:0:0:0:
26,231,90194,2,0,P|53:166|65:62,1,144,8|8,0:0|0:0,0:0:0:0:
138,24,90668,1,8,0:1:0:0:
289,155,90983,1,0,0:0:0:0:
289,155,91141,1,8,0:2:0:0:
380,112,91299,2,0,P|389:66|364:33,1,72,8|0,0:2|0:0,0:0:0:0:
281,13,91615,6,0,P|196:20|128:24,1,144,10|0,0:0|0:0,0:0:0:0:
52,78,92089,2,0,P|29:147|62:220,1,144,8|8,0:0|0:0,0:0:0:0:
144,254,92562,1,8,0:1:0:0:
291,116,92878,1,8,0:0:0:0:
484,59,93194,1,8,0:1:0:0:
415,248,93510,6,0,L|263:214,2,144,12|0|0,0:0|0:0|0:0,0:0:0:0:
486,59,94457,1,8,0:0:0:0:
117,204,95404,6,0,P|75:152|101:80,2,144,12|0|0,0:0|0:0|0:0,0:0:0:0:
318,226,96352,1,8,0:0:0:0:
313,221,97299,6,0,B|319:156|319:156|333:136|333:136|338:80,1,144,12|0,0:0|0:0,0:0:0:0:
254,23,97773,2,0,P|187:31|170:49,1,72,0|8,0:0|0:0,0:0:0:0:
97,206,98246,2,0,L|330:222,1,216,8|0,0:1|0:0,0:0:0:0:
413,229,98878,1,8,0:0:0:0:
413,229,99194,6,0,P|427:285|381:361,1,144,8|0,0:0|0:0,0:0:0:0:
288,332,99668,2,0,L|189:328,1,72,8|0,0:0|0:0,0:0:0:0:
115,334,99983,1,8,0:0:0:0:
115,334,100141,2,0,P|72:289|72:262,1,72,8|0,0:1|0:0,0:0:0:0:
142,210,100457,2,0,P|143:147|162:128,1,72,8|0,0:0|0:0,0:0:0:0:
248,147,100773,2,0,P|293:104|320:104,1,72,8|0,0:1|0:0,0:0:0:0:
367,27,101089,6,0,L|194:11,3,144,12|12|12|12,0:0|0:0|0:0|0:0,0:0:0:0:
346,286,102983,6,0,P|333:350|241:344,3,144,12|12|12|12,0:0|0:0|0:0|0:0,0:0:0:0:
151,194,104246,1,8,0:3:0:0:
151,194,104404,1,8,0:1:0:0:
151,194,104562,1,8,0:1:0:0:
15,343,104878,6,0,L|178:324,1,144,12|0,0:0|0:0,0:0:0:0:
255,354,105352,2,0,L|418:335,1,144,8|8,0:0|0:0,0:0:0:0:
476,274,105825,2,0,P|491:239|426:143,1,144,8|0,0:1|0:0,0:0:0:0:
345,144,106299,1,2,0:0:0:0:
150,197,106615,1,0,0:0:0:0:
150,197,106773,6,0,P|144:147|121:38,2,144,8|8|8,0:0|0:0|0:0,0:0:0:0:
300,331,107720,2,0,L|392:312,1,72,12|0,0:1|0:0,0:0:0:0:
452,256,108036,2,0,L|507:268,3,48,8|8|8|8,0:1|0:1|0:1|0:1,0:0:0:0:
343,137,108668,6,0,B|299:131|271:158|285:181|258:212|214:208,1,144,14|0,0:0|0:0,0:0:0:0:
128,189,109141,2,0,P|96:145|120:63,1,144,8|8,0:0|0:0,0:0:0:0:
208,15,109615,2,0,P|309:29|381:25,2,144,8|2|2,0:1|0:0|0:0,0:0:0:0:
30,111,110562,6,0,L|77:266,1,144,10|0,0:0|0:0,0:0:0:0:
91,348,111036,2,0,P|166:357|202:303,1,144,8|8,0:0|0:0,0:0:0:0:
220,207,111510,1,8,0:1:0:0:
220,207,112141,2,0,P|274:180|306:183,1,72,0|0,0:0|0:0,0:0:0:0:
364,117,112457,6,0,P|419:157|420:247,1,144,10|0,0:0|0:0,0:0:0:0:
472,319,112931,2,0,L|311:303,1,144,8|8,0:0|0:0,0:0:0:0:
229,320,113404,1,8,0:1:0:0:
229,320,114036,2,0,L|137:340,1,72,2|0,0:0|0:0,0:0:0:0:
61,364,114352,6,0,P|17:310|27:225,1,144,8|0,0:0|0:0,0:0:0:0:
95,172,114825,1,8,0:0:0:0:
95,172,114983,1,8,0:0:0:0:
291,216,115299,2,0,L|464:189,2,144,8|8|8,0:1|0:0|0:0,0:0:0:0:
156,65,116246,6,0,L|314:42,1,144,14|0,0:0|0:0,0:0:0:0:
399,50,116720,2,0,P|461:105|441:166,1,144,8|8,0:0|0:0,0:0:0:0:
373,224,117194,2,0,L|226:201,2,144,8|2|2,0:1|0:0|0:0,0:0:0:0:
500,380,118141,6,0,L|336:365,1,144,10|0,0:0|0:0,0:0:0:0:
270,313,118615,2,0,L|121:344,1,144,8|8,0:0|0:0,0:0:0:0:
39,295,119089,2,0,P|18:225|47:150,2,144,8|0|0,0:1|0:0|0:0,0:0:0:0:
239,272,120036,6,0,B|298:258|298:258|331:261|331:261|381:249,1,144,10|0,0:0|0:0,0:0:0:0:
471,206,120510,1,8,0:0:0:0:
471,206,120668,2,0,P|476:164|454:125,1,72,8|0,0:0|0:0,0:0:0:0:
375,90,120983,2,0,B|316:100|316:100|293:116|293:116|229:127,2,144,8|0|0,0:1|0:0|0:0,0:0:0:0:
185,19,121931,6,0,P|137:36|121:59,1,72,8|0,0:0|0:0,0:0:0:0:
170,141,122246,2,0,P|148:186|153:214,1,72,8|0,0:0|0:0,0:0:0:0:
244,243,122562,2,0,P|261:291|284:307,1,72,8|0,0:0|0:0,0:0:0:0:
374,278,122878,2,0,B|434:284|434:284|454:292|454:292|515:298,1,144,12|8,0:1|0:1,0:0:0:0:
491,199,123352,1,8,0:1:0:0:
491,199,123510,2,0,P|477:145|484:124,1,72,8|0,0:1|0:0,0:0:0:0:
435,40,123825,6,0,B|394:42|372:72|383:89|363:117|320:115,1,144,14|0,0:0|0:0,0:0:0:0:
232,162,124299,2,0,P|172:133|156:63,1,144,8|8,0:0|0:0,0:0:0:0:
65,15,124773,2,0,P|15:22|-10:57,1,72,8|0,0:1|0:0,0:0:0:0:
20,136,125089,1,2,0:0:0:0:
20,136,125246,2,0,P|41:176|46:226,1,72,2|0,0:0|0:0,0:0:0:0:
236,271,125720,6,0,B|289:265|289:265|344:268|344:268|395:260,1,144,8|0,0:0|0:0,0:0:0:0:
477,285,126194,2,0,P|482:329|390:371,1,144,8|8,0:0|0:0,0:0:0:0:
305,381,126668,2,0,L|146:364,1,144,8|0,0:1|0:0,0:0:0:0:
63,342,127141,1,2,0:0:0:0:
63,342,127299,2,0,P|53:304|64:267,1,72,8|0,0:0|0:0,0:0:0:0:
50,172,127615,6,0,L|202:202,1,144,8|0,0:0|0:0,0:0:0:0:
283,243,128089,1,8,0:0:0:0:
369,191,128246,2,0,P|372:142|343:111,1,72,8|0,0:0|0:0,0:0:0:0:
273,71,128562,2,0,P|292:29|392:17,2,144,8|0|2,0:1|0:0|0:0,0:0:0:0:
95,167,129510,6,0,L|1:151,1,72,8|0,0:0|0:0,0:0:0:0:
163,234,129825,2,0,L|257:218,1,72,8|0,0:0|0:0,0:0:0:0:
91,293,130141,2,0,L|-3:277,1,72,8|0,0:0|0:0,0:0:0:0:
166,348,130457,2,0,B|226:338|226:338|254:340|254:340|308:330,1,144,12|8,0:1|0:1,0:0:0:0:
403,293,130931,1,8,0:1:0:0:
403,293,131089,2,0,L|476:316,1,72,8|8,0:3|0:1,0:0:0:0:
354,214,131404,6,0,B|335:190|331:175|331:175|364:62,1,144,12|0,0:0|0:0,0:0:0:0:
277,18,131878,2,0,L|114:46,1,144,8|8,0:0|0:0,0:0:0:0:
38,72,132352,2,0,P|18:113|23:143,1,72,8|0,0:1|0:0,0:0:0:0:
92,209,132668,1,2,0:0:0:0:
188,181,132825,2,0,P|232:202|242:223,1,72,2|0,0:0|0:0,0:0:0:0:
435,164,133299,6,0,P|381:208|381:288,1,144,10|0,0:0|0:0,0:0:0:0:
321,363,133773,2,0,L|169:349,1,144,8|8,0:0|0:0,0:0:0:0:
76,346,134246,2,0,P|63:287|106:211,1,144,8|0,0:1|0:0,0:0:0:0:
182,155,134720,1,0,0:0:0:0:
274,194,134878,2,0,P|289:140|275:107,1,72,10|0,0:0|0:0,0:0:0:0:
226,43,135194,6,0,L|397:37,2,144,8|8|8,0:0|0:0|0:0,0:0:0:0:
101,201,136141,2,0,P|110:270|188:302,1,144,12|0,0:1|0:0,0:0:0:0:
246,236,136615,1,8,0:0:0:0:
343,261,136773,2,0,P|346:311|327:340,1,72,8|0,0:1|0:0,0:0:0:0:
246,376,137089,6,0,B|176:364|176:364|142:369|142:369|81:360,1,144,14|8,0:0|0:1,0:0:0:0:
52,168,137720,2,0,P|70:137|104:126,1,72,8|0,0:0|0:0,0:0:0:0:
157,40,138036,2,0,B|208:61|208:61|305:46,1,144,12|8,0:1|0:1,0:0:0:0:
388,7,138510,1,8,0:1:0:0:
478,51,138668,2,0,P|485:97|464:129,1,72,8|0,0:1|0:0,0:0:0:0:
420,203,138983,6,0,B|362:192|362:192|324:199|324:199|256:186,2,144,14|8|8,0:0|0:0|0:0,0:0:0:0:
254,319,139931,6,0,B|196:330|196:330|158:323|158:323|90:336,2,144,12|10|10,0:1|0:0|0:0,0:0:0:0:
286,119,140878,6,0,P|257:67|220:59,1,72,14|0,0:0|0:0,0:0:0:0:
175,133,141194,2,0,P|117:116|85:137,1,72,8|0,0:0|0:0,0:0:0:0:
75,216,141510,1,10,0:0:0:0:
75,216,141825,6,0,L|84:301,1,72,14|0,0:1|0:0,0:0:0:0:
164,347,142141,2,0,L|249:338,1,72,8|0,0:0|0:0,0:0:0:0:
336,328,142457,1,10,0:0:0:0:
271,136,142773,6,0,P|292:98|326:84,1,72,12|0,0:0|0:0,0:0:0:0:
380,6,143089,2,0,P|452:41|461:109,2,144,10|10|14,0:0|0:0|0:1,0:0:0:0:
331,201,144036,1,8,0:0:0:0:
131,172,144352,2,0,P|150:118|173:103,1,72,10|0,0:0|0:0,0:0:0:0:
258,85,144668,1,12,0:0:0:0:
325,274,144983,6,0,P|417:296|458:249,1,144,10|10,0:0|0:0,0:0:0:0:
490,70,145615,6,0,L|412:90,1,72,14|0,0:1|0:0,0:0:0:0:
323,56,145931,2,0,L|245:76,1,72,10|0,0:0|0:0,0:0:0:0:
160,34,146246,2,0,L|82:54,1,72,10|0,0:0|0:0,0:0:0:0:
21,127,146562,6,0,P|6:196|65:249,2,144,14|8|8,0:0|0:0|0:0,0:0:0:0:
219,167,147510,6,0,L|304:147,1,72,14|0,0:1|0:0,0:0:0:0:
374,204,147825,2,0,L|444:187,1,72,8|0,0:0|0:0,0:0:0:0:
512,112,148141,2,0,P|514:57|497:35,1,72,8|0,0:0|0:0,0:0:0:0:
407,18,148457,6,0,B|367:29|351:62|369:84|346:113|302:116,2,144,14|8|8,0:0|0:0|0:0,0:0:0:0:
491,201,149404,6,0,P|482:260|456:279,1,72,14|0,0:1|0:0,0:0:0:0:
375,250,149720,2,0,P|326:285|295:280,1,72,8|0,0:0|0:0,0:0:0:0:
256,204,150036,2,0,P|196:194|178:169,1,72,8|0,0:0|0:0,0:0:0:0:
136,102,150352,6,0,P|67:112|42:185,2,144,14|8|8,0:0|0:0|0:0,0:0:0:0:
323,176,151299,6,0,L|400:159,1,72,14|0,0:1|0:0,0:0:0:0:
490,129,151615,2,0,L|436:70,1,72,8|0,0:0|0:0,0:0:0:0:
368,4,151931,2,0,L|344:79,1,72,8|0,0:0|0:0,0:0:0:0:
323,176,152246,6,0,L|372:330,2,144,14|8|8,0:1|0:1|0:1,0:0:0:0:
142,84,153194,6,0,P|90:93|70:118,1,72,14|0,0:1|0:0,0:0:0:0:
31,195,153510,1,8,0:1:0:0:
31,195,153668,1,8,0:1:0:0:
131,196,153825,2,0,P|176:218|194:263,1,72,8|8,0:1|0:1,0:0:0:0:
260,305,154141,6,0,P|339:324|401:268,1,144,12|10,0:0|0:0,0:0:0:0:
270,131,154773,2,0,P|294:74|314:60,1,72,10|0,0:0|0:0,0:0:0:0:
384,11,155089,2,0,L|533:26,2,144,14|8|8,0:1|0:0|0:0,0:0:0:0:
398,212,156036,5,12,0:0:0:0:
232,96,156352,2,0,P|174:110|164:123,1,72,10|0,0:0|0:0,0:0:0:0:
69,93,156668,2,0,P|37:143|40:160,1,72,10|0,0:0|0:0,0:0:0:0:
109,224,156983,2,0,L|139:386,2,144,14|8|8,0:1|0:0|0:0,0:0:0:0:
296,298,157931,6,0,L|454:280,2,144,14|8|8,0:0|0:0|0:0,0:0:0:0:
96,268,158878,2,0,P|88:226|105:194,1,72,14|0,0:1|0:0,0:0:0:0:
200,198,159194,2,0,P|208:156|191:124,1,72,8|0,0:0|0:0,0:0:0:0:
104,88,159510,2,0,P|96:46|113:14,1,72,8|0,0:0|0:0,0:0:0:0:
207,5,159825,6,0,B|276:22|276:22|358:2,2,144,14|8|8,0:0|0:0|0:0,0:0:0:0:
15,70,160773,1,14,0:1:0:0:
256,192,161720,6,0,L|413:172,1,144,12|0,0:0|0:0,0:0:0:0:
484,227,162194,2,0,P|511:292|472:371,1,144,8|8,0:0|0:0,0:0:0:0:
385,369,162668,2,0,L|210:342,1,144,12|0,0:1|0:0,0:0:0:0:
41,366,163299,2,0,P|23:327|34:295,1,72,8|0,0:0|0:0,0:0:0:0:
105,232,163615,6,0,P|124:165|88:88,1,144,8|0,0:0|0:0,0:0:0:0:
32,20,164089,2,0,L|204:5,1,144,8|8,0:0|0:0,0:0:0:0:
261,59,164562,1,12,0:1:0:0:
460,28,164878,2,0,L|447:98,1,72,8|8,0:0|0:0,0:0:0:0:
424,197,165194,1,8,0:0:0:0:
425,197,165510,6,0,B|386:205|369:233|382:259|357:292|320:293,1,144,8|0,0:0|0:0,0:0:0:0:
226,286,165983,2,0,P|187:246|182:216,1,72,8|0,0:0|0:0,0:0:0:0:
226,139,166299,1,8,0:0:0:0:
226,139,166457,2,0,L|79:125,2,144,12|0|8,0:1|0:0|0:0,0:0:0:0:
385,262,167404,6,0,P|447:218|452:199,1,72,8|0,0:0|0:0,0:0:0:0:
409,129,167720,1,8,0:0:0:0:
409,129,167878,2,0,P|421:54|411:37,1,72,8|0,0:0|0:0,0:0:0:0:
331,20,168194,1,8,0:0:0:0:
241,66,168352,2,0,L|86:61,1,144,8|8,0:1|0:1,0:0:0:0:
14,118,168825,1,8,0:1:0:0:
14,118,168983,1,8,0:1:0:0:
192,211,169299,6,0,B|253:202|253:202|295:206|295:206|348:196,1,144,8|0,0:0|0:0,0:0:0:0:
434,217,169773,2,0,P|480:273|446:350,1,144,8|8,0:0|0:0,0:0:0:0:
362,355,170246,2,0,L|215:341,2,144,12|0|0,0:1|0:0|0:0,0:0:0:0:
463,349,171036,5,0,0:0:0:0:
463,349,171194,2,0,P|485:291|428:216,1,144,8|0,0:0|0:0,0:0:0:0:
437,123,171668,2,0,P|368:145|344:146,1,72,8|0,0:0|0:0,0:0:0:0:
276,103,171983,1,8,0:0:0:0:
335,21,172141,2,0,P|404:-1|428:-2,1,72,8|0,0:1|0:0,0:0:0:0:
497,36,172457,2,0,P|522:116|507:183,1,144,0|0,0:0|0:0,0:0:0:0:
370,319,173089,6,0,B|314:318|314:318|271:330|271:330|208:327,1,144,8|0,0:0|0:0,0:0:0:0:
132,362,173562,2,0,P|77:342|70:255,1,144,8|8,0:0|0:0,0:0:0:0:
134,191,174036,1,8,0:1:0:0:
134,191,174352,2,0,P|145:139|134:117,1,72,0|0,0:0|0:0,0:0:0:0:
40,95,174668,2,0,P|29:43|40:21,1,72,0|0,0:0|0:0,0:0:0:0:
133,1,174983,6,0,L|281:11,3,144,8|8|8|8,0:0|0:0|0:0|0:0,0:0:0:0:
301,173,192036,6,0,P|343:221|312:291,2,122.400002334595,8|8|8,0:1|0:0|0:0,0:0:0:0:
143,104,192983,2,0,L|18:133,2,122.400002334595,8|8|8,0:0|0:0|0:0,0:0:0:0:
308,56,193931,1,8,0:0:0:0:
407,194,194246,1,8,0:0:0:0:
323,343,194562,1,8,0:0:0:0:
151,343,194878,1,8,0:0:0:0:
65,194,195194,1,8,0:0:0:0:
168,57,195510,1,8,0:0:0:0:
312,147,195825,6,0,L|443:123,2,122.400002334595,8|8|8,0:0|0:0|0:0,0:0:0:0:
143,181,196773,2,0,P|101:255|124:297,1,122.400002334595,8|8,0:0|0:0,0:0:0:0:
271,346,197404,1,8,0:0:0:0:
378,212,197720,2,0,P|444:221|479:289,1,122.400002334595,8|8,0:0|0:0,0:0:0:0:
498,92,198352,1,8,0:0:0:0:
336,34,198668,6,0,L|256:48,1,61.2000011672974,8|0,0:0|0:0,0:0:0:0:
222,111,198983,2,0,L|151:98,1,61.2000011672974,8|0,0:0|0:0,0:0:0:0:
75,107,199299,1,8,0:1:0:0:
75,107,199615,6,0,B|41:173|41:173|79:249,1,144,12|8,0:1|0:0,0:0:0:0:
258,309,200246,2,0,L|337:293,1,72,8|0,0:0|0:0,0:0:0:0:
428,312,200562,2,0,P|462:241|419:174,1,144,8|8,0:0|0:0,0:0:0:0:
248,110,201194,1,8,0:0:0:0:
62,190,201510,6,0,P|40:159|40:107,1,72,8|0,0:0|0:0,0:0:0:0:
80,35,201825,2,0,L|239:14,1,144,8|8,0:0|0:1,0:0:0:0:
403,106,202457,2,0,P|399:153|375:185,1,72,8|0,0:0|0:0,0:0:0:0:
434,263,202773,2,0,P|397:293|358:299,1,72,8|0,0:1|0:0,0:0:0:0:
276,272,203089,1,8,0:1:0:0:
152,113,203404,6,0,L|5:140,2,144,8|8|8,0:1|0:1|0:1,0:0:0:0:
318,227,204352,2,0,P|372:211|383:192,1,72,8|0,0:1|0:0,0:0:0:0:
333,110,204668,2,0,P|359:60|354:39,1,72,8|0,0:1|0:0,0:0:0:0:
263,12,204983,1,8,0:1:0:0:
84,105,205299,6,0,L|106:185,1,72,8|0,0:1|0:0,0:0:0:0:
132,271,205615,2,0,L|190:211,1,72,8|0,0:1|0:0,0:0:0:0:
249,143,205931,2,0,L|168:122,1,72,8|0,0:1|0:0,0:0:0:0:
84,105,206246,1,8,0:1:0:0:
297,325,207194,6,0,B|350:318|350:318|393:324|393:324|448:314,1,144,14|0,0:0|0:0,0:0:0:0:
480,222,207668,2,0,P|486:145|435:109,1,144,8|8,0:0|0:0,0:0:0:0:
357,47,208141,2,0,P|306:79|287:82,1,72,8|0,0:1|0:0,0:0:0:0:
225,154,208457,2,0,P|174:122|155:119,1,72,2|0,0:0|0:0,0:0:0:0:
68,155,208773,1,2,0:0:0:0:
68,155,209089,6,0,L|89:328,1,144,10|0,0:0|0:0,0:0:0:0:
157,368,209562,2,0,P|215:368|279:298,1,144,8|8,0:0|0:0,0:0:0:0:
301,213,210036,2,0,P|367:224|415:298,2,144,8|0|0,0:1|0:0|0:0,0:0:0:0:
147,81,210983,6,0,P|220:65|282:30,1,144,10|0,0:0|0:0,0:0:0:0:
375,64,211457,2,0,P|432:75|476:161,1,144,8|8,0:0|0:0,0:0:0:0:
402,213,211931,2,0,P|377:263|377:290,1,72,8|0,0:1|0:0,0:0:0:0:
295,339,212246,2,0,L|216:335,1,72,0|0,0:0|0:0,0:0:0:0:
121,333,212562,1,2,0:0:0:0:
121,333,212878,6,0,P|78:293|97:202,1,144,8|0,0:0|0:0,0:0:0:0:
145,130,213352,2,0,L|321:144,1,144,8|0,0:0|0:0,0:0:0:0:
389,145,213825,1,8,0:1:0:0:
389,145,214141,2,0,P|410:88|401:71,1,72,10|10,0:0|0:1,0:0:0:0:
324,23,214457,1,10,0:1:0:0:
324,23,214615,1,10,0:1:0:0:
230,75,214773,6,0,B|167:69|167:69|133:81|133:81|67:73,1,144,14|0,0:0|0:0,0:0:0:0:
12,142,215246,2,0,P|41:208|67:300,1,144,8|8,0:0|0:0,0:0:0:0:
140,340,215720,2,0,P|205:344|235:336,1,72,8|0,0:1|0:0,0:0:0:0:
279,267,216036,2,0,P|344:263|374:271,1,72,2|0,0:0|0:0,0:0:0:0:
432,323,216352,1,2,0:0:0:0:
432,323,216668,6,0,B|464:315|472:298|472:298|452:179,1,144,10|0,0:0|0:0,0:0:0:0:
478,105,217141,2,0,P|389:63|327:94,1,144,8|8,0:0|0:0,0:0:0:0:
275,143,217615,2,0,P|222:127|215:32,1,144,8|0,0:1|0:0,0:0:0:0:
301,16,218089,1,2,0:0:0:0:
301,16,218246,2,0,P|338:47|338:89,1,72,0|0,0:0|0:0,0:0:0:0:
284,152,218562,6,0,B|259:223|259:223|305:301,1,144,10|0,0:0|0:0,0:0:0:0:
374,344,219036,2,0,P|437:329|449:241,1,144,8|8,0:0|0:0,0:0:0:0:
405,171,219510,1,8,0:1:0:0:
405,171,219825,2,0,P|421:122|448:101,1,72,0|0,0:0|0:0,0:0:0:0:
341,68,220141,2,0,P|325:19|298:-2,1,72,0|0,0:0|0:0,0:0:0:0:
215,38,220457,6,0,L|78:48,1,108,8|0,0:0|0:0,0:0:0:0:
56,47,220773,2,0,B|38:81|38:81|61:127,1,72,8|0,0:1|0:0,0:0:0:0:
138,165,221089,2,0,P|148:204|129:240,1,72,8|0,0:0|0:0,0:0:0:0:
76,313,221404,1,8,0:1:0:0:
76,313,221562,1,8,0:1:0:0:
275,341,221878,1,8,0:1:0:0:
275,341,222036,1,8,0:1:0:0:
446,234,222352,6,0,P|436:181|337:155,1,144,14|0,0:0|0:0,0:0:0:0:
274,93,222825,2,0,L|125:124,1,144,8|8,0:0|0:0,0:0:0:0:
33,104,223299,2,0,B|14:66|14:66|29:28,1,72,8|0,0:1|0:0,0:0:0:0:
121,8,223615,1,2,0:0:0:0:
121,8,223773,2,0,L|216:12,1,72,2|0,0:0|0:0,0:0:0:0:
361,122,224246,6,0,L|506:101,1,144,8|0,0:0|0:0,0:0:0:0:
482,200,224720,2,0,P|463:265|504:335,1,144,8|8,0:0|0:0,0:0:0:0:
403,370,225194,2,0,L|239:356,1,144,8|0,0:1|0:0,0:0:0:0:
158,362,225668,1,2,0:0:0:0:
158,362,225825,2,0,P|123:324|128:286,1,72,8|0,0:0|0:0,0:0:0:0:
26,272,226141,6,0,P|58:198|49:110,1,144,8|0,0:0|0:0,0:0:0:0:
15,42,226615,2,0,P|61:7|159:31,1,144,8|0,0:0|0:0,0:0:0:0:
182,110,227089,2,0,P|201:162|222:173,1,72,8|0,0:1|0:0,0:0:0:0:
277,246,227404,2,0,L|352:232,1,72,0|0,0:0|0:0,0:0:0:0:
447,212,227720,1,2,0:0:0:0:
447,212,228036,6,0,B|470:140|470:140|424:81,1,144,8|8,0:0|0:0,0:0:0:0:
342,32,228510,1,8,0:0:0:0:
278,110,228668,2,0,P|218:114|190:101,1,72,8|0,0:0|0:0,0:0:0:0:
108,77,228983,2,0,B|81:147|81:147|120:219,1,144,12|8,0:1|0:1,0:0:0:0:
180,284,229457,1,8,0:1:0:0:
180,284,229615,1,8,0:1:0:0:
338,159,229931,6,0,P|434:191|448:244,1,144,14|0,0:0|0:0,0:0:0:0:
459,323,230404,2,0,L|301:332,1,144,8|8,0:0|0:0,0:0:0:0:
215,310,230878,2,0,P|166:261|166:245,1,72,8|0,0:1|0:0,0:0:0:0:
171,161,231194,1,2,0:0:0:0:
171,161,231352,2,0,P|146:125|92:113,1,72,2|0,0:0|0:0,0:0:0:0:
318,72,231825,6,0,P|366:42|460:62,1,144,10|0,0:0|0:0,0:0:0:0:
416,150,232299,2,0,P|446:198|426:292,1,144,8|8,0:0|0:0,0:0:0:0:
352,342,232773,2,0,L|276:335,1,72,8|0,0:1|0:0,0:0:0:0:
207,265,233089,2,0,L|131:272,1,72,0|0,0:0|0:0,0:0:0:0:
35,287,233404,1,10,0:0:0:0:
35,287,233720,6,0,P|4:233|45:136,1,144,12|8,0:0|0:0,0:0:0:0:
120,132,234194,1,0,0:0:0:0:
120,132,234352,2,0,P|138:88|128:60,1,72,8|0,0:0|0:0,0:0:0:0:
225,26,234668,2,0,L|393:29,2,144,8|8|8,0:1|0:0|0:1,0:0:0:0:
279,220,235615,5,14,0:0:0:0:
279,220,236562,1,14,0:0:0:0:
279,220,237510,1,14,0:0:0:0:
256,192,237589,12,0,240352,0:0:0:0:
