osu file format v14

[General]
AudioFilename: audio.mp3
AudioLeadIn: 0
PreviewTime: 32720
Countdown: 0
SampleSet: Soft
StackLeniency: 0.7
Mode: 0
LetterboxInBreaks: 0
WidescreenStoryboard: 1

[Editor]
Bookmarks: 668,2563,17720,32878,36668,40457,44247,48036,61299,61615,63194,78352,84036,85931,93510,97299,101089,104878,108668,121931,123826,138984,154141,161720,176878,192036,199615,206247,207194,222352,235615
DistanceSpacing: 1.7
BeatDivisor: 4
GridSize: 32
TimelineZoom: 2.6

[Metadata]
Title:Line Without a Hook
TitleUnicode:Line Without a Hook
Artist:Ricky Montgomery
ArtistUnicode:Ricky Montgomery
Creator:hypercyte
Version:Easy
Source:osu!
Tags:alternative rock indie english featured artist fa mapper's guild mappers guild mpg hypercute rohmontgomery rickymontgomery the honeysticks full spread
BeatmapID:2242007
BeatmapSetID:1062477

[Difficulty]
HPDrainRate:2
CircleSize:2.6
OverallDifficulty:2
ApproachRate:2
SliderMultiplier:0.94
SliderTickRate:1

[Events]
//Background and Video events
0,0,"4 without a hook.jpg",0,0
//Break Periods
2,80446,82476
2,176878,190356
//Storyboard Layer 0 (Background)
//Storyboard Layer 1 (Fail)
//Storyboard Layer 2 (Pass)
//Storyboard Layer 3 (Foreground)
//Storyboard Layer 4 (Overlay)
//Storyboard Sound Samples

[TimingPoints]
668,315.789473684211,3,2,0,60,1,0
668,-100,3,2,4,44,0,0
2562,-100,3,2,4,54,0,0
3273,-100,3,2,4,5,0,0
3352,-100,3,2,4,54,0,0
4378,-100,3,2,4,5,0,0
4457,-100,3,2,4,54,0,0
10852,-100,3,2,4,5,0,0
10931,-100,3,2,4,54,0,0
17720,-100,3,2,4,54,0,0
26010,-100,3,2,4,5,0,0
26089,-100,3,2,4,54,0,0
27904,-100,3,2,4,5,0,0
27983,-100,3,2,4,54,0,0
32878,-100,3,2,4,84,0,0
33115,-100,3,2,4,5,0,0
33194,-100,3,2,4,84,0,0
33431,-100,3,2,4,5,0,0
33510,-100,3,2,4,84,0,0
33746,-100,3,2,4,5,0,0
33825,-100,3,2,4,84,0,0
34773,-100,3,2,4,84,0,0
35010,-100,3,2,4,5,0,0
35089,-100,3,2,4,84,0,0
35325,-100,3,2,4,5,0,0
35404,-100,3,2,4,84,0,0
35641,-100,3,2,4,5,0,0
35720,-100,3,2,4,84,0,0
36668,-100,3,2,4,74,0,0
37931,-100,3,2,4,74,0,0
38562,-100,3,2,4,74,0,0
39510,-100,3,2,4,74,0,0
40457,-100,3,2,4,84,0,0
40694,-100,3,2,4,5,0,0
40773,-100,3,2,4,84,0,0
41010,-100,3,2,4,5,0,0
41089,-100,3,2,4,84,0,0
42352,-100,3,2,4,84,0,0
42589,-100,3,2,4,5,0,0
42668,-100,3,2,4,84,0,0
42904,-100,3,2,4,5,0,0
42983,-100,3,2,4,84,0,0
44246,-100,3,2,4,74,0,0
47325,-100,3,2,4,5,0,0
47404,-100,3,2,4,74,0,0
48036,-100,3,2,4,54,0,0
61299,-100,3,2,4,74,0,0
61536,-100,3,2,4,5,0,0
61615,-100,3,2,4,74,0,0
61852,-100,3,2,4,5,0,0
61931,-100,3,2,4,74,0,0
62168,-100,3,2,4,5,0,0
62246,-100,3,2,4,74,0,0
63194,-100,3,2,4,64,0,0
63904,-100,3,2,4,5,0,0
63983,-100,3,2,4,64,0,0
65799,-100,3,2,4,5,0,0
65878,-100,3,2,4,64,0,0
69115,-100,3,2,4,5,0,0
69194,-100,3,2,4,64,0,0
69273,-100,3,2,4,5,0,0
69352,-100,3,2,4,64,0,0
69825,-100,3,2,4,64,0,0
70062,-100,3,2,4,5,0,0
70141,-100,3,2,4,64,0,0
70773,-100,3,2,4,64,0,0
74562,-100,3,2,4,64,0,0
78352,-100,3,2,4,44,0,0
80246,-100,3,2,4,44,0,0
82141,-100,3,2,4,44,0,0
84036,-100,3,2,4,74,0,0
84352,-100,3,2,4,74,0,0
84668,-100,3,2,4,74,0,0
84904,-100,3,2,4,5,0,0
84983,-100,3,2,4,74,0,0
85931,-100,3,2,4,74,0,0
86404,-100,3,2,4,74,0,0
87115,-100,3,2,4,5,0,0
87194,-100,3,2,4,74,0,0
90983,-100,3,2,4,74,0,0
93510,-100,3,2,4,64,0,0
94457,-100,3,2,4,64,0,0
95404,-100,3,2,4,64,0,0
96273,-100,3,2,4,5,0,0
96352,-100,3,2,4,64,0,0
97299,-100,3,2,4,64,0,0
101089,-100,3,2,4,84,0,0
101404,-100,3,2,4,84,0,0
101720,-100,3,2,4,84,0,0
102036,-100,3,2,4,84,0,0
102352,-100,3,2,4,84,0,0
102983,-100,3,2,4,84,0,0
104246,-100,3,2,4,84,0,0
104878,-100,3,2,4,64,0,0
107010,-100,3,2,4,5,0,0
107089,-100,3,2,4,64,0,0
107325,-100,3,2,4,5,0,0
107404,-100,3,2,4,64,0,0
107641,-100,3,2,4,5,0,0
107720,-100,3,2,4,64,0,0
108352,-100,3,2,4,64,0,0
108589,-100,3,2,4,5,0,0
108668,-100,3,2,4,54,0,0
121931,-100,3,2,4,64,0,0
122246,-100,3,2,4,64,0,0
122562,-100,3,2,4,64,0,0
122878,-100,3,2,4,74,0,0
123825,-100,3,2,4,64,0,0
128562,-100,3,2,4,64,0,0
129746,-100,3,2,4,5,0,0
129825,-100,3,2,4,64,0,0
130062,-100,3,2,4,5,0,0
130141,-100,3,2,4,64,0,0
130378,-100,3,2,4,5,0,0
130457,-100,3,2,4,64,0,0
136378,-100,3,2,4,5,0,0
136457,-100,3,2,4,64,0,0
137325,-100,3,2,4,5,0,0
137404,-100,3,2,4,64,0,0
137957,-100,3,2,4,5,0,0
138036,-100,3,2,4,64,0,0
138983,-100,3,2,4,84,0,1
139220,-100,3,2,4,5,0,1
139299,-100,3,2,4,84,0,1
139536,-100,3,2,4,5,0,1
139615,-100,3,2,4,84,0,1
139931,-100,3,2,4,84,0,1
140168,-100,3,2,4,5,0,1
140246,-100,3,2,4,84,0,1
140483,-100,3,2,4,5,0,1
140562,-100,3,2,4,84,0,1
140878,-100,3,2,4,84,0,1
141115,-100,3,2,4,5,0,1
141194,-100,3,2,4,84,0,1
141431,-100,3,2,4,5,0,1
141510,-100,3,2,4,84,0,1
141549,-100,3,2,4,5,0,1
141825,-100,3,2,4,84,0,1
142062,-100,3,2,4,5,0,1
142141,-100,3,2,4,84,0,1
142378,-100,3,2,4,5,0,1
142457,-100,3,2,4,84,0,1
142496,-100,3,2,4,5,0,1
142773,-100,3,2,4,84,0,1
143010,-100,3,2,4,5,0,1
143089,-100,3,2,4,84,0,1
143325,-100,3,2,4,5,0,1
143404,-100,3,2,4,84,0,1
143720,-100,3,2,4,84,0,1
143957,-100,3,2,4,5,0,1
144036,-100,3,2,4,84,0,1
144273,-100,3,2,4,5,0,1
144352,-100,3,2,4,84,0,1
144668,-100,3,2,4,84,0,1
144904,-100,3,2,4,5,0,1
144983,-100,3,2,4,84,0,1
145299,-100,3,2,4,84,0,1
145615,-100,3,2,4,84,0,1
145852,-100,3,2,4,5,0,1
145931,-100,3,2,4,84,0,1
146168,-100,3,2,4,5,0,1
146246,-100,3,2,4,84,0,1
148457,-100,3,2,4,84,0,1
148694,-100,3,2,4,5,0,1
148773,-100,3,2,4,84,0,1
149404,-100,3,2,4,94,0,1
149641,-100,3,2,4,5,0,1
149720,-100,3,2,4,94,0,1
150352,-100,3,2,4,64,0,1
150589,-100,3,2,4,5,0,1
150668,-100,3,2,4,64,0,1
151299,-100,3,2,4,74,0,1
151536,-100,3,2,4,5,0,1
151615,-100,3,2,4,74,0,1
152246,-100,3,2,4,84,0,1
152483,-100,3,2,4,5,0,1
152562,-100,3,2,4,84,0,1
153194,-100,3,2,4,94,0,1
153431,-100,3,2,4,5,0,1
153510,-100,3,2,4,94,0,1
154141,-100,3,2,4,84,0,1
154378,-100,3,2,4,5,0,1
154457,-100,3,2,4,84,0,1
156273,-100,3,2,4,5,0,1
156352,-100,3,2,4,84,0,1
158168,-100,3,2,4,5,0,1
158246,-100,3,2,4,84,0,1
158878,-100,3,2,4,84,0,1
159115,-100,3,2,4,5,0,1
159194,-100,3,2,4,84,0,1
159825,-100,3,2,4,84,0,1
160062,-100,3,2,4,5,0,1
160141,-100,3,2,4,84,0,1
160773,-100,3,2,4,84,0,0
161641,-100,3,2,4,5,0,0
161720,-100,3,2,4,64,0,0
162904,-100,3,2,4,5,0,0
162983,-100,3,2,4,64,0,0
166694,-100,3,2,4,5,0,0
166773,-100,3,2,4,64,0,0
167641,-100,3,2,4,5,0,0
167720,-100,3,2,4,64,0,0
168589,-100,3,2,4,5,0,0
168668,-100,3,2,4,64,0,0
170010,-100,3,2,4,5,0,0
170089,-100,3,2,4,64,0,0
170483,-100,3,2,4,5,0,0
170562,-100,3,2,4,64,0,0
173325,-100,3,2,4,5,0,0
173404,-100,3,2,4,64,0,0
174273,-100,3,2,4,5,0,0
174352,-100,3,2,4,64,0,0
174983,-100,3,2,4,64,0,0
175220,-100,3,2,4,5,0,0
175299,-100,3,2,4,64,0,0
175536,-100,3,2,4,5,0,0
175615,-100,3,2,4,64,0,0
175852,-100,3,2,4,5,0,0
175931,-100,3,2,4,64,0,0
176878,-100,3,2,4,44,0,0
177825,-100,3,2,4,44,0,0
178773,-100,3,2,4,44,0,0
179720,-100,3,2,4,44,0,0
180668,-100,3,2,4,44,0,0
181615,-100,3,2,4,44,0,0
182562,-100,3,2,4,44,0,0
183510,-100,3,2,4,44,0,0
184457,-100,3,2,4,44,0,0
185404,-100,3,2,4,44,0,0
186352,-100,3,2,4,44,0,0
187299,-100,3,2,4,44,0,0
188246,-100,3,2,4,44,0,0
191089,-100,3,2,4,44,0,0
192036,-100,3,2,4,44,0,0
198668,-100,3,2,4,44,0,0
199615,-100,3,2,4,54,0,0
199852,-100,3,2,4,5,0,0
199931,-100,3,2,4,54,0,0
200799,-100,3,2,4,5,0,0
200878,-100,3,2,4,54,0,0
201510,-100,3,2,4,64,0,0
201746,-100,3,2,4,5,0,0
201825,-100,3,2,4,64,0,0
202457,-100,3,2,4,64,0,0
202694,-100,3,2,4,5,0,0
202773,-100,3,2,4,64,0,0
203404,-100,3,2,4,74,0,0
203641,-100,3,2,4,5,0,0
203720,-100,3,2,4,74,0,0
204352,-100,3,2,4,74,0,0
204589,-100,3,2,4,5,0,0
204668,-100,3,2,4,74,0,0
205299,-100,3,2,4,84,0,0
205536,-100,3,2,4,5,0,0
205615,-100,3,2,4,84,0,0
207194,-100,3,2,4,74,0,0
207431,-100,3,2,4,5,0,0
207510,-100,3,2,4,74,0,0
211220,-100,3,2,4,5,0,0
211299,-100,3,2,4,74,0,0
212799,-100,3,2,4,5,0,0
212878,-100,3,2,4,74,0,0
214062,-100,3,2,4,5,0,0
214141,-100,3,2,4,74,0,0
219273,-100,3,2,4,5,0,0
219352,-100,3,2,4,74,0,0
220694,-100,3,2,4,5,0,0
220773,-100,3,2,4,74,0,0
221325,-100,3,2,4,5,0,0
221404,-100,3,2,4,74,0,0
222352,-100,3,2,4,74,0,0
235615,-100,3,2,4,64,0,0
237589,-100,3,2,4,44,0,0
240352,-100,3,2,4,5,0,0

[Colours]
Combo1 : 141,156,207
Combo2 : 255,201,147
Combo3 : 255,153,40
Combo4 : 189,205,232

[HitObjects]
288,124,2562,6,0,L|435:111,2,141,14|8|10,0:0|0:0|0:1,0:0:0:0:
125,218,4141,1,2,0:0:0:0:
45,167,4457,2,0,P|35:115|87:46,2,141,8|8|8,0:0|0:0|0:1,0:0:0:0:
122,220,5720,2,0,L|230:200,1,94,2|2,0:0|0:0,0:0:0:0:
308,208,6352,6,0,B|355:258|355:258|327:331,2,141,8|8|8,0:0|0:0|0:1,0:0:0:0:
199,117,7773,1,2,0:0:0:0:
299,17,8246,2,0,P|378:22|424:73,2,141,8|8|8,0:0|0:0|0:1,0:0:0:0:
244,93,9510,1,8,0:0:0:0:
152,74,9825,1,8,0:0:0:0:
76,130,10141,6,0,P|61:201|104:269,1,141,10|8,0:0|0:0,0:0:0:0:
226,302,11089,2,0,L|322:287,1,94,10|2,0:1|0:0,0:0:0:0:
411,268,11720,1,2,0:0:0:0:
501,241,12036,2,0,P|524:195|492:110,1,141,8|8,0:0|0:0,0:0:0:0:
370,52,12983,6,0,L|266:85,1,94,10|2,0:1|0:0,0:0:0:0:
193,116,13615,1,2,0:0:0:0:
105,149,13931,2,0,L|124:260,2,94,10|2|2,0:0|0:0|0:0,0:0:0:0:
122,56,14878,2,0,P|198:20|267:99,1,188,10|2,0:1|0:0,0:0:0:0:
245,175,15825,1,10,0:0:0:0:
512,108,16773,2,0,B|507:15|507:15|418:63,1,188,8|10,0:1|0:1,0:0:0:0:
358,128,17720,6,0,P|313:156|230:128,2,141,10|8|8,0:0|0:0|0:1,0:0:0:0:
471,278,19299,1,2,0:0:0:0:
391,328,19615,2,0,L|239:309,1,141,10|8,0:0|0:0,0:0:0:0:
112,281,20562,2,0,P|98:223|149:156,1,141,8|2,0:1|0:0,0:0:0:0:
274,110,21510,5,10,0:0:0:0:
354,157,21825,2,0,L|460:136,1,94,2|2,0:0|0:0,0:0:0:0:
500,216,22457,2,0,P|518:281|493:318,1,94,10|2,0:1|0:0,0:0:0:0:
420,337,23089,1,10,0:0:0:0:
336,293,23404,2,0,L|189:321,2,141,10|8|10,0:0|0:0|0:1,0:0:0:0:
371,205,24668,1,8,0:0:0:0:
324,123,24983,1,8,0:0:0:0:
363,37,25299,5,10,0:0:0:0:
81,26,26246,2,0,P|45:68|92:185,1,188,8|2,0:1|0:0,0:0:0:0:
165,230,27194,2,0,L|321:201,2,141,10|8|8,0:0|0:0|0:1,0:0:0:0:
82,275,28457,2,0,P|61:340|70:367,1,94,2|2,0:0|0:0,0:0:0:0:
161,366,29089,5,8,0:0:0:0:
286,302,29562,1,10,0:0:0:0:
424,330,30036,2,0,P|458:273|412:157,1,188,8|2,0:1|0:0,0:0:0:0:
344,111,30983,2,0,L|235:125,2,94,8|8|8,0:0|0:0|0:0,0:0:0:0:
394,31,31931,2,0,L|487:19,2,94,8|8|8,0:1|0:0|0:1,0:0:0:0:
299,28,32878,5,14,0:0:0:0:
205,39,33194,1,12,0:0:0:0:
111,50,33510,1,12,0:0:0:0:
122,216,34773,5,14,0:0:0:0:
216,205,35089,1,12,0:0:0:0:
310,194,35404,1,12,0:0:0:0:
299,28,36668,6,0,L|133:46,1,141,14|8,0:0|0:0,0:0:0:0:
81,161,37615,1,10,0:1:0:0:
155,217,37931,2,0,L|280:204,1,94,0|10,0:0|0:0,0:0:0:0:
339,182,38562,2,0,P|362:244|351:283,2,94,10|2|2,0:0|0:0|0:0,0:0:0:0:
297,97,39510,2,0,L|402:66,2,94,10|10|10,0:1|0:0|0:1,0:0:0:0:
206,122,40457,5,14,0:0:0:0:
114,99,40773,1,12,0:0:0:0:
31,144,41089,1,12,0:0:0:0:
43,316,42352,5,12,0:0:0:0:
135,339,42668,1,14,0:0:0:0:
218,294,42983,1,12,0:0:0:0:
206,122,44246,6,0,P|136:100|69:122,2,141,14|8|10,0:0|0:0|0:1,0:0:0:0:
344,249,45825,1,8,0:0:0:0:
431,215,46141,2,0,P|459:170|358:66,1,188,10|8,0:0|0:0,0:0:0:0:
302,69,47089,1,10,0:1:0:0:
227,125,47404,2,0,L|110:110,1,94,8|4,0:1|0:3,0:0:0:0:
57,169,48036,5,10,0:0:0:0:
239,282,49931,1,10,0:0:0:0:
439,190,51825,1,10,0:0:0:0:
255,70,53720,5,10,0:0:0:0:
323,345,54668,1,2,0:3:0:0:
476,108,55615,1,10,0:0:0:0:
123,197,57510,5,8,0:0:0:0:
359,194,59404,1,10,0:0:0:0:
130,172,61299,6,0,P|91:212|87:260,2,94,14|12|14,0:0|0:0|0:0,0:0:0:0:
217,137,62246,1,14,0:0:0:0:
309,154,62562,1,12,0:0:0:0:
384,98,62878,1,14,0:1:0:0:
470,133,63194,6,0,P|483:196|461:294,2,141,14|8|8,0:0|0:0|0:1,0:0:0:0:
343,69,64615,1,2,0:0:0:0:
228,151,65089,2,0,P|121:141|90:97,1,141,8|8,0:0|0:0,0:0:0:0:
33,244,66036,2,0,P|60:303|68:364,1,94,8|0,0:1|0:0,0:0:0:0:
158,350,66668,1,0,0:0:0:0:
234,295,66983,6,0,L|388:309,2,141,8|8|8,0:0|0:0|0:1,0:0:0:0:
156,241,68246,2,0,P|159:192|186:155,1,94,0|2,0:0|0:0,0:0:0:0:
244,83,68878,2,0,P|332:122|416:136,1,141,8|8,0:0|0:1,0:0:0:0:
482,223,69825,2,0,P|492:274|462:324,1,94,8|8,0:1|0:0,0:0:0:0:
383,334,70457,1,8,0:1:0:0:
304,281,70773,6,0,L|141:295,2,141,12|8|8,0:0|0:0|0:1,0:0:0:0:
352,148,72194,1,2,0:0:0:0:
257,43,72668,2,0,P|179:40|128:114,1,141,10|8,0:0|0:0,0:0:0:0:
37,181,73615,2,0,P|98:234|101:270,1,94,8|0,0:1|0:0,0:0:0:0:
187,208,74246,1,10,0:0:0:0:
280,219,74562,6,0,L|431:238,2,141,8|8|8,0:0|0:0|0:1,0:0:0:0:
169,66,76141,1,8,0:0:0:0:
251,20,76457,2,0,P|340:32|372:137,1,188,10|8,0:0|0:0,0:0:0:0:
345,203,77404,2,0,L|222:202,2,94,10|8|8,0:1|0:0|0:0,0:0:0:0:
408,272,78352,5,14,0:0:0:0:
256,192,78668,12,2,80246,0:0:0:0:
191,212,84036,6,0,L|82:200,2,94,14|14|14,0:1|0:1|0:1,0:0:0:0:
268,159,84983,1,10,0:1:0:0:
358,183,85299,1,10,0:1:0:0:
427,119,85615,1,6,0:3:0:0:
396,30,85931,6,0,L|229:35,2,141,14|8|12,0:0|0:0|0:1,0:0:0:0:
474,82,87194,2,0,P|491:129|470:176,1,94,0|0,0:0|0:0,0:0:0:0:
398,221,87825,2,0,P|382:302|418:348,1,141,10|8,0:0|0:0,0:0:0:0:
273,358,88773,1,8,0:1:0:0:
190,313,89089,2,0,L|76:326,1,94,0|0,0:0|0:0,0:0:0:0:
16,273,89720,6,0,P|-3:211|38:148,2,141,10|8|8,0:0|0:0|0:1,0:0:0:0:
109,283,90983,2,0,L|216:258,1,94,0|8,0:0|0:2,0:0:0:0:
287,225,91615,1,10,0:0:0:0:
423,189,92089,2,0,P|458:248|433:324,1,141,8|8,0:0|0:1,0:0:0:0:
356,355,92878,1,8,0:0:0:0:
263,340,93194,1,8,0:1:0:0:
169,329,93510,5,12,0:0:0:0:
310,85,94457,1,8,0:0:0:0:
423,342,95404,5,12,0:0:0:0:
310,85,96352,1,8,0:0:0:0:
169,329,97299,6,0,P|154:250|48:222,1,188,12|8,0:0|0:0,0:0:0:0:
35,127,98246,2,0,L|233:90,1,188,8|8,0:1|0:0,0:0:0:0:
313,84,99194,2,0,P|356:143|327:212,1,141,8|8,0:0|0:0,0:0:0:0:
241,306,100141,2,0,L|138:303,2,94,8|8|8,0:1|0:0|0:1,0:0:0:0:
332,328,101089,5,12,0:0:0:0:
422,303,101404,1,12,0:0:0:0:
457,216,101720,1,12,0:0:0:0:
409,134,102036,1,12,0:0:0:0:
134,70,102983,5,12,0:0:0:0:
44,95,103299,1,12,0:0:0:0:
9,182,103615,1,12,0:0:0:0:
57,264,103931,2,0,L|182:256,2,94,12|8|8,0:0|0:3|0:1,0:0:0:0:
56,358,104878,6,0,L|218:346,1,141,12|8,0:0|0:0,0:0:0:0:
337,333,105825,2,0,L|499:321,1,141,8|2,0:1|0:0,0:0:0:0:
462,181,106773,2,0,L|478:49,2,94,8|8|8,0:0|0:0|0:0,0:0:0:0:
370,202,107720,1,12,0:1:0:0:
311,128,108036,2,0,P|262:149|204:136,1,94,8|8,0:1|0:1,0:0:0:0:
153,80,108668,5,14,0:0:0:0:
145,361,109615,2,0,B|226:345|226:345|252:349|252:349|352:327,1,188,8|2,0:1|0:0,0:0:0:0:
420,309,110562,2,0,P|437:256|377:193,2,141,10|8|8,0:0|0:0|0:1,0:0:0:0:
247,234,112141,1,0,0:0:0:0:
170,178,112457,6,0,P|109:178|38:245,2,141,10|8|8,0:0|0:0|0:1,0:0:0:0:
427,293,114352,2,0,P|414:224|422:94,1,188,8|8,0:0|0:0,0:0:0:0:
356,36,115299,2,0,P|277:36|250:58,2,94,8|8|8,0:1|0:0|0:0,0:0:0:0:
320,122,116246,5,14,0:0:0:0:
52,211,117194,2,0,P|13:230|36:356,1,188,8|2,0:1|0:0,0:0:0:0:
118,375,118141,2,0,L|298:339,2,141,10|8|8,0:0|0:0|0:1,0:0:0:0:
284,143,120036,5,10,0:0:0:0:
396,293,120668,1,8,0:0:0:0:
461,225,120983,2,0,P|503:233|533:284,2,94,8|0|0,0:1|0:0|0:0,0:0:0:0:
401,151,121931,6,0,L|281:148,1,94,8|8,0:0|0:0,0:0:0:0:
230,202,122562,1,8,0:0:0:0:
147,157,122878,2,0,B|126:110|126:110|144:54,2,94,12|8|8,0:1|0:1|0:1,0:0:0:0:
98,237,123825,6,0,P|50:311|84:377,2,141,14|8|8,0:0|0:0|0:1,0:0:0:0:
230,286,125246,1,2,0:0:0:0:
364,244,125720,2,0,P|401:157|373:110,1,141,8|8,0:0|0:0,0:0:0:0:
263,46,126668,2,0,B|123:66|123:66|92:116,1,188,8|8,0:1|0:0,0:0:0:0:
132,193,127615,5,8,0:0:0:0:
88,327,128089,1,8,0:0:0:0:
225,357,128562,2,0,L|414:299,1,188,8|2,0:1|0:0,0:0:0:0:
481,246,129510,2,0,P|498:184|476:140,1,94,8|8,0:0|0:0,0:0:0:0:
410,105,130141,1,8,0:0:0:0:
324,143,130457,2,0,L|187:127,2,94,12|8|8,0:1|0:1|0:3,0:0:0:0:
369,225,131404,6,0,L|343:378,2,141,12|8|8,0:0|0:0|0:1,0:0:0:0:
386,85,132825,1,2,0:0:0:0:
259,22,133299,2,0,P|180:37|145:112,1,141,10|8,0:0|0:0,0:0:0:0:
60,194,134246,2,0,B|134:221|165:282|165:282|186:262|220:253,1,188,8|10,0:1|0:0,0:0:0:0:
298,241,135194,6,0,L|402:265,2,94,8|8|8,0:0|0:0|0:0,0:0:0:0:
259,155,136141,1,12,0:1:0:0:
91,240,136773,1,8,0:1:0:0:
0,266,137089,2,0,L|16:366,2,94,14|8|8,0:0|0:1|0:0,0:0:0:0:
3,172,138036,2,0,B|11:100|11:100|55:77|55:77|67:-10,1,188,12|8,0:1|0:1,0:0:0:0:
154,37,138983,6,0,L|262:23,2,94,14|8|8,0:0|0:0|0:0,0:0:0:0:
137,129,139931,1,12,0:1:0:0:
195,203,140246,2,0,P|246:209|308:168,1,94,10|10,0:0|0:0,0:0:0:0:
303,101,140878,6,0,P|383:77|470:153,1,188,14|10,0:0|0:0,0:0:0:0:
445,226,141825,2,0,P|365:250|278:174,1,188,14|10,0:1|0:0,0:0:0:0:
303,101,142773,5,12,0:0:0:0:
236,34,143089,2,0,P|153:26|116:44,1,94,10|10,0:0|0:0,0:0:0:0:
79,96,143720,1,14,0:1:0:0:
107,185,144036,1,8,0:0:0:0:
71,271,144352,2,0,L|111:369,1,94,10|12,0:0|0:0,0:0:0:0:
200,362,144983,6,0,L|317:323,1,94,10|10,0:0|0:0,0:0:0:0:
362,273,145615,2,0,L|472:290,2,94,14|10|10,0:1|0:0|0:0,0:0:0:0:
295,206,146562,5,14,0:0:0:0:
232,135,146878,2,0,P|180:143|141:188,1,94,8|8,0:0|0:0,0:0:0:0:
62,205,147510,2,0,L|48:0,1,188,14|8,0:1|0:0,0:0:0:0:
143,19,148457,5,14,0:0:0:0:
232,46,148773,2,0,L|340:32,1,94,8|8,0:0|0:0,0:0:0:0:
418,46,149404,2,0,P|486:110|432:205,1,188,14|8,0:1|0:0,0:0:0:0:
387,251,150352,5,14,0:0:0:0:
296,223,150668,2,0,P|238:234|196:213,1,94,8|8,0:0|0:0,0:0:0:0:
127,171,151299,2,0,P|48:204|50:320,1,188,14|8,0:1|0:0,0:0:0:0:
110,354,152246,5,14,0:1:0:0:
204,353,152562,2,0,L|299:340,1,94,8|8,0:1|0:1,0:0:0:0:
377,290,153194,2,0,L|474:300,2,94,14|8|8,0:1|0:1|0:1,0:0:0:0:
318,215,154141,5,12,0:0:0:0:
233,174,154457,2,0,L|108:125,1,94,10|10,0:0|0:0,0:0:0:0:
148,45,155089,2,0,L|349:2,1,188,14|8,0:1|0:0,0:0:0:0:
419,38,156036,5,12,0:0:0:0:
486,103,156352,2,0,P|501:162|484:194,1,94,10|10,0:0|0:0,0:0:0:0:
404,234,156983,2,0,B|350:225|329:191|351:163|313:114|261:117,1,188,14|8,0:1|0:0,0:0:0:0:
176,121,157931,6,0,P|115:207|148:282,1,188,14|8,0:0|0:0,0:0:0:0:
208,343,158878,2,0,L|319:334,2,94,14|8|8,0:1|0:0|0:0,0:0:0:0:
119,373,159825,6,0,L|13:355,1,94,14|8,0:0|0:0,0:0:0:0:
46,265,160457,1,8,0:0:0:0:
68,173,160773,1,14,0:1:0:0:
281,346,161720,6,0,L|421:350,2,141,12|8|12,0:0|0:0|0:1,0:0:0:0:
230,266,162983,2,0,P|213:219|234:172,1,94,0|8,0:0|0:0,0:0:0:0:
317,151,163615,2,0,P|333:70|297:24,1,141,8|8,0:0|0:0,0:0:0:0:
160,6,164562,1,12,0:1:0:0:
101,79,164878,2,0,L|-13:66,1,94,8|8,0:0|0:0,0:0:0:0:
7,162,165510,6,0,P|-12:224|29:287,2,141,8|8|12,0:0|0:0|0:1,0:0:0:0:
95,194,166773,2,0,L|202:219,1,94,0|8,0:0|0:0,0:0:0:0:
277,190,167404,1,8,0:0:0:0:
412,230,167878,2,0,P|447:171|422:95,1,141,8|8,0:0|0:1,0:0:0:0:
186,247,169299,6,0,L|45:251,2,141,8|8|12,0:0|0:0|0:1,0:0:0:0:
258,186,170562,2,0,L|360:183,1,94,0|0,0:0|0:0,0:0:0:0:
446,188,171194,2,0,P|476:253|442:335,1,141,8|8,0:0|0:0,0:0:0:0:
318,340,172141,1,8,0:1:0:0:
237,290,172457,2,0,P|196:313|150:315,1,94,0|0,0:0|0:0,0:0:0:0:
80,252,173089,6,0,L|18:393,2,141,8|8|8,0:0|0:0|0:1,0:0:0:0:
247,25,174983,2,0,L|373:26,1,94,8|8,0:0|0:0,0:0:0:0:
420,76,175615,1,8,0:0:0:0:
366,153,175931,1,8,0:0:0:0:
320,130,192036,6,0,P|441:181|422:319,2,282,8|8|8,0:1|0:0|0:0,0:0:0:0:
114,323,194878,1,8,0:0:0:0:
153,43,195825,6,0,P|306:88|441:42,2,282,8|8|8,0:0|0:0|0:0,0:0:0:0:
7,285,198668,2,0,P|21:341|68:368,2,94,8|8|8,0:0|0:0|0:1,0:0:0:0:
32,194,199615,6,0,L|247:176,1,188,12|8,0:1|0:0,0:0:0:0:
305,215,200562,1,8,0:0:0:0:
392,179,200878,2,0,P|402:130|372:77,1,94,8|8,0:0|0:0,0:0:0:0:
308,36,201510,2,0,L|110:56,1,188,8|8,0:0|0:1,0:0:0:0:
55,122,202457,2,0,P|37:202|54:227,1,94,8|8,0:0|0:1,0:0:0:0:
112,268,203089,1,8,0:1:0:0:
183,207,203404,6,0,B|253:196|253:196|298:207|298:207|397:196,1,188,8|8,0:1|0:1,0:0:0:0:
444,143,204352,2,0,P|450:86|404:55,1,94,8|8,0:1|0:1,0:0:0:0:
347,12,204983,1,8,0:1:0:0:
264,58,205299,2,0,L|148:48,2,94,8|8|8,0:1|0:1|0:1,0:0:0:0:
306,141,206246,1,8,0:1:0:0:
169,338,207194,6,0,L|75:343,2,94,14|0|0,0:0|0:0|0:0,0:0:0:0:
259,310,208141,2,0,P|276:263|255:216,1,94,8|2,0:1|0:0,0:0:0:0:
172,193,208773,1,2,0:0:0:0:
209,106,209089,2,0,L|361:97,2,141,10|8|8,0:0|0:0|0:1,0:0:0:0:
127,59,210352,2,0,L|21:66,1,94,0|0,0:0|0:0,0:0:0:0:
4,154,210983,6,0,L|34:301,1,141,10|8,0:0|0:0,0:0:0:0:
162,347,211931,2,0,L|253:325,1,94,8|0,0:1|0:0,0:0:0:0:
340,289,212562,1,2,0:0:0:0:
390,209,212878,2,0,P|428:240|514:220,2,141,8|8|8,0:0|0:0|0:1,0:0:0:0:
383,115,214141,2,0,P|328:75|299:79,1,94,10|10,0:0|0:1,0:0:0:0:
227,129,214773,5,14,0:0:0:0:
124,225,215246,1,8,0:0:0:0:
25,123,215720,2,0,P|39:63|76:39,2,94,8|2|2,0:1|0:0|0:0,0:0:0:0:
0,214,216668,2,0,L|18:372,1,141,10|8,0:0|0:0,0:0:0:0:
153,323,217615,1,8,0:1:0:0:
234,275,217931,2,0,L|336:298,1,94,0|0,0:0|0:0,0:0:0:0:
413,260,218562,6,0,P|443:339|509:363,2,141,10|8|8,0:0|0:0|0:1,0:0:0:0:
265,24,220457,2,0,L|139:25,1,94,8|8,0:0|0:1,0:0:0:0:
92,75,221089,1,8,0:0:0:0:
146,152,221404,2,0,L|338:149,1,188,8|8,0:1|0:1,0:0:0:0:
421,183,222352,6,0,P|452:236|429:309,1,141,14|8,0:0|0:0,0:0:0:0:
297,348,223299,2,0,L|144:345,1,141,8|2,0:1|0:0,0:0:0:0:
57,244,224246,2,0,P|49:143|77:108,2,141,8|8|8,0:0|0:0|0:1,0:0:0:0:
193,205,225668,1,2,0:0:0:0:
320,145,226141,6,0,P|364:206|345:273,1,141,8|8,0:0|0:0,0:0:0:0:
459,355,227089,2,0,P|464:290|500:165,1,188,8|2,0:1|0:0,0:0:0:0:
481,79,228036,2,0,P|441:49|381:48,1,94,8|8,0:0|0:0,0:0:0:0:
318,94,228668,1,8,0:0:0:0:
233,54,228983,2,0,B|146:90|146:90|47:58,1,188,12|8,0:1|0:1,0:0:0:0:
1,133,229931,6,0,P|0:188|28:220,1,94,14|0,0:0|0:0,0:0:0:0:
117,213,230562,1,0,0:0:0:0:
201,253,230878,2,0,L|356:219,2,141,8|2|10,0:1|0:0|0:0,0:0:0:0:
62,281,232299,1,8,0:0:0:0:
1,153,232773,2,0,P|17:92|44:69,1,94,8|0,0:1|0:0,0:0:0:0:
131,86,233404,1,10,0:0:0:0:
198,151,233720,6,0,P|299:141|358:67,1,188,12|8,0:0|0:0,0:0:0:0:
444,54,234668,2,0,P|485:102|486:137,1,94,8|8,0:1|0:0,0:0:0:0:
466,222,235299,1,8,0:1:0:0:
381,264,235615,5,14,0:0:0:0:
146,108,236562,1,14,0:0:0:0:
10,355,237510,1,14,0:0:0:0:
256,192,237825,12,0,240352,0:0:0:0:
