osu file format v14

[General]
AudioFilename: audio.mp3
AudioLeadIn: 0
PreviewTime: 306
Countdown: 0
SampleSet: Soft
StackLeniency: 0.4
Mode: 0
LetterboxInBreaks: 0
WidescreenStoryboard: 0

[Editor]
Bookmarks: 2595,10174,17753,25332,32911,40490,48069,55648,63227,70806,78385,85964,93543,101122,108701,116279,123858,131437,139016,146595,154174,161753,169332,176911,184490,192069,199648,207227,214806,222385,229964,237543,247016
DistanceSpacing: 0.5
BeatDivisor: 8
GridSize: 32
TimelineZoom: 1.3

[Metadata]
Title:Line Without a Hook
TitleUnicode:Line Without a Hook
Artist:Ricky Montgomery
ArtistUnicode:Ricky Montgomery
Creator:Yuuya_ke
Version:Insane
Source:
Tags:the honeysticks alternative english grindle
BeatmapID:1878684
BeatmapSetID:899381

[Difficulty]
HPDrainRate:5.5
CircleSize:4.2
OverallDifficulty:8
ApproachRate:9
SliderMultiplier:3
SliderTickRate:1

[Events]
//Background and Video events
0,0,"ddddddddddddddddddddddddd.jpg",0,0
//Break Periods
2,78588,83122
//Storyboard Layer 0 (Background)
//Storyboard Layer 1 (Fail)
//Storyboard Layer 2 (Pass)
//Storyboard Layer 3 (Foreground)
//Storyboard Sound Samples

[TimingPoints]
704,631.578947368421,3,2,1,60,1,0
17993,-100,3,2,1,5,0,0
18072,-100,3,2,1,60,0,0
32519,-100,3,2,1,5,0,0
32598,-100,3,2,1,60,0,0
32914,-83.3333333333333,3,2,1,60,0,0
33151,-83.3333333333333,3,2,1,5,0,0
33230,-83.3333333333333,3,2,1,60,0,0
33467,-83.3333333333333,3,2,1,5,0,0
33546,-83.3333333333333,3,2,1,60,0,0
33782,-83.3333333333333,3,2,1,5,0,0
33861,-333.333333333333,3,2,1,60,0,0
34730,-333.333333333333,3,2,1,5,0,0
34809,-83.3333333333333,3,2,1,60,0,0
35046,-83.3333333333333,3,2,1,5,0,0
35125,-83.3333333333333,3,2,1,60,0,0
35361,-83.3333333333333,3,2,1,5,0,0
35440,-83.3333333333333,3,2,1,60,0,0
35677,-83.3333333333333,3,2,1,5,0,0
35756,-333.333333333333,3,2,1,60,0,0
36625,-333.333333333333,3,2,1,5,0,0
36704,-83.3333333333333,3,2,1,60,0,0
38519,-83.3333333333333,3,2,1,5,0,0
38598,-83.3333333333333,3,2,1,60,0,0
40730,-83.3333333333333,3,2,1,5,0,0
40809,-83.3333333333333,3,2,1,60,0,0
41046,-83.3333333333333,3,2,1,5,0,0
41125,-83.3333333333333,3,2,1,60,0,0
42625,-83.3333333333333,3,2,1,5,0,0
42704,-83.3333333333333,3,2,1,60,0,0
42940,-83.3333333333333,3,2,1,5,0,0
43019,-83.3333333333333,3,2,1,60,0,0
48072,-166.666666666667,3,2,1,40,0,0
61335,-83.3333333333333,3,2,1,60,0,0
70098,-83.3333333333333,3,2,1,5,0,0
70177,-83.3333333333333,3,2,1,60,0,0
78388,-166.666666666667,3,2,1,60,0,0
84072,-83.3333333333333,3,2,1,60,0,0
94335,-83.3333333333333,3,2,1,5,0,0
94493,-83.3333333333333,3,2,1,60,0,0
96230,-83.3333333333333,3,2,1,5,0,0
96388,-83.3333333333333,3,2,1,60,0,0
101361,-83.3333333333333,3,2,1,5,0,0
101440,-83.3333333333333,3,2,1,60,0,0
101677,-83.3333333333333,3,2,1,5,0,0
101756,-83.3333333333333,3,2,1,60,0,0
101993,-83.3333333333333,3,2,1,5,0,0
102072,-83.3333333333333,3,2,1,60,0,0
102230,-83.3333333333333,3,2,1,5,0,0
103019,-83.3333333333333,3,2,1,60,0,0
103256,-83.3333333333333,3,2,1,5,0,0
103335,-83.3333333333333,3,2,1,60,0,0
103572,-83.3333333333333,3,2,1,5,0,0
103651,-83.3333333333333,3,2,1,60,0,0
103888,-83.3333333333333,3,2,1,5,0,0
103967,-83.3333333333333,3,2,1,60,0,0
104125,-83.3333333333333,3,2,1,5,0,0
104282,-83.3333333333333,3,2,1,60,0,0
108704,-100,3,2,1,60,0,0
121967,-83.3333333333333,3,2,1,60,0,0
130730,-83.3333333333333,3,2,1,5,0,0
130809,-83.3333333333333,3,2,1,60,0,0
139019,-83.3333333333333,3,2,1,70,0,1
160809,-83.3333333333333,3,2,1,70,0,0
161756,-83.3333333333333,3,2,1,70,0,0
167677,-83.3333333333333,3,2,1,5,0,0
167756,-83.3333333333333,3,2,1,70,0,0
168151,-83.3333333333333,3,2,1,5,0,0
168230,-83.3333333333333,3,2,1,70,0,0
168625,-83.3333333333333,3,2,1,5,0,0
168703,-83.3333333333333,3,2,1,70,0,0
175256,-83.3333333333333,3,2,1,5,0,0
175335,-83.3333333333333,3,2,1,70,0,0
175572,-83.3333333333333,3,2,1,5,0,0
175651,-83.3333333333333,3,2,1,70,0,0
175888,-83.3333333333333,3,2,1,5,0,0
175967,-83.3333333333333,3,2,1,70,0,0
176914,-166.666666666667,3,2,1,40,0,0
192072,-125,3,2,1,40,0,0
199651,-100,3,2,1,50,0,0
203440,-83.3333333333333,3,2,1,50,0,0
205335,-83.3333333333333,3,2,1,60,0,0
206282,-333.333333333333,3,2,1,60,0,0
206440,-333.333333333333,3,2,1,5,0,0
207230,-83.3333333333333,3,2,1,70,0,0
235651,-83.3333333333333,3,2,1,60,0,0
236440,-83.3333333333333,3,2,1,5,0,0
236598,-125,3,2,1,60,0,0
237388,-125,3,2,1,5,0,0
237546,-400,3,2,1,60,0,0
237703,-400,3,2,1,30,0,0
240388,-400,3,2,1,20,0,0
241335,-400,3,2,1,15,0,0
243230,-400,3,2,1,10,0,0
245125,-400,3,2,1,5,0,0

[Colours]
Combo1 : 100,128,223
Combo2 : 131,150,160
Combo3 : 142,164,236
Combo4 : 102,120,138

[HitObjects]
147,141,1651,5,0,2:2:0:0:
147,141,1967,1,0,0:2:0:0:
187,246,2125,1,0,0:2:0:0:
30,236,2282,1,0,1:2:0:0:
247,159,2440,1,0,1:2:0:0:
25,100,2598,6,0,P|102:156|156:133,1,150,14|2,0:2|0:2,0:2:0:0:
249,112,3072,2,0,P|174:96|103:78,1,150,8|8,0:2|0:2,0:2:0:0:
111,237,3546,2,0,P|105:195|115:160,1,75,2|0,1:2|0:2,0:2:0:0:
255,270,3861,2,0,P|261:312|251:347,1,75,2|0,0:2|0:2,0:2:0:0:
193,204,4177,1,2,0:2:0:0:
193,204,4335,1,0,0:2:0:0:
38,314,4493,6,0,B|124:339|94:284|188:306,1,150,10|0,0:2|0:2,0:2:0:0:
237,366,4967,2,0,P|217:289|199:219,1,150,10|8,0:2|0:2,0:2:0:0:
299,204,5440,1,0,1:2:0:0:
299,204,5756,2,0,P|288:162|283:127,1,75,2|0,0:2|0:2,0:2:0:0:
124,160,6072,2,0,P|133:123|139:86,1,75,2|0,0:2|0:2,0:2:0:0:
258,11,6388,6,0,P|316:54|396:42,1,150,10|0,0:2|0:2,0:2:0:0:
502,84,6861,2,8,P|434:111|362:138,1,150,10|8,0:2|0:2,0:2:0:0:
318,265,7335,2,0,B|318:164|280:217|277:118,1,150,2|0,1:2|0:2,0:2:0:0:
403,217,7809,1,2,0:2:0:0:
403,217,7967,2,0,P|447:204|483:191,1,75,0|0,0:2|0:2,0:2:0:0:
481,341,8282,6,0,B|381:312|381:312|368:335|380:362,1,150,10|0,0:2|0:2,0:2:0:0:
195,319,8756,2,8,P|289:311|310:244,1,150,10|8,0:2|0:2,0:2:0:0:
115,254,9230,1,2,1:2:0:0:
115,254,9546,2,0,P|109:293|97:331,1,75,10|0,0:2|0:2,0:2:0:0:
292,186,9861,2,0,P|298:225|310:263,1,75,10|0,0:2|0:2,0:2:0:0:
147,129,10177,6,0,B|187:111|187:111|226:159|190:217,1,150,10|0,0:2|0:2,0:2:0:0:
42,253,10651,2,8,P|114:235|194:216,1,150,10|8,0:2|0:2,0:2:0:0:
139,134,11125,2,0,P|132:94|122:51,1,75,2|0,1:2|0:2,0:2:0:0:
295,167,11440,2,0,P|286:203|280:240,1,75,2|0,0:2|0:2,0:2:0:0:
240,81,11756,1,2,0:2:0:0:
240,81,11914,1,0,0:2:0:0:
411,103,12072,6,0,B|326:119|360:69|266:81,1,150,10|0,0:2|0:2,0:2:0:0:
157,24,12546,2,8,P|173:88|196:169,1,150,10|8,0:2|0:2,0:2:0:0:
383,29,13019,1,2,1:2:0:0:
289,164,13177,1,2,0:2:0:0:
427,98,13335,1,2,0:2:0:0:
266,7,13493,1,2,0:2:0:0:
379,182,13651,2,0,P|389:219|382:257,1,75,2|2,0:2|0:2,0:2:0:0:
244,318,13967,6,0,P|234:281|241:243,1,75,10|2,0:2|0:2,0:2:0:0:
383,352,14282,2,0,P|418:357|469:370,1,75,2|10,0:2|0:2,0:2:0:0:
483,252,14598,1,2,0:2:0:0:
483,252,14756,1,10,0:2:0:0:
405,118,14914,2,0,P|398:159|388:201,1,75,2|0,1:2|0:2,0:2:0:0:
498,10,15230,2,0,P|504:46|512:83,1,75,2|0,0:2|0:2,0:2:0:0:
310,43,15546,1,2,0:2:0:0:
310,43,15861,6,0,P|233:36|185:93,1,150,10|2,0:2|0:2,0:2:0:0:
274,183,16335,1,8,0:2:0:0:
274,183,16493,2,0,P|235:173|201:165,1,75,2|8,0:2|0:2,0:2:0:0:
93,280,16809,1,2,1:2:0:0:
93,280,17125,2,0,P|105:317|108:358,1,75,10|0,0:2|0:2,0:2:0:0:
5,217,17440,1,2,1:2:0:0:
201,264,17598,1,0,1:2:0:0:
0,371,17756,6,0,B|70:379|48:346|115:353,1,112.5,14|0,0:2|0:2,0:2:0:0:
114,361,18072,2,0,P|155:350|198:340,1,75,2|8,0:2|0:2,0:2:0:0:
133,183,18388,1,2,0:2:0:0:
133,183,18546,1,8,0:2:0:0:
342,237,18704,1,2,1:2:0:0:
342,237,19019,2,0,P|333:270|328:312,1,75,2|0,0:2|0:2,0:2:0:0:
201,142,19335,2,0,P|210:175|215:217,1,75,2|0,0:2|0:2,0:2:0:0:
344,144,19651,6,0,P|414:127|470:172,1,150,10|0,0:2|0:2,0:2:0:0:
346,251,20125,2,8,B|371:357|371:357|387:333|407:322,1,150,10|8,0:2|0:2,0:2:0:0:
250,195,20598,2,0,B|169:182|187:237|105:229,1,150,2|0,1:2|0:2,0:2:0:0:
217,354,21072,1,2,0:2:0:0:
217,354,21230,2,0,P|226:308|233:279,1,75,0|0,0:2|0:2,0:2:0:0:
121,139,21546,5,10,0:2:0:0:
237,268,21704,1,2,0:2:0:0:
109,358,21861,1,2,0:2:0:0:
197,186,22019,1,10,0:2:0:0:
15,256,22177,2,0,P|5:292|10:329,1,75,2|10,0:2|0:2,0:2:0:0:
209,197,22493,2,0,P|213:159|204:123,1,75,2|0,1:2|0:2,0:2:0:0:
35,163,22809,2,0,P|77:153|109:145,1,75,2|8,0:2|0:2,0:2:0:0:
160,0,23125,1,10,0:2:0:0:
160,0,23440,6,0,P|153:43|140:82,1,75,10|0,0:2|0:2,0:2:0:0:
330,73,23756,2,0,P|337:116|350:155,1,75,2|8,0:2|0:2,0:2:0:0:
201,206,24072,1,2,0:2:0:0:
201,206,24230,1,8,0:2:0:0:
376,248,24388,2,0,P|290:254|256:308,1,150,2|10,1:2|0:2,0:2:0:0:
419,360,24861,1,0,0:2:0:0:
419,360,25019,2,0,P|461:350|502:347,1,75,10|0,0:2|0:2,0:2:0:0:
458,174,25335,6,0,B|379:153|397:207|303:183,1,150,10|0,0:2|0:2,0:2:0:0:
222,47,25809,2,8,P|320:63|339:109,1,150,8|8,0:2|0:2,0:2:0:0:
180,203,26282,1,0,1:2:0:0:
180,203,26598,2,0,P|190:240|179:285,1,75,2|0,0:2|0:2,0:2:0:0:
4,183,26914,2,0,P|-6:146|5:101,1,75,2|0,0:2|0:2,0:2:0:0:
61,0,27230,6,0,P|76:62|94:152,1,150,10|0,0:2|0:2,0:2:0:0:
170,271,27703,2,0,B|83:247|83:247|55:265|63:305,1,150,10|8,0:2|0:2,0:2:0:0:
256,359,28177,1,0,1:2:0:0:
256,359,28493,2,0,P|251:320|247:278,1,75,2|0,0:2|0:2,0:2:0:0:
411,301,28809,2,0,P|416:262|420:220,1,75,2|0,0:2|0:2,0:2:0:0:
200,185,29125,6,0,P|279:190|332:131,1,150,10|0,0:2|0:2,0:2:0:0:
274,26,29598,2,8,B|247:8|247:8|194:59|253:120,1,150,10|8,0:2|0:2,0:2:0:0:
500,59,30072,2,0,B|416:86|438:27|335:63,1,150,2|0,1:2|0:2,0:2:0:0:
416,209,30546,1,2,0:2:0:0:
416,209,30703,2,0,P|406:167|397:129,1,75,0|0,0:2|0:2,0:2:0:0:
235,148,31019,6,0,P|277:139|321:137,1,75,10|0,0:2|0:2,0:2:0:0:
152,90,31335,2,0,P|143:48|141:4,1,75,8|0,0:2|0:2,0:2:0:0:
122,191,31651,2,0,P|80:200|36:202,1,75,10|0,0:2|0:2,0:2:0:0:
300,220,31967,2,0,B|369:207|369:207|382:212,1,75,2|0,1:2|0:2,0:2:0:0:
132,191,32282,2,0,B|82:182|82:182|76:186|76:186|11:173,1,112.5,8|0,0:2|0:2,0:2:0:0:
12,173,32598,2,0,P|1:207|10:245,1,75,6|0,1:2|0:2,0:2:0:0:
232,328,32914,6,0,B|260:265|260:265|227:198,1,134.999995880127,12|0,0:2|0:2,0:2:0:0:
92,339,33230,2,0,B|158:331|158:331|170:335|170:335|236:328,1,134.999995880127,12|0,0:2|0:2,0:2:0:0:
383,321,33546,2,0,B|335:274|335:274|304:344,1,134.999995880127,12|0,0:2|0:2,0:2:0:0:
391,328,33861,6,0,P|409:264|425:204,1,123.74999622345,0|0,0:2|0:2,0:2:0:0:
441,134,34809,6,0,B|367:127|394:170|289:157,1,134.999995880127,12|0,0:2|0:2,0:2:0:0:
255,51,35125,2,0,B|226:23|259:-7|291:27|297:68|260:98,1,134.999995880127,12|0,0:2|0:2,0:2:0:0:
274,232,35440,2,0,B|237:248|193:234|177:186|177:186|212:199,1,134.999995880127,12|0,0:2|0:2,0:2:0:0:
282,238,35756,6,0,B|369:222|369:222|351:232|345:256,1,123.74999622345,0|0,0:2|0:2,0:2:0:0:
416,281,36704,6,0,B|286:309|286:309|310:325|318:362,1,179.999994506836,14|0,0:2|0:2,0:2:0:0:
127,271,37177,2,8,P|155:357|237:375,1,179.999994506836,8|8,0:2|0:2,0:2:0:0:
260,120,37651,2,0,P|242:195|213:296,1,179.999994506836,2|0,1:2|0:2,0:2:0:0:
358,341,38125,1,8,0:2:0:0:
358,341,38282,2,0,P|339:273|320:204,1,134.999995880127,10|0,0:2|0:2,0:2:0:0:
318,200,38598,6,0,P|361:214|409:206,1,89.9999972534181,10|0,0:2|0:2,0:2:0:0:
312,51,38914,2,0,P|269:37|225:43,1,89.9999972534181,2|8,0:2|0:2,0:2:0:0:
455,102,39230,1,2,0:2:0:0:
455,102,39388,1,8,0:2:0:0:
264,121,39546,2,0,P|277:168|280:221,1,89.9999972534181,2|0,1:2|0:2,0:2:0:0:
471,14,39861,2,0,P|458:61|455:114,1,89.9999972534181,10|0,0:2|0:2,0:2:0:0:
475,259,40177,1,2,1:2:0:0:
475,259,40493,6,0,B|405:239|423:292|340:276,1,134.999995880127,12|0,0:2|0:2,0:2:0:0:
193,322,40809,2,0,P|257:366|323:338,1,134.999995880127,12|0,0:2|0:2,0:2:0:0:
322,181,41125,2,0,B|247:206|247:206|239:218|239:218|149:247,1,179.999994506836,12|0,0:2|0:2,0:2:0:0:
156,244,42388,6,0,B|242:217|242:217|257:178|220:157,1,134.999995880127,12|0,0:2|0:2,0:2:0:0:
32,108,42704,2,0,P|84:146|159:125,1,134.999995880127,12|0,0:2|0:2,0:2:0:0:
188,1,43019,2,0,P|217:88|242:187,1,179.999994506836,12|0,0:2|0:2,0:2:0:0:
239,173,44282,6,0,B|339:144|304:223|411:194,1,179.999994506836,14|0,0:2|0:2,0:2:0:0:
463,85,44756,1,8,0:2:0:0:
463,85,44914,2,0,P|419:98|373:115,1,89.9999972534181,2|8,0:2|0:2,0:2:0:0:
278,69,45230,2,0,P|173:75|143:-9,1,179.999994506836,2|0,1:2|0:2,0:2:0:0:
221,15,45704,1,0,0:2:0:0:
237,183,45861,1,10,0:2:0:0:
237,183,46177,6,0,P|157:205|56:237,1,179.999994506836,10|0,0:2|0:2,0:2:0:0:
182,334,46651,1,0,1:2:0:0:
0,301,46809,1,8,0:2:0:0:
100,381,46967,1,0,1:2:0:0:
104,144,47125,1,2,1:2:0:0:
104,144,47440,1,0,1:2:0:0:
236,197,47598,1,8,0:2:0:0:
323,148,47756,1,8,0:2:0:0:
385,197,47914,1,8,0:2:0:0:
427,128,48072,6,0,P|462:133|511:101,2,89.9999972534181,10|0|0,0:2|0:2|0:2,0:2:0:0:
361,72,49019,2,0,P|324:47|280:50,1,89.9999972534181,0|0,0:2|0:2,0:2:0:0:
361,72,49651,1,8,0:2:0:0:
345,158,49967,2,0,B|244:178|277:106|162:126,1,179.999994506836,10|0,0:2|0:2,0:2:0:0:
205,205,50914,2,0,P|217:247|230:305,1,89.9999972534181,0|0,0:2|0:2,0:2:0:0:
205,205,51546,1,8,0:2:0:0:
138,259,51861,6,0,P|64:277|9:187,1,179.999994506836,10|0,0:2|0:2,0:2:0:0:
103,113,52809,2,0,P|94:147|85:205,2,89.9999972534181,0|0|0,0:2|0:2|0:2,0:2:0:0:
27,70,53756,2,0,B|109:57|109:57|124:64|124:64|205:52,1,179.999994506836,10|0,0:2|0:2,0:2:0:0:
287,17,54704,1,0,0:2:0:0:
357,74,55019,1,8,0:2:0:0:
325,167,55335,1,8,0:2:0:0:
224,177,55651,6,0,B|281:156|281:156|321:207|288:276,1,179.999994506836,10|0,0:2|0:2,0:2:0:0:
200,296,56598,2,0,P|188:350|208:392,2,89.9999972534181,0|0|0,0:2|0:2|0:2,0:2:0:0:
299,351,57546,2,0,P|396:357|438:293,1,179.999994506836,10|0,0:2|0:2,0:2:0:0:
371,235,58493,2,0,P|378:189|386:146,1,89.9999972534181,0|0,0:2|0:2,0:2:0:0:
371,235,59125,1,8,0:2:0:0:
428,70,59440,6,0,B|318:43|318:43|294:68|311:107,1,179.999994506836,10|0,0:2|0:2,0:2:0:0:
396,150,60388,1,0,0:2:0:0:
319,202,60704,1,0,0:2:0:0:
211,153,61019,1,0,0:2:0:0:
205,17,61335,6,0,B|162:4|113:4,1,89.9999972534181,12|0,0:2|0:2,0:2:0:0:
333,65,61651,2,0,B|381:74|429:71,1,89.9999972534181,8|0,0:2|0:2,0:2:0:0:
222,163,61967,2,0,B|207:204|204:257,1,89.9999972534181,8|0,0:2|0:2,0:2:0:0:
244,382,62282,1,12,0:2:0:0:
244,382,62598,1,8,0:2:0:0:
91,301,62756,1,0,1:2:0:0:
335,260,62914,1,0,1:2:0:0:
335,260,63230,6,0,P|383:274|476:188,1,179.999994506836,14|2,0:2|0:2,0:2:0:0:
436,38,63704,1,8,0:2:0:0:
436,38,63861,2,0,P|422:80|414:125,1,89.9999972534181,2|8,0:2|0:2,0:2:0:0:
231,104,64177,2,0,P|245:146|253:190,1,89.9999972534181,2|0,1:2|0:2,0:2:0:0:
349,276,64493,1,2,0:2:0:0:
349,276,64651,1,2,0:2:0:0:
213,367,64809,2,0,P|261:353|308:344,1,89.9999972534181,0|0,0:2|0:2,0:2:0:0:
169,231,65125,6,0,P|92:247|21:166,1,179.999994506836,10|0,0:2|0:2,0:2:0:0:
122,13,65598,2,8,B|157:132|157:132|105:168,1,179.999994506836,10|8,0:2|0:2,0:2:0:0:
24,306,66072,2,0,B|133:274|102:340|207:315,1,179.999994506836,2|0,1:2|0:2,0:2:0:0:
295,277,66546,1,2,0:2:0:0:
295,277,66704,2,0,P|285:327|275:364,1,89.9999972534181,0|0,0:2|0:2,0:2:0:0:
166,231,67019,6,0,P|254:206|342:177,1,179.999994506836,10|0,0:2|0:2,0:2:0:0:
477,191,67493,2,8,B|441:163|441:163|382:221|449:292,1,179.999994506836,10|8,0:2|0:2,0:2:0:0:
341,90,67967,1,2,1:2:0:0:
341,90,68282,2,0,P|357:128|346:180,1,89.9999972534181,0|0,0:2|0:2,0:2:0:0:
171,111,68598,2,0,P|155:73|166:21,1,89.9999972534181,2|0,0:2|0:2,0:2:0:0:
275,139,68914,6,0,B|241:241|307:206|269:328,1,179.999994506836,10|0,0:2|0:2,0:2:0:0:
91,232,69388,1,0,1:2:0:0:
186,275,69546,2,0,P|129:269|100:245,1,89.9999972534181,2|8,0:2|0:2,0:2:0:0:
116,48,69861,2,0,P|139:114|159:176,1,134.999995880127,2|0,1:2|0:2,0:2:0:0:
165,188,70177,1,8,0:2:0:0:
216,47,70335,1,0,1:2:0:0:
41,155,70493,1,2,1:2:0:0:
265,140,70651,1,0,1:2:0:0:
143,275,70809,6,0,P|156:232|164:187,1,89.9999972534181,14|0,0:2|0:2,0:2:0:0:
382,196,71125,2,0,P|368:153|360:108,1,89.9999972534181,2|8,0:2|0:2,0:2:0:0:
291,13,71440,1,2,0:2:0:0:
291,13,71598,1,8,0:2:0:0:
104,50,71756,2,0,B|199:67|178:1|283:18,1,179.999994506836,2|2,1:2|0:2,0:2:0:0:
272,194,72230,1,2,0:2:0:0:
271,194,72388,2,0,P|260:148|247:107,1,89.9999972534181,0|0,0:2|0:2,0:2:0:0:
71,239,72704,6,0,P|160:218|224:303,1,179.999994506836,10|0,0:2|0:2,0:2:0:0:
7,330,73177,2,8,P|23:241|40:142,1,179.999994506836,10|8,0:2|0:2,0:2:0:0:
190,16,73651,2,0,B|76:-16|76:-16|49:2|64:53,1,179.999994506836,2|0,1:2|0:2,0:2:0:0:
195,104,74125,1,0,0:2:0:0:
195,104,74282,2,0,P|202:150|195:194,1,89.9999972534181,10|0,0:2|0:2,0:2:0:0:
104,297,74598,6,0,P|168:239|252:259,1,179.999994506836,10|0,0:2|0:2,0:2:0:0:
398,326,75072,2,8,B|293:295|337:362|218:340,1,179.999994506836,8|8,0:2|0:2,0:2:0:0:
344,148,75546,1,0,1:2:0:0:
344,148,75861,2,0,P|357:193|370:244,1,89.9999972534181,0|0,0:2|0:2,0:2:0:0:
487,32,76177,2,0,P|474:77|461:128,1,89.9999972534181,10|0,0:2|0:2,0:2:0:0:
290,67,76493,6,0,P|376:92|463:118,1,179.999994506836,10|0,0:2|0:2,0:2:0:0:
342,243,76967,1,0,1:2:0:0:
449,214,77125,2,0,P|400:228|353:241,1,89.9999972534181,10|0,0:2|0:2,0:2:0:0:
507,370,77440,1,2,1:2:0:0:
507,370,77756,2,0,P|518:326|509:283,1,89.9999972534181,8|0,0:2|0:2,0:2:0:0:
401,325,78072,1,2,0:2:0:0:
463,118,78388,5,14,0:2:0:0:
183,254,84072,6,0,P|139:259|93:270,1,89.9999972534181,14|0,0:2|0:2,0:2:0:0:
176,32,84388,2,0,P|186:75|191:120,1,89.9999972534181,14|0,0:2|0:2,0:2:0:0:
383,172,84704,2,0,P|339:182|295:187,1,89.9999972534181,14|0,0:2|0:2,0:2:0:0:
470,89,85019,1,14,0:2:0:0:
432,264,85177,1,0,1:2:0:0:
297,99,85335,1,2,1:2:0:0:
500,192,85493,1,0,1:2:0:0:
276,261,85651,1,10,0:2:0:0:
276,261,85967,6,0,B|174:236|213:313|88:284,1,179.999994506836,14|0,0:2|0:2,0:2:0:0:
39,198,86440,1,8,0:2:0:0:
39,198,86598,2,0,P|81:187|130:176,1,89.9999972534181,0|8,0:2|0:2,0:2:0:0:
292,31,86914,1,4,1:2:0:0:
292,31,87230,2,0,P|281:79|274:126,1,89.9999972534181,2|0,0:2|0:2,0:2:0:0:
101,97,87546,2,0,P|112:145|119:192,1,89.9999972534181,2|0,0:2|0:2,0:2:0:0:
265,211,87861,6,0,P|340:233|407:160,1,179.999994506836,10|0,0:2|0:2,0:2:0:0:
465,46,88335,1,10,0:2:0:0:
465,46,88493,2,0,P|476:87|489:143,1,89.9999972534181,0|8,0:2|0:2,0:2:0:0:
384,260,88809,1,0,1:2:0:0:
384,260,89125,2,0,P|332:276|281:265,1,89.9999972534181,2|0,0:2|0:2,0:2:0:0:
202,111,89440,2,0,P|254:95|305:106,1,89.9999972534181,2|0,0:2|0:2,0:2:0:0:
173,234,89756,6,0,B|80:250|118:186|-13:210,1,179.999994506836,10|0,0:2|0:2,0:2:0:0:
55,373,90230,1,8,0:2:0:0:
55,373,90388,2,0,P|43:316|28:271,1,89.9999972534181,2|8,0:2|0:2,0:2:0:0:
153,136,90704,1,0,1:2:0:0:
153,136,91019,2,0,P|163:179|173:226,1,89.9999972534181,2|8,0:2|0:2,0:2:0:0:
295,24,91335,2,0,P|285:67|275:114,1,89.9999972534181,10|0,0:2|0:2,0:2:0:0:
39,0,91651,6,0,P|119:59|196:32,1,179.999994506836,10|0,0:2|0:2,0:2:0:0:
81,150,92125,1,8,0:2:0:0:
81,150,92282,2,0,P|100:197|110:240,1,89.9999972534181,2|8,0:2|0:2,0:2:0:0:
18,364,92598,2,0,B|100:352|100:352|111:358|111:358|202:344,2,179.999994506836,0|8|2,1:2|0:2|1:2,0:2:0:0:
223,146,93546,6,0,B|170:138|138:85|138:85|148:214|180:151|211:244|184:310|97:332|23:295|9:218|101:174|140:205|125:252,1,449.99998626709,14|0,0:2|0:2,0:2:0:0:
186,285,94493,1,12,0:2:0:0:
186,285,95440,6,0,B|162:273|146:242|146:242|141:280|141:280|157:313|157:313|152:347|152:347|160:384|160:384|123:369|106:325|96:390|33:374|-22:353|-11:261|64:229|110:295,1,449.99998626709,14|0,0:2|0:2,0:2:0:0:
18,364,96388,1,12,0:2:0:0:
18,364,97335,6,0,P|107:342|201:314,1,179.999994506836,14|0,0:2|0:2,0:2:0:0:
96,170,97809,1,2,0:2:0:0:
96,170,97967,2,0,P|80:216|66:262,1,89.9999972534181,8|0,0:2|0:2,0:2:0:0:
260,232,98282,2,0,P|337:257|421:174,2,179.999994506836,2|0|8,1:2|0:2|0:2,0:2:0:0:
479,46,99230,6,0,B|379:17|379:17|347:40|364:89,1,179.999994506836,10|0,0:2|0:2,0:2:0:0:
512,133,99704,1,8,0:2:0:0:
512,133,99861,2,0,P|520:173|502:223,1,89.9999972534181,2|8,0:2|0:2,0:2:0:0:
320,172,100177,1,2,1:2:0:0:
320,172,100493,2,0,P|332:219|343:275,1,89.9999972534181,10|0,0:2|0:2,0:2:0:0:
216,19,100809,2,0,P|204:62|195:106,1,89.9999972534181,2|0,1:2|0:2,0:2:0:0:
95,222,101125,6,0,B|186:200|186:200|201:217|199:246,1,134.999995880127,12|0,0:2|0:2,0:2:0:0:
313,353,101440,2,0,P|268:312|186:333,1,134.999995880127,12|0,0:2|0:2,0:2:0:0:
49,286,101756,2,0,B|63:272|83:278|83:278|103:375,1,134.999995880127,12|0,0:2|0:2,0:2:0:0:
112,380,102072,2,0,P|102:336|91:285,1,89.9999972534181,12|0,0:2|0:2,0:2:0:0:
92,292,103019,6,0,B|79:255|79:255|19:257|-1:316,1,134.999995880127,12|0,0:2|0:2,0:2:0:0:
183,284,103335,2,0,B|154:197|154:197|117:171,1,134.999995880127,12|0,0:2|0:2,0:2:0:0:
2,112,103651,2,0,B|87:118|62:82|141:95,1,134.999995880127,12|0,0:2|0:2,0:2:0:0:
143,90,103967,2,0,P|120:85|56:100,1,89.9999972534181,12|0,0:2|0:2,0:2:0:0:
264,152,104282,1,8,0:2:0:0:
179,13,104440,1,0,1:2:0:0:
170,232,104598,1,0,1:2:0:0:
170,232,104914,6,0,B|258:221|258:221|269:227|269:227|348:216,1,179.999994506836,14|0,0:2|0:2,0:2:0:0:
359,39,105388,2,8,B|305:23|305:23|256:81|313:150,1,179.999994506836,8|10,0:2|0:2,0:2:0:0:
460,83,105861,2,0,P|443:167|427:268,1,179.999994506836,2|0,1:2|0:2,0:2:0:0:
503,359,106335,1,2,0:2:0:0:
503,359,106493,2,0,P|452:352|412:345,1,89.9999972534181,0|0,0:2|0:2,0:2:0:0:
286,308,106809,6,0,P|245:322|198:329,1,89.9999972534181,10|0,0:2|0:2,0:2:0:0:
316,183,107125,2,0,P|309:138|295:95,1,89.9999972534181,8|0,0:2|0:2,0:2:0:0:
415,263,107440,2,0,P|456:249|503:242,1,89.9999972534181,8|0,0:2|0:2,0:2:0:0:
212,199,107756,1,2,1:2:0:0:
212,199,108072,2,0,B|210:223|210:223|217:242|216:272,2,59.9999981689454,0|0|0,1:2|1:2|1:2,1:2:0:0:
213,185,108388,1,0,1:2:0:0:
213,185,108704,6,0,P|160:205|80:152,2,150,14|0|0,0:2|0:2|0:2,0:2:0:0:
270,94,109493,1,8,0:2:0:0:
270,94,109651,2,0,P|284:169|302:247,2,150,0|0|0,1:2|0:2|0:2,0:2:0:0:
408,47,110598,6,0,B|327:47|363:97|266:94,1,150,10|0,0:2|0:2,0:2:0:0:
175,41,111072,1,8,0:2:0:0:
175,41,111230,2,0,P|169:79|156:124,1,75,0|8,0:2|0:2,0:2:0:0:
121,235,111546,2,0,P|49:223|-3:285,2,150,0|0|0,1:2|0:2|0:2,0:2:0:0:
311,356,112493,6,0,B|410:382|410:382|426:362|420:328,1,150,10|0,0:2|0:2,0:2:0:0:
406,247,112967,1,8,0:2:0:0:
322,274,113125,1,0,0:2:0:0:
395,239,113282,1,8,0:2:0:0:
262,209,113440,2,0,P|245:143|219:47,2,150,0|0|0,1:2|0:2|0:2,0:2:0:0:
462,58,114388,6,0,P|406:113|336:105,1,150,10|0,0:2|0:2,0:2:0:0:
268,44,114861,1,8,0:2:0:0:
268,44,115019,2,0,P|257:79|237:127,1,75,8|0,0:2|0:2,0:2:0:0:
210,241,115335,1,0,1:2:0:0:
54,116,115651,1,8,0:2:0:0:
256,127,115967,1,8,0:2:0:0:
3,56,116282,6,0,P|26:139|47:211,1,150,14|0,0:2|0:2,0:2:0:0:
51,287,116756,1,8,0:2:0:0:
123,236,116914,1,0,0:2:0:0:
64,297,117072,1,8,0:2:0:0:
156,355,117230,2,0,P|226:371|283:326,2,150,0|0|0,1:2|0:2|0:2,0:2:0:0:
262,178,118177,6,0,B|329:190|329:190|338:199|338:199|416:215,1,150,10|0,0:2|0:2,0:2:0:0:
475,270,118651,1,8,0:2:0:0:
493,183,118809,1,0,0:2:0:0:
464,273,118967,1,8,0:2:0:0:
401,125,119125,2,0,P|431:71|526:66,2,150,0|0|0,1:2|0:2|0:2,0:2:0:0:
496,303,120072,6,0,B|409:280|437:336|337:314,1,150,10|0,0:2|0:2,0:2:0:0:
298,218,120546,1,8,0:2:0:0:
298,218,120704,2,0,P|338:226|372:235,1,75,8|0,0:2|0:2,0:2:0:0:
273,369,121019,1,0,1:2:0:0:
188,179,121335,1,0,0:2:0:0:
385,244,121651,1,0,0:2:0:0:
105,287,121967,6,0,P|58:297|9:316,1,89.9999972534181,8|0,0:2|0:2,0:2:0:0:
118,143,122282,2,0,P|108:96|89:46,1,89.9999972534181,8|0,0:2|0:2,0:2:0:0:
234,234,122598,2,0,P|278:224|320:209,1,89.9999972534181,8|0,0:2|0:2,0:2:0:0:
429,110,122914,1,4,1:2:0:0:
429,110,123230,1,0,1:2:0:0:
255,131,123388,1,0,1:2:0:0:
478,230,123546,1,0,1:2:0:0:
478,230,123861,6,0,B|387:219|413:286|301:272,1,179.999994506836,14|2,0:2|0:2,0:2:0:0:
355,106,124335,1,8,0:2:0:0:
355,106,124493,2,0,P|346:142|338:199,1,89.9999972534181,2|8,0:2|0:2,0:2:0:0:
144,242,124809,2,0,P|153:278|161:335,1,89.9999972534181,6|0,1:2|0:2,0:2:0:0:
228,156,125125,1,2,0:2:0:0:
228,156,125282,1,2,0:2:0:0:
31,143,125440,2,0,P|75:142|120:148,1,89.9999972534181,0|0,0:2|0:2,0:2:0:0:
286,288,125756,6,0,P|199:304|143:240,1,179.999994506836,10|0,0:2|0:2,0:2:0:0:
173,57,126230,2,8,P|196:129|229:236,1,179.999994506836,10|8,0:2|0:2,0:2:0:0:
423,289,126704,2,0,B|314:260|314:260|296:230|323:190,1,179.999994506836,2|0,1:2|0:2,0:2:0:0:
484,160,127177,1,2,0:2:0:0:
484,160,127335,2,0,P|438:150|392:141,1,89.9999972534181,8|0,0:2|0:2,0:2:0:0:
258,22,127651,6,0,B|298:-7|298:-7|344:48|297:121,1,179.999994506836,10|0,0:2|0:2,0:2:0:0:
120,89,128125,2,8,B|220:71|178:138|304:114,1,179.999994506836,10|0,0:2|0:2,0:2:0:0:
470,22,128598,1,2,1:2:0:0:
470,22,128914,2,0,P|458:68|451:120,1,89.9999972534181,0|0,0:2|0:2,0:2:0:0:
285,130,129230,2,0,P|297:176|304:228,1,89.9999972534181,2|0,0:2|0:2,0:2:0:0:
450,317,129546,6,0,P|400:329|362:319,1,89.9999972534181,10|0,0:2|0:2,0:2:0:0:
282,147,129861,2,0,P|332:135|370:145,1,89.9999972534181,8|0,0:2|0:2,0:2:0:0:
183,315,130177,1,10,0:2:0:0:
183,315,130493,2,0,P|112:343|53:361,1,134.999995880127,2|0,1:2|0:2,0:2:0:0:
45,360,130809,1,0,1:2:0:0:
146,222,130967,1,0,1:2:0:0:
256,366,131125,1,10,0:2:0:0:
53,273,131282,1,0,1:2:0:0:
276,276,131440,6,0,P|283:226|296:181,1,89.9999972534181,14|0,0:2|0:2,0:2:0:0:
82,189,131756,2,0,P|75:139|62:94,1,89.9999972534181,2|8,0:2|0:2,0:2:0:0:
282,64,132072,1,2,0:2:0:0:
282,64,132230,1,8,0:2:0:0:
111,20,132388,2,0,P|192:-1|270:69,1,179.999994506836,2|2,1:2|0:2,0:2:0:0:
158,180,132861,1,2,0:2:0:0:
158,180,133019,2,0,P|165:131|175:85,1,89.9999972534181,0|0,0:2|0:2,0:2:0:0:
422,108,133335,6,0,B|324:99|367:161|246:144,1,179.999994506836,10|0,0:2|0:2,0:2:0:0:
371,325,133809,2,8,B|398:196|398:196|379:212|353:218,1,179.999994506836,10|8,0:2|0:2,0:2:0:0:
128,260,134282,2,0,B|198:226|254:281|254:281|202:304,1,179.999994506836,2|0,1:2|0:2,0:2:0:0:
48,309,134756,1,0,0:2:0:0:
48,309,134914,2,0,P|35:268|41:216,1,89.9999972534181,2|0,0:2|0:2,0:2:0:0:
200,87,135230,6,0,P|189:132|178:180,1,89.9999972534181,10|0,0:2|0:2,0:2:0:0:
335,1,135546,2,0,P|346:46|357:94,1,89.9999972534181,8|0,0:2|0:2,0:2:0:0:
309,271,135861,1,8,0:2:0:0:
309,271,136019,1,0,0:2:0:0:
367,99,136177,2,0,B|418:77|418:77|466:130|422:197,1,179.999994506836,0|0,1:2|0:2,0:2:0:0:
311,185,136651,1,8,0:2:0:0:
467,275,136809,2,0,P|457:316|453:368,1,89.9999972534181,2|0,1:2|0:2,0:2:0:0:
303,198,137125,6,0,P|347:193|391:184,1,89.9999972534181,10|0,0:2|0:2,0:2:0:0:
185,127,137440,2,0,P|180:82|171:38,1,89.9999972534181,0|0,1:2|0:2,0:2:0:0:
142,263,137756,2,0,P|97:267|53:276,1,89.9999972534181,10|0,0:2|0:2,0:2:0:0:
283,339,138072,1,2,1:2:0:0:
283,339,138388,1,0,1:2:0:0:
137,240,138546,1,0,1:2:0:0:
315,108,138703,1,2,1:2:0:0:
315,108,139019,6,0,B|420:89|381:162|501:137,2,179.999994506836,14|8|8,0:2|0:2|0:2,0:2:0:0:
177,278,139967,2,8,B|72:259|111:332|-9:307,2,179.999994506836,12|10|10,0:2|0:2|0:2,0:2:0:0:
411,353,140914,5,14,0:2:0:0:
175,184,141230,1,8,0:2:0:0:
342,64,141546,1,10,0:2:0:0:
151,358,141861,5,14,0:2:0:0:
349,175,142177,1,8,0:2:0:0:
195,47,142493,1,10,0:2:0:0:
359,267,142809,6,8,P|441:324|512:289,2,179.999994506836,12|10|10,0:2|0:2|0:2,0:2:0:0:
147,166,143756,2,8,P|65:223|-6:188,2,179.999994506836,6|8|10,1:2|0:2|0:2,0:2:0:0:
358,14,144703,5,12,0:2:0:0:
64,136,145019,1,10,0:2:0:0:
364,209,145335,1,10,0:2:0:0:
74,19,145651,5,6,1:2:0:0:
399,104,145967,1,10,0:2:0:0:
165,279,146282,1,10,0:2:0:0:
300,36,146598,6,8,B|384:51|384:51|390:58|390:58|475:74,2,179.999994506836,14|8|8,0:2|0:2|0:2,0:2:0:0:
206,217,147546,2,8,B|122:232|122:232|116:239|116:239|31:255,2,179.999994506836,14|8|8,0:2|0:2|0:2,0:2:0:0:
404,329,148493,5,14,0:2:0:0:
271,95,148809,1,8,0:2:0:0:
470,217,149125,1,8,0:2:0:0:
189,363,149440,5,14,0:2:0:0:
271,114,149756,1,8,0:2:0:0:
90,253,150072,1,8,0:2:0:0:
394,337,150388,6,8,P|418:235|446:164,2,179.999994506836,14|8|8,0:2|0:2|0:2,0:2:0:0:
158,200,151335,2,8,P|134:98|106:27,2,179.999994506836,6|8|8,1:2|0:2|0:2,0:2:0:0:
417,75,152282,5,14,0:2:0:0:
237,298,152598,1,8,0:2:0:0:
271,0,152914,1,10,0:2:0:0:
462,266,153230,5,6,1:2:0:0:
462,266,153546,1,10,0:2:0:0:
292,132,153703,1,0,1:2:0:0:
493,175,153861,1,10,0:2:0:0:
322,295,154019,1,0,1:2:0:0:
428,76,154177,5,12,0:2:0:0:
428,76,154493,2,0,P|420:111|414:166,1,89.9999972534181,10|0,0:2|0:2,0:2:0:0:
210,21,154809,2,0,P|218:56|224:111,1,89.9999972534181,10|0,0:2|0:2,0:2:0:0:
334,350,155125,2,0,B|351:250|293:279|306:173,2,179.999994506836,6|8|10,1:2|0:2|0:2,0:2:0:0:
48,184,156072,5,12,0:2:0:0:
48,184,156388,2,0,P|36:224|20:284,1,89.9999972534181,10|0,0:2|0:2,0:2:0:0:
162,22,156703,2,0,P|174:62|190:122,1,89.9999972534181,10|0,0:2|0:2,0:2:0:0:
177,325,157019,2,0,P|249:382|344:272,2,179.999994506836,6|8|10,1:2|0:2|0:2,0:2:0:0:
368,134,157967,5,14,0:2:0:0:
93,232,158282,1,8,0:2:0:0:
338,342,158598,1,8,0:2:0:0:
145,82,158914,5,14,0:2:0:0:
446,163,159230,1,8,0:2:0:0:
258,304,159546,1,10,0:2:0:0:
390,6,159861,5,14,0:2:0:0:
68,144,160177,1,12,0:2:0:0:
408,276,160493,1,12,0:2:0:0:
95,2,160809,5,14,0:2:0:0:
95,2,161756,6,0,P|173:78|242:51,1,179.999994506836,12|0,0:2|0:2,0:2:0:0:
348,11,162230,1,8,0:2:0:0:
348,11,162388,2,0,P|335:51|324:108,1,89.9999972534181,0|8,0:2|0:2,0:2:0:0:
158,173,162703,1,4,1:2:0:0:
158,173,163019,2,0,P|203:162|249:178,1,89.9999972534181,0|0,0:2|0:2,0:2:0:0:
130,356,163335,2,0,P|85:367|39:351,1,89.9999972534181,8|0,0:2|0:2,0:2:0:0:
201,262,163651,6,0,B|289:297|286:221|379:256,1,179.999994506836,8|0,0:2|0:2,0:2:0:0:
438,368,164125,2,8,P|457:280|478:186,1,179.999994506836,8|8,0:2|0:2,0:2:0:0:
274,131,164598,2,0,P|366:152|420:87,1,179.999994506836,4|0,1:2|0:2,0:2:0:0:
262,26,165072,1,8,0:2:0:0:
262,26,165230,2,0,P|221:41|168:57,1,89.9999972534181,8|0,0:2|0:2,0:2:0:0:
6,145,165546,6,0,B|123:172|123:172|130:206|95:236,1,179.999994506836,8|0,0:2|0:2,0:2:0:0:
49,354,166019,2,8,P|117:270|186:284,1,179.999994506836,8|8,0:2|0:2,0:2:0:0:
338,363,166493,1,4,1:2:0:0:
338,363,166809,2,0,P|323:320|329:272,1,89.9999972534181,0|0,0:2|0:2,0:2:0:0:
472,139,167125,2,0,P|487:182|481:230,1,89.9999972534181,8|0,0:2|0:2,0:2:0:0:
295,182,167440,6,0,P|225:164|153:144,1,134.999995880127,8|0,0:2|0:2,0:2:0:0:
154,144,167756,1,8,0:2:0:0:
10,303,167914,2,0,B|73:283|73:283|82:288|82:288|139:271,1,134.999995880127,0|0,1:2|0:2,0:2:0:0:
151,268,168230,1,8,0:2:0:0:
366,366,168388,2,0,P|300:373|254:317,1,134.999995880127,2|0,1:2|0:2,0:2:0:0:
253,314,168703,1,0,1:2:0:0:
459,244,168861,1,0,1:2:0:0:
283,172,169019,2,0,P|296:217|304:265,1,89.9999972534181,0|0,1:2|0:2,0:2:0:0:
173,360,169335,6,0,P|93:376|37:292,1,179.999994506836,14|0,0:2|0:2,0:2:0:0:
142,130,169809,2,8,B|158:231|95:191|122:313,1,179.999994506836,8|8,0:2|0:2,0:2:0:0:
74,70,170282,1,4,1:2:0:0:
74,70,170598,2,0,P|56:106|59:162,1,89.9999972534181,0|0,0:2|0:2,0:2:0:0:
206,266,170914,2,0,P|224:225|223:181,1,89.9999972534181,0|0,0:2|0:2,0:2:0:0:
89,75,171230,6,0,B|175:60|175:60|185:67|185:67|267:52,1,179.999994506836,8|0,0:2|0:2,0:2:0:0:
413,41,171703,2,8,B|370:21|370:21|310:81|387:160,1,179.999994506836,8|8,0:2|0:2,0:2:0:0:
502,263,172177,1,0,1:2:0:0:
502,263,172493,2,0,P|493:302|481:357,1,89.9999972534181,0|0,0:2|0:2,0:2:0:0:
314,200,172809,2,0,P|323:239|335:294,1,89.9999972534181,0|0,0:2|0:2,0:2:0:0:
492,78,173125,6,0,B|386:47|419:115|303:88,1,179.999994506836,8|0,0:2|0:2,0:2:0:0:
184,67,173598,2,8,P|275:44|365:15,1,179.999994506836,8|8,0:2|0:2,0:2:0:0:
388,222,174072,1,0,1:2:0:0:
388,222,174388,2,0,P|372:261|358:312,1,89.9999972534181,0|0,0:2|0:2,0:2:0:0:
181,142,174703,2,0,P|197:181|211:232,1,89.9999972534181,0|0,0:2|0:2,0:2:0:0:
38,354,175019,6,0,B|106:380|148:327|148:327|132:326,1,134.999995880127,12|0,0:2|0:2,0:2:0:0:
71,212,175335,2,0,B|149:202|121:247|214:232,1,134.999995880127,12|0,0:2|0:2,0:2:0:0:
208,78,175651,2,0,B|154:66|154:66|186:157,1,134.999995880127,12|0,0:2|0:2,0:2:0:0:
184,153,175967,5,14,0:2:0:0:
184,153,176914,6,0,P|232:155|269:131,1,89.9999972534181,10|0,0:2|0:2,0:2:0:0:
303,60,177388,1,8,0:2:0:0:
303,60,177546,1,8,0:2:0:0:
370,202,177861,1,0,1:2:0:0:
370,202,178809,6,0,B|427:195|416:218|466:214,2,89.9999972534181,10|0|8,0:2|0:2|0:2,0:2:0:0:
327,355,179756,1,0,1:2:0:0:
327,355,180703,6,0,P|276:344|234:334,1,89.9999972534181,10|0,0:2|0:2,0:2:0:0:
159,312,181177,1,8,0:2:0:0:
159,312,181335,1,8,0:2:0:0:
20,382,181651,1,0,1:2:0:0:
20,382,182598,6,0,P|62:370|108:357,2,89.9999972534181,10|0|8,0:2|0:2|0:2,0:2:0:0:
65,200,183546,1,0,1:2:0:0:
168,225,183861,2,0,B|137:231|137:231|74:212,1,89.9999972534181,0|0,0:2|0:2,0:2:0:0:
16,111,184493,6,0,P|56:91|103:98,1,89.9999972534181,10|0,0:2|0:2,0:2:0:0:
171,149,184967,1,8,0:2:0:0:
171,149,185125,1,8,0:2:0:0:
259,18,185440,1,0,1:2:0:0:
259,18,186388,6,0,B|292:7|322:17|322:17|356:4,2,89.9999972534181,10|0|8,0:2|0:2|0:2,0:2:0:0:
105,74,187335,1,0,1:2:0:0:
191,98,187651,2,0,P|150:86|88:70,1,89.9999972534181,0|0,0:2|0:2,0:2:0:0:
23,200,188282,6,0,B|81:205|59:187|119:196,1,89.9999972534181,10|0,0:2|0:2,0:2:0:0:
180,257,188756,1,8,0:2:0:0:
180,257,188914,1,8,0:2:0:0:
305,130,189230,1,0,1:2:0:0:
305,130,190177,6,0,P|290:79|275:39,2,89.9999972534181,10|0|8,0:2|0:2|0:2,0:2:0:0:
482,120,191125,1,0,1:2:0:0:
449,222,191440,2,0,B|465:194|465:194|479:130,1,89.9999972534181,0|0,0:2|0:2,0:2:0:0:
331,317,192072,6,8,P|391:315|441:362,2,120,14|8|10,0:2|0:2|0:2,0:2:0:0:
176,228,193019,2,8,P|116:226|66:273,2,120,10|8|10,0:2|0:2|0:2,0:2:0:0:
208,359,193967,5,10,0:2:0:0:
208,359,194282,1,8,0:2:0:0:
208,359,194598,1,8,0:2:0:0:
105,379,194914,5,10,0:2:0:0:
186,243,195230,1,8,0:2:0:0:
308,341,195546,1,10,0:2:0:0:
174,232,195861,6,0,B|114:219|127:262|47:240,2,120,10|8|10,0:2|0:2|0:2,0:2:0:0:
343,165,196809,2,8,B|403:152|390:195|470:173,2,120,10|8|10,0:2|0:2|0:2,0:2:0:0:
196,133,197756,5,10,0:2:0:0:
202,131,198072,1,8,0:2:0:0:
197,126,198388,1,10,0:2:0:0:
295,85,198703,5,10,0:2:0:0:
141,31,199019,1,8,0:2:0:0:
81,182,199335,1,10,0:2:0:0:
343,182,199651,6,8,B|408:172|408:172|424:179|424:179|494:168,2,150,6|8|10,1:2|0:2|0:2,0:2:0:0:
161,101,200598,2,8,B|96:91|96:91|80:98|80:98|10:87,2,150,10|8|10,0:2|0:2|0:2,0:2:0:0:
350,60,201546,5,10,0:2:0:0:
364,57,201861,1,8,0:2:0:0:
346,40,202177,1,0,1:2:0:0:
265,56,202493,5,2,1:2:0:0:
252,147,202809,1,0,1:2:0:0:
349,218,203125,1,2,1:2:0:0:
478,189,203440,5,2,1:2:0:0:
292,75,203756,1,0,1:2:0:0:
396,302,204072,1,2,1:2:0:0:
415,52,204388,5,2,1:2:0:0:
201,193,204703,1,0,1:2:0:0:
473,262,205019,1,2,1:2:0:0:
245,64,205335,5,2,1:2:0:0:
315,357,205651,1,0,1:2:0:0:
510,124,205967,1,2,1:2:0:0:
190,211,206282,6,0,P|202:260|214:325,1,112.499996566773,2|0,1:2|0:2,0:2:0:0:
218,329,207230,6,0,B|324:340|276:271|395:277,1,179.999994506836,14|2,0:2|0:2,0:2:0:0:
456,377,207703,1,8,0:2:0:0:
456,377,207861,2,0,P|414:371|363:357,1,89.9999972534181,2|8,0:2|0:2,0:2:0:0:
496,173,208177,1,2,1:2:0:0:
496,173,208493,2,0,P|486:210|474:266,1,89.9999972534181,2|0,0:2|0:2,0:2:0:0:
351,48,208809,2,0,P|361:85|373:141,1,89.9999972534181,2|0,0:2|0:2,0:2:0:0:
288,221,209125,6,0,P|216:233|154:149,1,179.999994506836,10|0,0:2|0:2,0:2:0:0:
265,27,209598,1,8,0:2:0:0:
265,27,209756,2,0,P|216:39|175:52,1,89.9999972534181,2|8,0:2|0:2,0:2:0:0:
30,163,210072,1,2,1:2:0:0:
30,163,210388,2,0,P|43:205|55:274,1,89.9999972534181,0|0,0:2|0:2,0:2:0:0:
190,59,210703,2,0,P|177:101|165:170,1,89.9999972534181,2|0,0:2|0:2,0:2:0:0:
136,316,211019,6,0,B|230:288|316:267,1,179.999994506836,10|0,0:2|0:2,0:2:0:0:
439,374,211493,1,8,0:2:0:0:
439,374,211651,2,0,P|399:359|350:349,1,89.9999972534181,2|8,0:2|0:2,0:2:0:0:
414,157,211967,1,0,1:2:0:0:
414,157,212282,2,0,P|407:200|396:253,1,89.9999972534181,0|0,0:2|0:2,0:2:0:0:
279,39,212598,2,0,P|286:82|297:135,1,89.9999972534181,2|0,0:2|0:2,0:2:0:0:
165,163,212914,6,0,P|67:163|23:91,1,179.999994506836,10|0,0:2|0:2,0:2:0:0:
163,0,213388,1,8,0:2:0:0:
163,0,213546,2,0,P|153:41|141:101,1,89.9999972534181,2|8,0:2|0:2,0:2:0:0:
89,277,213861,1,2,1:2:0:0:
89,277,214177,1,8,0:2:0:0:
268,186,214335,1,0,1:2:0:0:
134,353,214493,1,2,1:2:0:0:
113,135,214651,1,0,1:2:0:0:
296,279,214809,6,0,B|401:308|401:308|429:276|421:237,1,179.999994506836,14|0,0:2|0:2,0:2:0:0:
341,107,215282,1,8,0:2:0:0:
341,107,215440,2,0,P|328:151|343:204,1,89.9999972534181,0|8,0:2|0:2,0:2:0:0:
493,37,215756,1,2,1:2:0:0:
493,37,216072,2,0,P|487:76|480:138,1,89.9999972534181,2|0,0:2|0:2,0:2:0:0:
307,7,216388,2,0,P|313:46|320:108,1,89.9999972534181,10|0,0:2|0:2,0:2:0:0:
469,214,216703,6,0,B|374:197|406:264|292:237,1,179.999994506836,10|0,0:2|0:2,0:2:0:0:
203,123,217177,1,10,0:2:0:0:
203,123,217335,2,0,P|217:166|223:216,1,89.9999972534181,0|8,0:2|0:2,0:2:0:0:
140,368,217651,1,2,1:2:0:0:
140,368,217967,2,0,P|187:373|230:354,1,89.9999972534181,0|2,0:2|0:2,0:2:0:0:
103,190,218282,2,0,P|56:185|13:204,1,89.9999972534181,0|0,0:2|0:2,0:2:0:0:
172,292,218598,6,0,B|264:250|261:317|353:284,1,179.999994506836,10|0,0:2|0:2,0:2:0:0:
452,229,219072,1,8,0:2:0:0:
452,229,219230,2,0,P|442:266|430:320,1,89.9999972534181,2|8,0:2|0:2,0:2:0:0:
279,116,219546,1,0,1:2:0:0:
279,116,219861,2,0,P|291:152|301:205,1,89.9999972534181,0|0,0:2|0:2,0:2:0:0:
417,10,220177,2,0,P|405:46|395:99,1,89.9999972534181,0|0,0:2|0:2,0:2:0:0:
479,239,220493,6,0,P|433:247|382:256,1,89.9999972534181,10|0,0:2|0:2,0:2:0:0:
227,359,220809,1,0,1:2:0:0:
227,359,221125,1,10,0:2:0:0:
227,359,221440,1,2,1:2:0:0:
148,182,221598,1,0,1:2:0:0:
319,324,221756,1,0,1:2:0:0:
89,278,221914,1,0,1:2:0:0:
288,146,222072,1,2,1:2:0:0:
288,146,222388,6,0,P|230:81|135:97,1,179.999994506836,14|2,0:2|0:2,0:2:0:0:
48,211,222861,1,8,0:2:0:0:
48,211,223019,2,0,P|97:197|141:189,1,89.9999972534181,2|8,0:2|0:2,0:2:0:0:
332,311,223335,2,0,P|283:297|239:289,1,89.9999972534181,6|0,1:2|0:2,0:2:0:0:
102,359,223651,1,2,0:2:0:0:
102,359,223809,1,2,0:2:0:0:
143,184,223967,2,0,P|154:225|162:277,1,89.9999972534181,0|0,0:2|0:2,0:2:0:0:
0,325,224282,6,0,P|90:301|182:274,1,179.999994506836,10|0,0:2|0:2,0:2:0:0:
304,363,224756,1,10,0:2:0:0:
304,363,224914,2,0,P|318:316|302:268,1,89.9999972534181,0|8,0:2|0:2,0:2:0:0:
220,116,225230,2,0,P|206:163|222:211,1,89.9999972534181,2|0,1:2|0:2,0:2:0:0:
328,171,225546,1,0,0:2:0:0:
328,171,225703,1,2,0:2:0:0:
245,316,225861,2,0,P|200:323|156:332,1,89.9999972534181,0|0,0:2|0:2,0:2:0:0:
12,194,226177,6,0,P|70:165|141:244,1,179.999994506836,10|0,0:2|0:2,0:2:0:0:
0,325,226651,1,10,0:2:0:0:
0,325,226809,2,0,P|50:310|95:295,1,89.9999972534181,0|8,0:2|0:2,0:2:0:0:
8,101,227125,1,2,1:2:0:0:
8,101,227440,2,0,P|-7:144|17:202,1,89.9999972534181,0|0,0:2|0:2,0:2:0:0:
202,86,227756,2,0,P|217:43|193:-15,1,89.9999972534181,2|0,0:2|0:2,0:2:0:0:
80,145,228072,6,0,B|175:122|155:200|262:160,1,179.999994506836,10|0,0:2|0:2,0:2:0:0:
381,104,228546,1,8,0:2:0:0:
381,104,228703,2,0,P|339:100|289:84,1,89.9999972534181,2|8,0:2|0:2,0:2:0:0:
347,301,229019,1,2,1:2:0:0:
347,301,229335,1,0,1:2:0:0:
476,234,229493,1,0,1:2:0:0:
253,178,229651,1,2,1:2:0:0:
253,178,229967,6,0,B|201:163|201:163|152:212|191:283,1,179.999994506836,14|2,0:2|0:2,0:2:0:0:
353,298,230440,1,8,0:2:0:0:
353,298,230598,2,0,P|366:340|358:385,1,89.9999972534181,2|8,0:2|0:2,0:2:0:0:
101,316,230914,2,0,P|203:335|282:347,1,179.999994506836,6|2,1:2|0:2,0:2:0:0:
356,217,231388,1,2,0:2:0:0:
356,217,231546,2,0,P|314:230|268:241,1,89.9999972534181,0|0,0:2|0:2,0:2:0:0:
49,127,231861,6,0,P|102:194|186:178,1,179.999994506836,10|0,0:2|0:2,0:2:0:0:
158,34,232335,1,10,0:2:0:0:
158,34,232493,2,0,P|144:71|130:126,1,89.9999972534181,0|8,0:2|0:2,0:2:0:0:
340,234,232809,1,2,1:2:0:0:
340,234,233125,2,0,P|303:244|253:234,1,89.9999972534181,0|0,0:2|0:2,0:2:0:0:
362,59,233440,2,0,P|399:49|449:59,1,89.9999972534181,2|0,0:2|0:2,0:2:0:0:
370,321,233756,6,0,P|387:225|402:140,1,179.999994506836,14|0,0:2|0:2,0:2:0:0:
270,32,234230,1,8,0:2:0:0:
270,32,234388,2,0,P|283:79|298:127,1,89.9999972534181,0|8,0:2|0:2,0:2:0:0:
508,138,234703,1,0,1:2:0:0:
508,138,235019,2,0,P|495:185|480:233,1,89.9999972534181,8|0,0:2|0:2,0:2:0:0:
439,380,235335,1,2,1:2:0:0:
439,380,235651,6,0,B|405:328|351:319|306:350|306:350|263:380|186:388|131:295|169:220|259:184|310:257,1,449.99998626709,14|0,0:2|0:2,0:2:0:0:
393,260,236598,6,0,B|230:244|278:349|99:316,1,300,14|0,0:2|0:2,0:2:0:0:
11,287,237546,22,0,B|46:248|46:248|50:245|50:245|78:219|87:200|87:200|130:182|160:207|137:247|103:239|87:201|87:201|188:87|308:1|308:1|306:9|306:9|306:170|384:231|384:231|409:251|456:269|497:259|538:224|516:150|450:131|407:166|436:276|424:255|429:297|385:312,1,1125,14|0,0:2|0:2,0:2:0:0:
