osu file format v14

[General]
AudioFilename: audio.mp3
AudioLeadIn: 0
PreviewTime: 207141
Countdown: 0
SampleSet: Drum
StackLeniency: 0.7
Mode: 0
LetterboxInBreaks: 0
EpilepsyWarning: 1
WidescreenStoryboard: 1

[Editor]
Bookmarks: 60668,118141,237510
DistanceSpacing: 0.8
BeatDivisor: 6
GridSize: 32
TimelineZoom: 1.8

[Metadata]
Title:Line Without a Hook
TitleUnicode:Line Without a Hook
Artist:Ricky Montgomery
ArtistUnicode:Ricky Montgomery
Creator:pdet
Version:Min's Light Insane
Source:
Tags:Lian2002 lian -lian- - Clubber - clubber minnin English li syaoran Min SleepyLegosi Legosi fa featured artist indie soft rock The honeysticks
BeatmapID:2674068
BeatmapSetID:1286918

[Difficulty]
HPDrainRate:5
CircleSize:4
OverallDifficulty:7.4
ApproachRate:8.7
SliderMultiplier:1.6
SliderTickRate:1

[Events]
//Background and Video events
0,0,"bg.jpg",0,0
//Break Periods
2,48236,60609
//Storyboard Layer 0 (Background)
//Storyboard Layer 1 (Fail)
//Storyboard Layer 2 (Pass)
//Storyboard Layer 3 (Foreground)
Sprite,Foreground,Centre,"sb\light01.png",320,240 M,0,2562,2615,406.6906,265.0182,410.7633,236.5091 F,0,2562,2720,0,1 F,0,2562,2957,0,1 S,1,2562,2957,0.5287274,1.290909 F,0,2720,3193,1,0 F,0,2957,3193,1,0 F,0,3193,,1 F,0,3193,,0
Sprite,Foreground,Centre,"sb\light01.png",320,240 M,0,17720,,448.5816,60.21819 F,0,17720,17878,0,1 F,0,17720,18115,0,1 S,1,17720,18115,0.5287274,1.290909 F,0,17878,18351,1,0 F,0,18115,18351,1,0 F,0,18351,,1 F,0,18351,,0
Sprite,Foreground,Centre,"sb\light01.png",320,240 M,0,34773,,506.1816,380.8 F,0,34773,34931,0,1 F,0,34773,35168,0,1 S,1,34773,35168,0.5287274,1.290909 F,0,34931,35404,1,0 F,0,35168,35404,1,0 F,0,35404,,1 F,0,35404,,0
Sprite,Foreground,Centre,"sb\light01.png",320,240 M,0,36668,,235.0543,337.1636 F,0,36668,36826,0,1 F,0,36668,37063,0,1 S,1,36668,37063,0.5287274,1.290909 F,0,36826,37299,1,0 F,0,37063,37299,1,0 F,0,37299,,1 F,0,37299,,0
Sprite,Foreground,Centre,"sb\light01.png",320,240 M,0,32878,,166.9815,285.9636 F,0,32878,33036,0,1 F,0,32878,33273,0,1 S,1,32878,33273,0.5287274,1.290909 F,0,33036,33509,1,0 F,0,33273,33509,1,0 F,0,33509,,1 F,0,33509,,0
Sprite,Foreground,Centre,"sb\light01.png",320,240 M,0,40457,,411.3452,393.0182 F,0,40457,40615,0,1 F,0,40457,40852,0,1 S,1,40457,40852,0.5287274,1.290909 F,0,40615,41088,1,0 F,0,40852,41088,1,0 F,0,41088,,1 F,0,41088,,0
Sprite,Foreground,Centre,"sb\light01.png",320,240 M,0,44246,,86.10882,177.1636 F,0,44246,44404,0,1 F,0,44246,44641,0,1 S,1,44246,44641,0.5287274,1.290909 F,0,44404,44877,1,0 F,0,44641,44877,1,0 F,0,44877,,1 F,0,44877,,0
Sprite,Foreground,Centre,"sb\light01.png",320,240 M,0,42352,,235.6361,395.3455 F,0,42352,42510,0,1 F,0,42352,42747,0,1 S,1,42352,42747,0.5287274,1.290909 F,0,42510,42983,1,0 F,0,42747,42983,1,0 F,0,42983,,1 F,0,42983,,0
Sprite,Foreground,Centre,"sb\light01.png",320,240 M,0,61931,,339.7815,351.1273 F,0,61931,62089,0,1 F,0,61931,62326,0,1 S,1,61931,62326,0.5287274,1.290909 F,0,62089,62562,1,0 F,0,62326,62562,1,0 F,0,62562,,1 F,0,62562,,0
Sprite,Foreground,Centre,"sb\light01.png",320,240 M,0,61615,,212.9452,374.4 F,0,61615,61773,0,1 F,0,61615,62010,0,1 S,1,61615,62010,0.5287274,1.290909 F,0,61773,62246,1,0 F,0,62010,62246,1,0 F,0,62246,,1 F,0,62246,,0
Sprite,Foreground,Centre,"sb\light01.png",320,240 M,0,63194,,217.0179,152.7273 F,0,63194,63352,0,1 F,0,63194,63589,0,1 S,1,63194,63589,0.5287274,1.290909 F,0,63352,63825,1,0 F,0,63589,63825,1,0 F,0,63825,,1 F,0,63825,,0
Sprite,Foreground,Centre,"sb\light01.png",320,240 M,0,62246,,93.67244,387.2 F,0,62246,62404,0,1 F,0,62246,62641,0,1 S,1,62246,62641,0.5287274,1.290909 F,0,62404,62877,1,0 F,0,62641,62877,1,0 F,0,62877,,1 F,0,62877,,0
Sprite,Foreground,Centre,"sb\light01.png",320,240 M,0,61299,,88.43608,406.4 F,0,61299,61457,0,1 F,0,61299,61694,0,1 S,1,61299,61694,0.5287274,1.290909 F,0,61457,61930,1,0 F,0,61694,61930,1,0 F,0,61930,,1 F,0,61930,,0
Sprite,Foreground,Centre,"sb\light01.png",320,240 M,0,76457,,513.7451,212.0728 F,0,76457,76615,0,1 F,0,76457,76852,0,1 S,1,76457,76852,0.5287274,1.290909 F,0,76615,77088,1,0 F,0,76852,77088,1,0 F,0,77088,,1 F,0,77088,,0
Sprite,Foreground,Centre,"sb\light01.png",320,240 M,0,77404,,329.3088,418.0363 F,0,77404,77562,0,1 F,0,77404,77799,0,1 S,1,77404,77799,0.5287274,1.290909 F,0,77562,78035,1,0 F,0,77799,78035,1,0 F,0,78035,,1 F,0,78035,,0
Sprite,Foreground,Centre,"sb\light01.png",320,240 M,0,78352,,218.1816,176.5818 F,0,78352,78510,0,1 F,0,78352,78747,0,1 S,1,78352,78747,0.5287274,1.290909 F,0,78510,78983,1,0 F,0,78747,78983,1,0 F,0,78983,,1 F,0,78983,,0
Sprite,Foreground,Centre,"sb\light01.png",320,240 M,0,84036,,105.8906,128.8727 F,0,84036,84194,0,1 F,0,84036,84431,0,1 S,1,84036,84431,0.5287274,1.290909 F,0,84194,84667,1,0 F,0,84431,84667,1,0 F,0,84667,,1 F,0,84667,,0
Sprite,Foreground,Centre,"sb\light01.png",320,240 M,0,84352,,235.0542,68.36362 F,0,84352,84510,0,1 F,0,84352,84747,0,1 S,1,84352,84747,0.5287274,1.290909 F,0,84510,84983,1,0 F,0,84747,84983,1,0 F,0,84983,,1 F,0,84983,,0
Sprite,Foreground,Centre,"sb\light01.png",320,240 M,0,84668,,230.9815,278.9819 F,0,84668,84826,0,1 F,0,84668,85063,0,1 S,1,84668,85063,0.5287274,1.290909 F,0,84826,85299,1,0 F,0,85063,85299,1,0 F,0,85299,,1 F,0,85299,,0
Sprite,Foreground,Centre,"sb\light01.png",320,240 M,0,84983,,115.7815,219.6364 F,0,84983,85141,0,1 F,0,84983,85378,0,1 S,1,84983,85378,0.5287274,1.290909 F,0,85141,85614,1,0 F,0,85378,85614,1,0 F,0,85614,,1 F,0,85614,,0
Sprite,Foreground,Centre,"sb\light01.png",320,240 M,0,85931,,428.7997,278.4 F,0,85931,86089,0,1 F,0,85931,86326,0,1 S,1,85931,86326,0.5287274,1.290909 F,0,86089,86562,1,0 F,0,86326,86562,1,0 F,0,86562,,1 F,0,86562,,0
Sprite,Foreground,Centre,"sb\light01.png",320,240 M,0,93510,,147.1997,231.2727 F,0,93510,93668,0,1 F,0,93510,93905,0,1 S,1,93510,93905,0.5287274,1.290909 F,0,93668,94141,1,0 F,0,93905,94141,1,0 F,0,94141,,1 F,0,94141,,0
Sprite,Foreground,Centre,"sb\light01.png",320,240 M,0,94457,,205.9633,209.1636 F,0,94457,94615,0,1 F,0,94457,94852,0,1 S,1,94457,94852,0.5287274,1.290909 F,0,94615,95088,1,0 F,0,94852,95088,1,0 F,0,95088,,1 F,0,95088,,0
Sprite,Foreground,Centre,"sb\light01.png",320,240 M,0,95404,,322.9088,280.1455 F,0,95404,95562,0,1 F,0,95404,95799,0,1 S,1,95404,95799,0.5287274,1.290909 F,0,95562,96035,1,0 F,0,95799,96035,1,0 F,0,96035,,1 F,0,96035,,0
Sprite,Foreground,Centre,"sb\light01.png",320,240 M,0,96352,,381.6724,305.1636 F,0,96352,96510,0,1 F,0,96352,96747,0,1 S,1,96352,96747,0.5287274,1.290909 F,0,96510,96983,1,0 F,0,96747,96983,1,0 F,0,96983,,1 F,0,96983,,0
Sprite,Foreground,Centre,"sb\light01.png",320,240 M,0,97299,,115.7815,360.4363 F,0,97299,97457,0,1 F,0,97299,97694,0,1 S,1,97299,97694,0.5287274,1.290909 F,0,97457,97930,1,0 F,0,97694,97930,1,0 F,0,97930,,1 F,0,97930,,0
Sprite,Foreground,Centre,"sb\light01.png",320,240 M,0,101089,,219.3451,326.1091 F,0,101089,101247,0,1 F,0,101089,101484,0,1 S,1,101089,101484,0.5287274,1.290909 F,0,101247,101720,1,0 F,0,101484,101720,1,0 F,0,101720,,1 F,0,101720,,0
Sprite,Foreground,Centre,"sb\light01.png",320,240 M,0,102983,,94.25424,54.39999 F,0,102983,103141,0,1 F,0,102983,103378,0,1 S,1,102983,103378,0.5287274,1.290909 F,0,103141,103614,1,0 F,0,103378,103614,1,0 F,0,103614,,1 F,0,103614,,0
Sprite,Foreground,Centre,"sb\light01.png",320,240 M,0,104878,,244.9451,319.709 F,0,104878,105036,0,1 F,0,104878,105273,0,1 S,1,104878,105273,0.5287274,1.290909 F,0,105036,105509,1,0 F,0,105273,105509,1,0 F,0,105509,,1 F,0,105509,,0
Sprite,Foreground,Centre,"sb\light01.png",320,240 M,0,108668,,151.8542,310.9818 F,0,108668,108826,0,1 F,0,108668,109063,0,1 S,1,108668,109063,0.5287274,1.290909 F,0,108826,109299,1,0 F,0,109063,109299,1,0 F,0,109299,,1 F,0,109299,,0
Sprite,Foreground,Centre,"sb\light01.png",320,240 M,0,121931,,383.4178,111.4182 F,0,121931,122089,0,1 F,0,121931,122326,0,1 S,1,121931,122326,0.5287274,1.290909 F,0,122089,122562,1,0 F,0,122326,122562,1,0 F,0,122562,,1 F,0,122562,,0
Sprite,Foreground,Centre,"sb\light01.png",320,240 M,0,122246,,307.7814,131.2 F,0,122246,122404,0,1 F,0,122246,122641,0,1 S,1,122246,122641,0.5287274,1.290909 F,0,122404,122877,1,0 F,0,122641,122877,1,0 F,0,122877,,1 F,0,122877,,0
Sprite,Foreground,Centre,"sb\light01.png",320,240 M,0,122562,,232.7269,93.38182 F,0,122562,122720,0,1 F,0,122562,122957,0,1 S,1,122562,122957,0.5287274,1.290909 F,0,122720,123193,1,0 F,0,122957,123193,1,0 F,0,123193,,1 F,0,123193,,0
Sprite,Foreground,Centre,"sb\light01.png",320,240 M,0,122878,,458.4724,253.9636 F,0,122878,123036,0,1 F,0,122878,123273,0,1 S,1,122878,123273,0.5287274,1.290909 F,0,123036,123509,1,0 F,0,123273,123509,1,0 F,0,123509,,1 F,0,123509,,0
Sprite,Foreground,Centre,"sb\light01.png",320,240 M,0,123825,,200.7269,356.3636 F,0,123825,123983,0,1 F,0,123825,124220,0,1 S,1,123825,124220,0.5287274,1.290909 F,0,123983,124456,1,0 F,0,124220,124456,1,0 F,0,124456,,1 F,0,124456,,0
Sprite,Foreground,Centre,"sb\light01.png",320,240 M,0,138983,,482.9088,75.92722 F,0,138983,139141,0,1 F,0,138983,139378,0,1 S,1,138983,139378,0.5287274,1.290909 F,0,139141,139614,1,0 F,0,139378,139614,1,0 F,0,139614,,1 F,0,139614,,0
Sprite,Foreground,Centre,"sb\light01.png",320,240 M,0,139931,,355.4906,330.7636 F,0,139931,140089,0,1 F,0,139931,140326,0,1 S,1,139931,140326,0.5287274,1.290909 F,0,140089,140562,1,0 F,0,140326,140562,1,0 F,0,140562,,1 F,0,140562,,0
Sprite,Foreground,Centre,"sb\light01.png",320,240 M,0,140878,,239.1269,66.03633 F,0,140878,141036,0,1 F,0,140878,141273,0,1 S,1,140878,141273,0.5287274,1.290909 F,0,141036,141509,1,0 F,0,141273,141509,1,0 F,0,141509,,1 F,0,141509,,0
Sprite,Foreground,Centre,"sb\light01.png",320,240 M,0,141825,,109.9633,320.8727 F,0,141825,141983,0,1 F,0,141825,142220,0,1 S,1,141825,142220,0.5287274,1.290909 F,0,141983,142456,1,0 F,0,142220,142456,1,0 F,0,142456,,1 F,0,142456,,0
Sprite,Foreground,Centre,"sb\light01.png",320,240 M,0,143720,,348.5088,255.1273 F,0,143720,143878,0,1 F,0,143720,144115,0,1 S,1,143720,144115,0.5287274,1.290909 F,0,143878,144351,1,0 F,0,144115,144351,1,0 F,0,144351,,1 F,0,144351,,0
Sprite,Foreground,Centre,"sb\light01.png",320,240 M,0,142773,,312.436,351.7091 F,0,142773,142931,0,1 F,0,142773,143168,0,1 S,1,142773,143168,0.5287274,1.290909 F,0,142931,143404,1,0 F,0,143168,143404,1,0 F,0,143404,,1 F,0,143404,,0
Sprite,Foreground,Centre,"sb\light01.png",320,240 M,0,144668,,289.1633,138.7636 F,0,144668,144826,0,1 F,0,144668,145063,0,1 S,1,144668,145063,0.5287274,1.290909 F,0,144826,145299,1,0 F,0,145063,145299,1,0 F,0,145299,,1 F,0,145299,,0
Sprite,Foreground,Centre,"sb\light01.png",320,240 M,0,145615,,411.9269,306.3273 F,0,145615,145773,0,1 F,0,145615,146010,0,1 S,1,145615,146010,0.5287274,1.290909 F,0,145773,146246,1,0 F,0,146010,146246,1,0 F,0,146246,,1 F,0,146246,,0
Sprite,Foreground,Centre,"sb\light01.png",320,240 M,0,146562,,214.6906,418.0364 F,0,146562,146720,0,1 F,0,146562,146957,0,1 S,1,146562,146957,0.5287274,1.290909 F,0,146720,147193,1,0 F,0,146957,147193,1,0 F,0,147193,,1 F,0,147193,,0
Sprite,Foreground,Centre,"sb\light01.png",320,240 M,0,147510,,445.0906,294.691 F,0,147510,147668,0,1 F,0,147510,147905,0,1 S,1,147510,147905,0.5287274,1.290909 F,0,147668,148141,1,0 F,0,147905,148141,1,0 F,0,148141,,1 F,0,148141,,0
Sprite,Foreground,Centre,"sb\light01.png",320,240 M,0,148457,,166.3997,189.3819 F,0,148457,148615,0,1 F,0,148457,148852,0,1 S,1,148457,148852,0.5287274,1.290909 F,0,148615,149088,1,0 F,0,148852,149088,1,0 F,0,149088,,1 F,0,149088,,0
Sprite,Foreground,Centre,"sb\light01.png",320,240 M,0,149404,,302.5451,393.0182 F,0,149404,149562,0,1 F,0,149404,149799,0,1 S,1,149404,149799,0.5287274,1.290909 F,0,149562,150035,1,0 F,0,149799,150035,1,0 F,0,150035,,1 F,0,150035,,0
Sprite,Foreground,Centre,"sb\light01.png",320,240 M,0,150352,,578.9087,232.4364 F,0,150352,150510,0,1 F,0,150352,150747,0,1 S,1,150352,150747,0.5287274,1.290909 F,0,150510,150983,1,0 F,0,150747,150983,1,0 F,0,150983,,1 F,0,150983,,0
Sprite,Foreground,Centre,"sb\light01.png",320,240 M,0,151299,,264.1451,92.21822 F,0,151299,151457,0,1 F,0,151299,151694,0,1 S,1,151299,151694,0.5287274,1.290909 F,0,151457,151930,1,0 F,0,151694,151930,1,0 F,0,151930,,1 F,0,151930,,0
Sprite,Foreground,Centre,"sb\light01.png",320,240 M,0,152246,,168.1451,290.0364 F,0,152246,152404,0,1 F,0,152246,152641,0,1 S,1,152246,152641,0.5287274,1.290909 F,0,152404,152877,1,0 F,0,152641,152877,1,0 F,0,152877,,1 F,0,152877,,0
Sprite,Foreground,Centre,"sb\light01.png",320,240 M,0,153194,,73.89051,68.36366 F,0,153194,153352,0,1 F,0,153194,153589,0,1 S,1,153194,153589,0.5287274,1.290909 F,0,153352,153825,1,0 F,0,153589,153825,1,0 F,0,153825,,1 F,0,153825,,0
Sprite,Foreground,Centre,"sb\light01.png",320,240 M,0,154141,,71.56323,144.5818 F,0,154141,154299,0,1 F,0,154141,154536,0,1 S,1,154141,154536,0.5287274,1.290909 F,0,154299,154772,1,0 F,0,154536,154772,1,0 F,0,154772,,1 F,0,154772,,0
Sprite,Foreground,Centre,"sb\light01.png",320,240 M,0,155089,,534.6904,402.9091 F,0,155089,155247,0,1 F,0,155089,155484,0,1 S,1,155089,155484,0.5287274,1.290909 F,0,155247,155720,1,0 F,0,155484,155720,1,0 F,0,155720,,1 F,0,155720,,0
Sprite,Foreground,Centre,"sb\light01.png",320,240 M,0,156036,,191.9995,302.2546 F,0,156036,156194,0,1 F,0,156036,156431,0,1 S,1,156036,156431,0.5287274,1.290909 F,0,156194,156667,1,0 F,0,156431,156667,1,0 F,0,156667,,1 F,0,156667,,0
Sprite,Foreground,Centre,"sb\light01.png",320,240 M,0,156983,,560.8722,55.56367 F,0,156983,157141,0,1 F,0,156983,157378,0,1 S,1,156983,157378,0.5287274,1.290909 F,0,157141,157614,1,0 F,0,157378,157614,1,0 F,0,157614,,1 F,0,157614,,0
Sprite,Foreground,Centre,"sb\light01.png",320,240 M,0,157931,,194.9086,78.8364 F,0,157931,158089,0,1 F,0,157931,158326,0,1 S,1,157931,158326,0.5287274,1.290909 F,0,158089,158562,1,0 F,0,158326,158562,1,0 F,0,158562,,1 F,0,158562,,0
Sprite,Foreground,Centre,"sb\light01.png",320,240 M,0,158878,,317.6722,354.0364 F,0,158878,159036,0,1 F,0,158878,159273,0,1 S,1,158878,159273,0.5287274,1.290909 F,0,159036,159509,1,0 F,0,159273,159509,1,0 F,0,159509,,1 F,0,159509,,0
Sprite,Foreground,Centre,"sb\light01.png",320,240 M,0,159825,,531.7814,251.6364 F,0,159825,159983,0,1 F,0,159825,160220,0,1 S,1,159825,160220,0.5287274,1.290909 F,0,159983,160456,1,0 F,0,160220,160456,1,0 F,0,160456,,1 F,0,160456,,0
Sprite,Foreground,Centre,"sb\light01.png",320,240 M,0,160141,,172.7995,347.6364 F,0,160141,160299,0,1 F,0,160141,160536,0,1 S,1,160141,160536,0.5287274,1.290909 F,0,160299,160772,1,0 F,0,160536,160772,1,0 F,0,160772,,1 F,0,160772,,0
Sprite,Foreground,Centre,"sb\light01.png",320,240 M,0,160457,,570.7632,413.3819 F,0,160457,160615,0,1 F,0,160457,160852,0,1 S,1,160457,160852,0.5287274,1.290909 F,0,160615,161088,1,0 F,0,160852,161088,1,0 F,0,161088,,1 F,0,161088,,0
Sprite,Foreground,Centre,"sb\light01.png",320,240 M,0,160852,,496.2905,334.8364 F,0,160852,161010,0,1 F,0,160852,161247,0,1 S,1,160852,161247,0.5287274,1.290909 F,0,161010,161483,1,0 F,0,161247,161483,1,0 F,0,161483,,1 F,0,161483,,0
Sprite,Foreground,Centre,"sb\light01.png",320,240 M,0,161720,,169.8905,419.2 F,0,161720,161878,0,1 F,0,161720,162115,0,1 S,1,161720,162115,0.5287274,1.290909 F,0,161878,162351,1,0 F,0,162115,162351,1,0 F,0,162351,,1 F,0,162351,,0
Sprite,Foreground,Centre,"sb\light01.png",320,240 M,0,169299,,499.1996,144.5819 F,0,169299,169457,0,1 F,0,169299,169694,0,1 S,1,169299,169694,0.5287274,1.290909 F,0,169457,169930,1,0 F,0,169694,169930,1,0 F,0,169930,,1 F,0,169930,,0
Sprite,Foreground,Centre,"sb\light01.png",320,240 M,0,174983,,284.5087,406.4 F,0,174983,175141,0,1 F,0,174983,175378,0,1 S,1,174983,175378,0.5287274,1.290909 F,0,175141,175614,1,0 F,0,175378,175614,1,0 F,0,175614,,1 F,0,175614,,0
Sprite,Foreground,Centre,"sb\light01.png",320,240 M,0,175299,,395.6359,304.5818 F,0,175299,175457,0,1 F,0,175299,175694,0,1 S,1,175299,175694,0.5287274,1.290909 F,0,175457,175930,1,0 F,0,175694,175930,1,0 F,0,175930,,1 F,0,175930,,0
Sprite,Foreground,Centre,"sb\light01.png",320,240 M,0,175615,,199.5632,234.7637 F,0,175615,175773,0,1 F,0,175615,176010,0,1 S,1,175615,176010,0.5287274,1.290909 F,0,175773,176246,1,0 F,0,176010,176246,1,0 F,0,176246,,1 F,0,176246,,0
Sprite,Foreground,Centre,"sb\light01.png",320,240 M,0,175931,,285.6723,74.76368 F,0,175931,176089,0,1 F,0,175931,176326,0,1 S,1,175931,176326,0.5287274,1.290909 F,0,176089,176562,1,0 F,0,176326,176562,1,0 F,0,176562,,1 F,0,176562,,0
Sprite,Foreground,Centre,"sb\light01.png",320,240 M,0,207194,,102.3996,301.091 F,0,207194,207352,0,1 F,0,207194,207589,0,1 S,1,207194,207589,0.5287274,1.290909 F,0,207352,207825,1,0 F,0,207589,207825,1,0 F,0,207825,,1 F,0,207825,,0
Sprite,Foreground,Centre,"sb\light01.png",320,240 M,0,214773,,478.2541,239.4182 F,0,214773,214931,0,1 F,0,214773,215168,0,1 S,1,214773,215168,0.5287274,1.290909 F,0,214931,215404,1,0 F,0,215168,215404,1,0 F,0,215404,,1 F,0,215404,,0
Sprite,Foreground,Centre,"sb\light01.png",320,240 M,0,220457,,377.0177,417.4545 F,0,220457,220615,0,1 F,0,220457,220852,0,1 S,1,220457,220852,0.5287274,1.290909 F,0,220615,221088,1,0 F,0,220852,221088,1,0 F,0,221088,,1 F,0,221088,,0
Sprite,Foreground,Centre,"sb\light01.png",320,240 M,0,220773,,279.8541,409.8909 F,0,220773,220931,0,1 F,0,220773,221168,0,1 S,1,220773,221168,0.5287274,1.290909 F,0,220931,221404,1,0 F,0,221168,221404,1,0 F,0,221404,,1 F,0,221404,,0
Sprite,Foreground,Centre,"sb\light01.png",320,240 M,0,221404,,233.3086,266.1819 F,0,221404,221562,0,1 F,0,221404,221799,0,1 S,1,221404,221799,0.5287274,1.290909 F,0,221562,222035,1,0 F,0,221799,222035,1,0 F,0,222035,,1 F,0,222035,,0
Sprite,Foreground,Centre,"sb\light01.png",320,240 M,0,222352,,289.1631,157.3818 F,0,222352,222510,0,1 F,0,222352,222747,0,1 S,1,222352,222747,0.5287274,1.290909 F,0,222510,222983,1,0 F,0,222747,222983,1,0 F,0,222983,,1 F,0,222983,,0
Sprite,Foreground,Centre,"sb\light01.png",320,240 M,0,229931,,178.0358,343.5636 F,0,229931,230089,0,1 F,0,229931,230326,0,1 S,1,229931,230326,0.5287274,1.290909 F,0,230089,230562,1,0 F,0,230326,230562,1,0 F,0,230562,,1 F,0,230562,,0
Sprite,Foreground,Centre,"sb\light01.png",320,240 M,0,235615,,342.1086,201.0182 F,0,235615,235773,0,1 F,0,235615,236010,0,1 S,1,235615,236010,0.5287274,1.290909 F,0,235773,236246,1,0 F,0,236010,236246,1,0 F,0,236246,,1 F,0,236246,,0
Sprite,Foreground,Centre,"sb\light01.png",320,240 M,0,237510,,128.5813,244.0728 F,0,237510,237668,0,1 F,0,237510,237905,0,1 S,1,237510,237905,0.5287274,1.290909 F,0,237668,238141,1,0 F,0,237905,238141,1,0 F,0,238141,,1 F,0,238141,,0
Sprite,Foreground,Centre,"sb\light01.png",320,240 M,0,236562,,112.8723,354.0364 F,0,236562,236720,0,1 F,0,236562,236957,0,1 S,1,236562,236957,0.5287274,1.290909 F,0,236720,237193,1,0 F,0,236957,237193,1,0 F,0,237193,,1 F,0,237193,,0
Sprite,Foreground,Centre,"sb\light01.png",320,240 M,0,205299,,342.6905,182.9819 F,0,205299,205457,0,1 F,0,205299,205694,0,1 S,1,205299,205694,0.5287274,1.290909 F,0,205457,205930,1,0 F,0,205694,205930,1,0 F,0,205930,,1 F,0,205930,,0
Sprite,Foreground,Centre,"sb\light01.png",320,240 M,0,205615,,238.5451,170.1819 F,0,205615,205773,0,1 F,0,205615,206010,0,1 S,1,205615,206010,0.5287274,1.290909 F,0,205773,206246,1,0 F,0,206010,206246,1,0 F,0,206246,,1 F,0,206246,,0
Sprite,Foreground,Centre,"sb\light01.png",320,240 M,0,205931,,136.145,160.291 F,0,205931,206089,0,1 F,0,205931,206326,0,1 S,1,205931,206326,0.5287274,1.290909 F,0,206089,206562,1,0 F,0,206326,206562,1,0 F,0,206562,,1 F,0,206562,,0
Sprite,Foreground,Centre,"sb\light01.png",320,240 M,0,206246,,378.7632,68.3637 F,0,206246,206404,0,1 F,0,206246,206641,0,1 S,1,206246,206641,0.5287274,1.290909 F,0,206404,206877,1,0 F,0,206641,206877,1,0 F,0,206877,,1 F,0,206877,,0
//Storyboard Layer 4 (Overlay)
//Storyboard Sound Samples

[TimingPoints]
668,315.789473684211,3,3,1,60,1,0
1694,-100,3,3,1,5,0,0
1773,-100,3,3,1,60,0,0
2562,-100,3,3,1,60,0,0
16141,-100,3,3,1,60,0,0
17720,-100,3,3,1,60,0,0
32878,-66.6666666666667,3,3,1,60,0,0
33115,-66.6666666666667,3,3,1,5,0,0
33194,-66.6666666666667,3,3,1,60,0,0
33431,-66.6666666666667,3,3,1,5,0,0
33510,-66.6666666666667,3,3,1,60,0,0
33746,-66.6666666666667,3,3,1,5,0,0
33825,-500,3,3,1,30,0,0
34773,-66.6666666666667,3,3,1,60,0,0
35010,-66.6666666666667,3,3,1,5,0,0
35089,-66.6666666666667,3,3,1,60,0,0
35325,-66.6666666666667,3,3,1,5,0,0
35404,-66.6666666666667,3,3,1,60,0,0
35641,-66.6666666666667,3,3,1,5,0,0
35720,-500,3,3,1,30,0,0
36668,-100,3,3,1,60,0,0
40457,-66.6666666666667,3,3,1,60,0,0
40694,-66.6666666666667,3,3,1,5,0,0
40773,-66.6666666666667,3,3,1,60,0,0
41010,-66.6666666666667,3,3,1,5,0,0
41089,-66.6666666666667,3,3,1,60,0,0
41404,-66.6666666666667,3,3,1,30,0,0
42352,-66.6666666666667,3,3,1,60,0,0
42589,-66.6666666666667,3,3,1,5,0,0
42668,-66.6666666666667,3,3,1,60,0,0
42904,-66.6666666666667,3,3,1,5,0,0
42983,-66.6666666666667,3,3,1,60,0,0
43299,-66.6666666666667,3,3,1,30,0,0
44246,-100,3,3,1,60,0,0
48036,-100,3,3,1,30,0,0
61299,-100,3,3,1,60,0,0
61536,-100,3,3,1,5,0,0
61615,-100,3,3,1,60,0,0
61852,-100,3,3,1,5,0,0
61931,-100,3,3,1,60,0,0
62168,-100,3,3,1,5,0,0
62246,-100,3,3,1,60,0,0
62483,-100,3,3,1,5,0,0
62562,-100,3,3,1,60,0,0
63115,-100,3,3,1,5,0,0
63194,-100,3,3,1,60,0,0
77404,-125,3,3,1,60,0,0
78352,-200,3,3,1,30,0,0
78510,-200,3,3,1,5,0,0
80168,-125,3,3,1,5,0,0
80246,-125,3,3,1,30,0,0
84036,-66.6666666666667,3,3,1,60,0,1
84273,-66.6666666666667,3,3,1,5,0,1
84352,-66.6666666666667,3,3,1,60,0,1
84589,-66.6666666666667,3,3,1,5,0,1
84668,-66.6666666666667,3,3,1,60,0,1
84904,-66.6666666666667,3,3,1,5,0,1
84983,-66.6666666666667,3,3,1,60,0,1
85931,-83.3333333333333,3,3,1,60,0,0
93431,-83.3333333333333,3,3,1,5,0,0
93510,-1000,3,3,1,60,0,0
94299,-1000,3,3,1,5,0,0
94457,-66.6666666666667,3,3,1,60,0,0
94536,-66.6666666666667,3,3,1,5,0,0
95404,-1000,3,3,1,60,0,0
96194,-1000,3,3,1,5,0,0
96351,-66.6666666666667,3,3,1,5,0,0
96352,-66.6666666666667,3,3,1,60,0,0
96431,-66.6666666666667,3,3,1,5,0,0
97299,-100,3,3,1,60,0,0
101089,-66.6666666666667,3,3,1,60,0,0
101325,-66.6666666666667,3,3,1,5,0,0
101404,-66.6666666666667,3,3,1,60,0,0
101641,-66.6666666666667,3,3,1,5,0,0
101720,-66.6666666666667,3,3,1,60,0,0
101957,-66.6666666666667,3,3,1,5,0,0
102036,-66.6666666666667,3,3,1,60,0,0
102352,-500,3,3,1,60,0,0
102983,-66.6666666666667,3,3,1,60,0,0
103220,-66.6666666666667,3,3,1,5,0,0
103299,-66.6666666666667,3,3,1,60,0,0
103536,-66.6666666666667,3,3,1,5,0,0
103615,-66.6666666666667,3,3,1,60,0,0
103852,-66.6666666666667,3,3,1,5,0,0
103931,-66.6666666666667,3,3,1,60,0,0
104246,-500,3,3,1,60,0,0
104878,-83.3333333333333,3,3,1,60,0,0
106694,-83.3333333333333,3,3,1,5,0,0
106773,-83.3333333333333,3,3,1,60,0,0
108036,-83.3333333333333,3,3,1,30,0,0
108141,-83.3333333333333,3,3,1,40,0,0
108246,-83.3333333333333,3,3,1,50,0,0
108352,-83.3333333333333,3,3,1,60,0,0
108668,-100,3,3,1,40,0,0
121931,-66.6666666666667,3,3,1,60,0,0
123825,-83.3333333333333,3,3,1,60,0,0
137325,-83.3333333333333,3,3,1,5,0,0
137404,-83.3333333333333,3,3,1,60,0,0
137957,-83.3333333333333,3,3,1,5,0,0
138036,-83.3333333333333,3,3,1,60,0,0
138983,-66.6666666666667,3,3,1,60,0,0
159825,-58.8235294117647,3,3,1,60,0,0
159904,-58.8235294117647,3,3,1,5,0,0
160141,-58.8235294117647,3,3,1,60,0,0
160220,-58.8235294117647,3,3,1,5,0,0
160457,-58.8235294117647,3,3,1,60,0,0
160536,-58.8235294117647,3,3,1,5,0,0
160773,-58.8235294117647,3,3,1,60,0,0
160852,-58.8235294117647,3,3,1,5,0,0
161720,-83.3333333333333,3,3,1,60,0,0
167404,-100,3,3,1,60,0,0
167641,-100,3,3,1,5,0,0
167720,-100,3,3,1,60,0,0
168115,-100,3,3,1,5,0,0
168194,-100,3,3,1,60,0,0
174983,-66.6666666666667,3,3,1,60,0,0
175220,-66.6666666666667,3,3,1,5,0,0
175299,-66.6666666666667,3,3,1,60,0,0
175536,-66.6666666666667,3,3,1,5,0,0
175615,-66.6666666666667,3,3,1,60,0,0
175852,-66.6666666666667,3,3,1,5,0,0
175931,-66.6666666666667,3,3,1,60,0,0
176878,-200,3,3,1,30,0,0
184457,-142.857142857143,3,3,1,30,0,0
192036,-333.333333333334,3,3,1,45,0,0
199615,-200,3,3,1,55,0,0
205299,-200,3,3,1,60,0,0
207194,-83.3333333333333,3,3,1,60,0,0
220694,-83.3333333333333,3,3,1,5,0,0
220773,-83.3333333333333,3,3,1,60,0,0
221325,-83.3333333333333,3,3,1,5,0,0
221404,-83.3333333333333,3,3,1,60,0,0
235615,-200,3,3,1,60,0,0
237510,-200,3,3,1,40,0,0
238141,-200,3,3,1,30,0,0
238773,-200,3,3,1,20,0,0
239404,-200,3,3,1,10,0,0
240352,-200,3,3,1,5,0,0

[Colours]
Combo1 : 78,123,209
Combo2 : 199,153,230
Combo3 : 147,108,181
Combo4 : 51,108,172
SliderBorder : 78,123,209

[HitObjects]
463,54,1615,6,0,L|409:64,1,40,2|0,0:0|0:0,0:0:0:0:
322,7,1931,2,0,P|316:45|333:90,1,79.9999999999999,2|2,0:0|0:0,0:0:0:0:
398,137,2246,1,0,1:0:0:0:
420,146,2404,1,0,1:0:0:0:
339,197,2562,6,0,P|325:265|316:382,1,160,14|2,0:0|0:0,0:0:0:0:
339,365,3036,1,8,0:0:0:0:
207,288,3352,1,8,0:0:0:0:
154,343,3510,2,0,P|119:357|72:358,1,80,2|0,1:3|0:0,0:0:0:0:
35,239,3825,2,0,P|60:266|102:287,1,80,2|0,0:0|0:0,0:0:0:0:
151,138,4141,2,0,P|139:173|109:210,1,80,2|0,0:0|0:0,0:0:0:0:
65,84,4457,6,0,P|119:104|205:15,1,160,10|0,0:0|0:0,0:0:0:0:
288,85,4931,1,8,0:0:0:0:
308,68,5246,1,8,0:0:0:0:
384,86,5404,1,0,1:0:0:0:
491,18,5720,2,0,P|479:63|473:111,1,80,2|0,0:0|0:0,0:0:0:0:
412,184,6036,2,0,P|405:144|395:105,1,80,2|0,0:0|0:0,0:0:0:0:
503,228,6352,6,0,P|460:261|467:380,1,160,10|0,0:0|0:0,0:0:0:0:
353,290,6825,2,0,P|277:308|221:394,1,160,10|8,0:0|0:0,0:0:0:0:
258,280,7299,2,0,P|265:221|260:94,1,160,2|0,1:3|0:0,0:0:0:0:
199,39,7773,1,2,0:0:0:0:
222,21,8246,6,0,B|312:9|286:59|397:32,1,160,10|0,0:0|0:0,0:0:0:0:
479,81,8720,2,0,P|407:135|405:225,1,160,10|8,0:0|0:0,0:0:0:0:
484,249,9194,1,2,1:3:0:0:
467,276,9510,2,0,P|464:320|455:376,1,80,10|0,0:0|0:0,0:0:0:0:
372,302,9825,2,0,P|366:262|363:222,1,80,10|0,0:0|0:0,0:0:0:0:
283,347,10141,6,0,P|238:367|156:294,1,160,10|0,0:0|0:0,0:0:0:0:
207,229,10615,1,10,0:0:0:0:
186,210,10931,1,8,0:0:0:0:
87,261,11089,2,0,P|44:271|-4:276,1,80,2|0,1:3|0:0,0:0:0:0:
40,164,11404,2,0,P|83:174|131:179,1,80,2|0,0:0|0:0,0:0:0:0:
100,70,11720,2,0,P|57:80|9:85,1,80,2|0,0:0|0:0,0:0:0:0:
257,0,12036,6,0,P|279:88|217:158,1,160,10|0,0:0|0:0,0:0:0:0:
219,132,12510,1,10,0:0:0:0:
323,29,12825,1,8,0:0:0:0:
385,65,12983,1,2,1:3:0:0:
409,56,13141,1,2,0:0:0:0:
430,48,13299,1,2,0:0:0:0:
454,39,13457,1,2,0:0:0:0:
477,29,13615,1,2,0:0:0:0:
501,20,13773,1,2,0:0:0:0:
456,131,13931,6,0,P|466:190|471:234,1,80,10|2,0:0|0:0,0:0:0:0:
416,277,14246,1,2,0:0:0:0:
395,270,14404,1,10,3:0:0:0:
374,262,14562,1,2,0:0:0:0:
353,255,14720,1,10,0:0:0:0:
331,247,14878,2,0,P|317:283|316:350,1,80,2|0,1:3|0:0,0:0:0:0:
228,196,15194,2,0,P|213:158|190:126,1,80,2|0,0:0|0:0,0:0:0:0:
205,304,15510,2,0,P|182:335|163:399,1,80,2|0,0:0|0:0,0:0:0:0:
74,310,15825,6,0,P|64:204|31:119,1,160,10|2,0:0|0:0,0:0:0:0:
133,89,16299,1,0,0:0:0:0:
69,25,16457,2,0,P|20:14|-43:14,1,80,2|0,0:0|0:0,0:0:0:0:
90,9,16773,1,2,1:3:0:0:
130,107,17089,1,10,0:0:0:0:
300,42,17404,1,2,1:3:0:0:
275,54,17562,1,0,1:0:0:0:
381,6,17720,6,0,P|387:71|401:106,1,80,14|0,0:0|0:0,0:0:0:0:
495,132,18036,1,2,0:0:0:0:
419,117,18194,1,8,0:0:0:0:
430,201,18352,2,0,P|420:239|419:279,1,80,0|8,0:0|0:0,0:0:0:0:
342,372,18668,2,0,P|341:332|331:293,1,80,2|0,1:3|0:0,0:0:0:0:
428,216,18983,2,0,P|415:253|411:293,1,80,2|0,0:0|0:0,0:0:0:0:
325,378,19299,2,0,P|328:338|321:298,1,80,2|0,0:0|0:0,0:0:0:0:
206,225,19615,6,0,P|218:86|248:11,1,160,10|0,0:0|0:0,0:0:0:0:
93,10,20089,2,0,P|110:87|111:167,1,160,10|8,0:0|0:0,0:0:0:0:
13,231,20562,2,0,P|106:270|118:344,1,160,2|0,1:3|0:0,0:0:0:0:
97,339,21036,1,2,0:0:0:0:
213,251,21510,5,10,0:0:0:0:
236,255,21668,1,2,0:0:0:0:
259,259,21825,1,2,0:0:0:0:
282,263,21983,1,10,0:0:0:0:
305,267,22141,1,2,0:0:0:0:
328,271,22299,1,10,0:0:0:0:
384,222,22457,2,0,P|378:163|362:119,1,80,2|0,1:3|0:0,0:0:0:0:
477,176,22773,2,0,P|483:117|499:73,1,80,2|0,0:0|0:0,0:0:0:0:
337,78,23089,2,0,P|331:19|315:-25,1,80,10|0,0:0|0:0,0:0:0:0:
179,72,23404,6,0,P|239:61|271:41,1,80,10|0,0:0|0:0,0:0:0:0:
121,145,23720,2,0,P|176:170|214:172,1,80,2|8,0:0|0:0,0:0:0:0:
26,169,24036,2,0,P|56:221|86:244,1,80,2|8,0:0|0:0,0:0:0:0:
47,305,24352,1,2,1:3:0:0:
61,323,24667,2,0,P|140:314|206:377,1,160,10|10,0:0|0:0,0:0:0:0:
349,343,25299,6,0,P|352:253|379:163,1,160,10|0,0:0|0:0,0:0:0:0:
458,116,25773,2,0,P|366:145|331:41,1,160,8|8,0:0|0:0,0:0:0:0:
365,36,26246,1,0,1:0:0:0:
343,16,26562,2,0,P|292:5|246:2,1,80,2|0,0:0|0:0,0:0:0:0:
178,104,26878,2,0,P|229:93|275:90,1,80,2|0,0:0|0:0,0:0:0:0:
146,187,27194,6,0,P|143:97|116:7,1,160,10|0,0:0|0:0,0:0:0:0:
39,79,27667,1,10,0:0:0:0:
59,70,27983,1,8,0:0:0:0:
61,167,28141,1,0,1:0:0:0:
81,187,28457,2,0,P|99:238|101:282,1,80,2|0,0:0|0:0,0:0:0:0:
0,327,28773,2,0,P|5:287|20:250,1,80,2|0,0:0|0:0,0:0:0:0:
115,355,29089,6,0,P|189:371|278:304,1,160,10|0,0:0|0:0,0:0:0:0:
267,250,29562,2,0,P|273:337|380:356,1,160,10|8,0:0|0:0,0:0:0:0:
425,303,30036,2,0,P|437:201|469:123,1,160,2|0,1:3|0:0,0:0:0:0:
364,170,30510,2,0,P|352:68|320:-10,1,160,2|0,0:0|0:0,0:0:0:0:
200,101,30983,6,0,P|259:85|293:50,1,80,10|0,0:0|0:0,0:0:0:0:
126,63,31299,2,0,P|67:47|33:12,1,80,8|0,0:0|0:0,0:0:0:0:
156,168,31615,2,0,P|213:188|261:179,1,80,10|0,0:0|0:0,0:0:0:0:
34,123,31931,2,0,P|19:166|46:209,1,80,2|0,1:3|0:0,0:0:0:0:
141,328,32246,2,0,P|156:285|129:242,1,80,8|0,0:0|0:0,0:0:0:0:
239,352,32562,1,0,1:0:0:0:
101,235,32878,6,0,P|79:149|206:68,2,240.000009155274,14|12|12,0:0|0:0|0:0,0:0:0:0:
202,288,33825,2,0,L|267:276,1,64,2|2,0:0|0:0,0:0:0:0:
441,326,34773,6,0,P|463:240|336:159,2,240.000009155274,14|12|12,0:0|0:0|0:0,0:0:0:0:
340,379,35720,2,0,L|275:367,1,64,2|0,0:0|0:0,0:0:0:0:
167,271,36668,6,0,P|180:182|212:101,1,160,14|0,0:0|0:0,0:0:0:0:
139,29,37141,1,8,0:0:0:0:
120,44,37457,1,8,0:0:0:0:
52,4,37615,2,0,P|78:79|89:158,1,160,2|0,1:3|0:0,0:0:0:0:
18,175,38089,1,0,0:0:0:0:
12,248,38246,1,8,0:0:0:0:
71,352,38562,6,0,P|120:340|168:334,1,80,10|0,0:0|0:0,0:0:0:0:
38,250,38878,2,0,P|87:259|133:274,1,80,2|8,0:0|0:0,0:0:0:0:
62,147,39194,2,0,P|111:135|159:129,1,80,2|8,0:0|0:0,0:0:0:0:
235,15,39510,2,0,P|216:59|217:98,1,80,2|0,1:3|0:0,0:0:0:0:
322,154,39825,2,0,P|319:114|302:78,1,80,10|0,0:0|0:0,0:0:0:0:
209,226,40141,2,0,P|258:235|304:250,1,80,2|0,1:3|0:0,0:0:0:0:
345,342,40457,6,0,P|317:216|443:241,2,240.000009155274,12|12|12,0:0|0:0|0:0,0:0:0:0:
167,342,42352,6,0,P|195:216|69:241,2,240.000009155274,12|14|12,0:0|0:0|0:0,0:0:0:0:
20,123,44246,6,0,P|35:225|39:333,1,160,14|0,0:0|0:0,0:0:0:0:
2,363,44720,1,8,0:0:0:0:
35,352,45036,1,8,0:0:0:0:
128,375,45194,2,0,P|219:372|286:305,1,160,2|0,1:3|0:0,0:0:0:0:
257,221,45825,1,8,0:0:0:0:
395,384,46141,6,0,P|401:304|413:225,1,160,10|0,0:0|0:0,0:0:0:0:
495,174,46615,1,0,1:0:0:0:
443,121,46773,1,8,0:0:0:0:
483,56,46931,1,0,1:0:0:0:
373,156,47089,2,0,P|286:150|251:72,1,160,0|0,1:0|1:0,0:0:0:0:
244,14,47562,1,8,0:0:0:0:
216,1,47720,1,8,0:0:0:0:
183,7,47878,1,8,0:0:0:0:
153,75,48036,5,6,0:0:0:0:
22,340,61299,5,14,1:3:0:0:
148,319,61615,1,8,0:0:0:0:
273,296,61931,1,10,0:0:0:0:
25,333,62246,5,14,1:3:0:0:
151,312,62562,1,8,0:0:0:0:
168,294,62720,1,0,1:0:0:0:
187,275,62878,1,2,1:3:0:0:
151,102,63194,5,14,0:0:0:0:
171,112,63510,1,2,0:0:0:0:
183,27,63668,1,8,0:0:0:0:
245,126,63825,2,0,P|291:126|331:97,1,80,0|8,0:0|0:0,0:0:0:0:
396,16,64141,2,0,P|364:112|404:201,1,160,2|2,1:3|0:0,0:0:0:0:
479,148,64615,1,2,0:0:0:0:
493,168,64931,1,0,0:0:0:0:
403,268,65089,6,0,P|318:255|256:311,1,160,10|0,0:0|0:0,0:0:0:0:
160,258,65562,2,0,P|96:302|19:287,1,160,10|8,0:0|0:0,0:0:0:0:
16,194,66036,2,0,L|-2:18,1,160,2|0,1:3|0:0,0:0:0:0:
79,60,66510,2,0,L|95:219,1,160,2|0,0:0|0:0,0:0:0:0:
198,319,66983,6,0,P|278:311|349:370,1,160,10|0,0:0|0:0,0:0:0:0:
370,267,67457,2,0,P|434:222|512:230,1,160,10|8,0:0|0:0,0:0:0:0:
428,135,67931,2,0,P|479:254|431:369,1,240,2|0,1:3|0:0,0:0:0:0:
371,340,68562,1,0,0:0:0:0:
302,380,68878,1,10,0:0:0:0:
279,361,69194,5,8,0:0:0:0:
257,278,69352,1,0,1:0:0:0:
312,215,69510,2,0,P|321:169|313:134,1,80,2|8,0:0|0:0,0:0:0:0:
195,79,69825,2,0,L|291:88,1,80,2|0,1:3|0:0,0:0:0:0:
174,66,70141,2,0,L|94:58,1,80,8|0,0:0|1:0,0:0:0:0:
182,175,70457,1,2,1:3:0:0:
97,183,70615,1,0,1:0:0:0:
224,292,70773,6,0,P|274:301|320:331,1,80,14|0,0:0|0:0,0:0:0:0:
228,314,71089,1,2,0:0:0:0:
234,338,71246,1,8,0:0:0:0:
281,208,71404,2,0,P|275:145|258:98,1,80,2|8,0:0|0:0,0:0:0:0:
267,221,71720,1,2,1:3:0:0:
389,168,72036,1,2,0:0:0:0:
379,192,72194,2,0,P|458:164|482:76,1,160,2|0,0:0|0:0,0:0:0:0:
310,227,72668,6,0,P|290:326|282:414,1,160,10|0,0:0|0:0,0:0:0:0:
181,334,73141,1,10,0:0:0:0:
158,352,73457,1,8,0:0:0:0:
72,313,73615,2,0,P|62:233|45:155,2,160,2|0|10,1:3|0:0|0:0,0:0:0:0:
153,172,74562,6,0,P|242:181|290:122,1,160,10|0,0:0|0:0,0:0:0:0:
256,24,75036,1,8,0:0:0:0:
279,35,75352,1,8,0:0:0:0:
353,14,75510,2,0,P|438:27|517:54,2,160,0|0|10,1:0|0:0|0:0,0:0:0:0:
444,156,76457,6,0,P|473:254|368:336,1,240,10|0,0:0|1:0,0:0:0:0:
380,312,77089,1,10,0:0:0:0:
261,367,77404,2,0,P|247:296|116:294,1,192,2|0,1:3|0:0,0:0:0:0:
131,299,78036,1,10,0:0:0:0:
149,124,78352,6,0,B|196:136|258:115|258:115|284:135|284:135|331:117|391:122,1,240,14|0,3:3|0:0,0:0:0:0:
415,364,80246,5,0,0:0:0:0:
414,351,80562,1,0,0:0:0:0:
413,338,80878,1,0,0:0:0:0:
347,249,81194,1,0,0:0:0:0:
348,236,81510,1,0,0:0:0:0:
349,223,81826,1,0,0:0:0:0:
287,372,82141,5,0,0:0:0:0:
285,356,82457,1,0,0:0:0:0:
284,340,82773,1,0,0:0:0:0:
198,219,83089,1,0,0:0:0:0:
200,203,83405,1,0,0:0:0:0:
201,187,83721,1,0,0:0:0:0:
38,75,84036,6,0,P|129:62|181:9,1,120.000004577637,14|0,1:3|0:0,0:0:0:0:
167,17,84352,2,0,P|136:96|142:150,1,120.000004577637,10|0,1:3|0:0,0:0:0:0:
161,223,84668,2,0,P|70:210|18:157,1,120.000004577637,10|0,1:3|0:0,0:0:0:0:
49,168,84983,1,10,0:0:0:0:
49,168,85141,1,8,1:3:0:0:
8,299,85299,5,10,1:3:0:0:
102,318,85457,1,8,0:0:0:0:
195,338,85615,1,10,1:3:0:0:
288,358,85773,1,8,0:0:0:0:
363,225,85931,6,0,P|394:330|474:379,1,191.999994140625,14|0,0:0|0:0,0:0:0:0:
498,310,86404,1,8,0:0:0:0:
512,287,86720,1,8,0:0:0:0:
425,165,86878,2,0,P|434:102|458:47,1,95.9999970703126,4|0,1:3|0:0,0:0:0:0:
473,59,87194,1,2,0:0:0:0:
328,141,87510,1,2,0:0:0:0:
304,125,87668,1,0,0:0:0:0:
211,48,87825,6,0,P|269:144|249:233,1,191.999994140625,10|0,0:0|0:0,0:0:0:0:
162,241,88299,1,8,0:0:0:0:
179,264,88615,1,8,0:0:0:0:
133,336,88773,2,0,P|203:352|236:372,1,95.9999970703126,0|0,1:0|0:0,0:0:0:0:
338,310,89089,2,0,P|347:237|364:197,1,95.9999970703126,2|0,0:0|0:0,0:0:0:0:
217,114,89404,2,0,P|230:159|233:207,1,95.9999970703126,2|0,0:0|0:0,0:0:0:0:
107,32,89720,6,0,P|89:150|53:263,1,191.999994140625,10|0,0:0|0:0,0:0:0:0:
10,306,90194,1,8,0:0:0:0:
36,292,90352,2,0,P|100:309|150:346,1,95.9999970703126,2|8,0:0|0:0,0:0:0:0:
227,255,90668,1,0,1:0:0:0:
246,264,90983,1,2,0:0:0:0:
328,216,91141,1,0,0:0:0:0:
336,242,91299,1,10,0:0:0:0:
460,152,91615,6,0,P|427:265|458:367,1,191.999994140625,10|0,0:0|0:0,0:0:0:0:
471,329,92089,1,8,0:0:0:0:
493,323,92246,1,8,0:0:0:0:
307,374,92562,2,0,P|245:379|205:358,1,95.9999970703126,0|0,1:0|0:0,0:0:0:0:
114,248,92878,2,0,P|129:294|136:353,1,95.9999970703126,8|0,0:0|0:0,0:0:0:0:
259,171,93194,2,0,P|244:217|237:276,1,95.9999970703126,2|0,1:3|0:0,0:0:0:0:
79,179,93510,6,0,L|121:173,1,40,14|0,0:0|0:0,0:0:0:0:
138,156,94457,2,0,P|155:99|134:30,1,120.000004577637,14|0,0:0|0:0,0:0:0:0:
255,228,95404,6,0,L|297:234,1,40,14|0,0:0|0:0,0:0:0:0:
314,251,96352,2,0,P|331:308|310:377,1,120.000004577637,12|0,0:0|0:0,0:0:0:0:
49,308,97299,6,0,P|64:195|67:102,1,160,14|0,0:0|0:0,0:0:0:0:
25,67,97773,1,2,0:0:0:0:
49,47,97931,2,0,P|109:56|153:88,1,80,8|0,0:0|0:0,0:0:0:0:
177,216,98246,2,0,P|189:120|254:58,1,160,2|0,1:3|0:0,0:0:0:0:
309,121,98720,1,0,0:0:0:0:
332,110,98878,1,8,0:0:0:0:
455,0,99194,6,0,P|440:113|437:206,1,160,10|0,0:0|0:0,0:0:0:0:
456,176,99668,1,10,0:0:0:0:
484,172,99825,2,0,P|498:226|505:281,1,80,0|8,0:0|0:0,0:0:0:0:
393,356,100141,2,0,P|402:291|418:253,1,80,10|0,1:3|0:0,0:0:0:0:
270,361,100457,2,0,P|225:368|177:370,1,80,10|0,0:0|0:0,0:0:0:0:
295,271,100773,2,0,P|334:268|374:262,1,80,2|0,1:3|0:0,0:0:0:0:
153,274,101089,6,0,L|178:14,3,240.000009155274,14|12|12|12,0:0|0:0|0:0|0:0,0:0:0:0:
103,70,102352,2,0,L|142:60,1,32,0|0,0:0|0:0,0:0:0:0:
28,0,102983,6,0,L|3:260,3,240.000009155274,14|12|12|12,0:0|0:0|0:0|0:0,0:0:0:0:
106,343,104246,1,10,0:0:0:0:
87,339,104404,1,2,1:3:0:0:
66,334,104562,1,0,1:0:0:0:
178,270,104878,6,0,P|193:164|243:72,1,191.999994140625,14|2,0:0|0:0,0:0:0:0:
306,43,105352,1,8,0:0:0:0:
330,58,105510,2,0,L|431:40,1,95.9999970703126,0|8,0:0|0:0,0:0:0:0:
339,161,105825,2,0,P|379:247|391:342,1,191.999994140625,2|0,1:3|0:0,0:0:0:0:
220,384,106299,2,0,P|260:297|272:202,1,191.999994140625,2|0,0:0|0:0,0:0:0:0:
182,109,106773,2,0,P|239:115|288:75,1,95.9999970703126,10|0,0:0|0:0,0:0:0:0:
333,25,107089,2,0,P|278:117|288:210,1,191.999994140625,8|8,0:0|0:0,0:0:0:0:
445,294,107720,2,0,P|369:317|315:370,1,95.9999970703126,2|0,1:3|0:0,0:0:0:0:
236,370,108036,2,0,B|225:350|225:350|242:301,3,63.9999980468751,0|0|0|0,1:0|1:0|1:0|1:0,0:0:0:0:
84,259,108668,6,0,P|94:323|108:352,1,80,14|0,0:0|0:0,0:0:0:0:
33,185,108983,2,0,P|4:243|0:274,1,80,2|0,0:0|0:0,0:0:0:0:
167,228,109299,2,0,P|155:189|135:155,1,80,2|8,0:0|0:0,0:0:0:0:
73,76,109615,2,0,P|124:61|156:33,1,80,2|0,1:3|0:0,0:0:0:0:
5,83,109931,2,0,P|55:99|97:95,1,80,2|0,0:0|0:0,0:0:0:0:
155,17,110246,2,0,P|205:0|247:4,1,80,2|0,0:0|0:0,0:0:0:0:
281,173,110562,6,0,P|272:89|317:26,1,160,10|0,0:0|0:0,0:0:0:0:
399,68,111036,2,0,P|441:134|430:211,1,160,10|8,0:0|0:0,0:0:0:0:
300,266,111510,2,0,P|403:288|443:342,1,160,2|0,1:3|0:0,0:0:0:0:
244,361,112141,1,2,0:0:0:0:
503,276,112457,6,0,P|496:200|459:83,1,160,10|0,0:0|0:0,0:0:0:0:
365,67,112931,1,8,0:0:0:0:
391,53,113089,2,0,P|376:108|372:152,1,80,2|8,0:0|0:0,0:0:0:0:
261,2,113404,2,0,P|158:24|118:78,1,160,0|0,1:0|0:0,0:0:0:0:
272,117,114036,1,2,0:0:0:0:
49,182,114352,6,0,P|45:89|30:9,1,160,10|0,0:0|0:0,0:0:0:0:
55,12,114825,1,8,0:0:0:0:
73,3,114983,1,10,0:0:0:0:
185,96,115299,2,0,P|267:104|333:48,2,160,2|8|10,1:3|0:0|0:0,0:0:0:0:
412,0,116246,6,0,P|405:94|388:174,1,160,14|0,0:0|0:0,0:0:0:0:
367,165,116720,1,8,0:0:0:0:
348,159,116878,1,2,0:0:0:0:
292,211,117036,1,8,0:0:0:0:
307,239,117194,2,0,P|313:292|304:342,1,80,2|0,1:3|0:0,0:0:0:0:
274,384,117510,2,0,P|304:357|327:325,1,80,2|0,0:0|0:0,0:0:0:0:
163,379,117825,2,0,P|202:381|242:375,1,80,2|0,0:0|0:0,0:0:0:0:
92,291,118141,6,0,P|104:192|131:119,1,160,10|0,0:0|0:0,0:0:0:0:
153,126,118615,1,8,0:0:0:0:
224,37,118931,1,8,0:0:0:0:
243,53,119089,2,0,P|322:68|385:6,1,160,2|0,1:3|0:0,0:0:0:0:
322,98,119562,2,0,P|345:174|353:253,1,160,2|0,0:0|0:0,0:0:0:0:
250,332,120036,6,0,P|343:341|414:386,1,160,10|0,0:0|0:0,0:0:0:0:
422,367,120510,1,8,0:0:0:0:
441,356,120668,1,10,0:0:0:0:
471,222,120983,2,0,P|478:142|502:66,2,160,0|0|0,1:0|0:0|0:0,0:0:0:0:
314,60,121931,6,0,P|387:32|417:-5,1,120.000004577637,10|0,0:0|0:0,0:0:0:0:
237,76,122246,2,0,P|312:94|358:81,1,120.000004577637,8|0,0:0|0:0,0:0:0:0:
166,39,122562,2,0,P|217:98|262:113,1,120.000004577637,10|0,0:0|0:0,0:0:0:0:
389,201,122878,6,0,P|335:226|300:274,1,120.000004577637,2|0,1:3|0:0,0:0:0:0:
372,365,123194,1,8,1:3:0:0:
276,360,123352,1,0,1:0:0:0:
154,294,123510,2,0,P|211:327|276:337,1,120.000004577637,2|0,1:3|0:0,0:0:0:0:
132,305,123825,5,14,0:0:0:0:
291,185,124141,2,0,P|282:121|258:78,1,95.9999970703126,2|0,0:0|0:0,0:0:0:0:
302,208,124457,1,2,0:0:0:0:
313,234,124615,1,0,0:0:0:0:
411,300,124773,2,0,P|351:323|327:361,1,95.9999970703126,14|0,1:3|0:0,0:0:0:0:
307,339,125089,1,2,0:0:0:0:
469,247,125246,2,0,P|485:142|477:34,1,191.999994140625,2|0,0:0|0:0,0:0:0:0:
239,25,125720,6,0,P|311:61|391:-15,1,191.999994140625,10|0,0:0|0:0,0:0:0:0:
351,150,126194,2,0,P|366:244|362:340,1,191.999994140625,10|8,0:0|0:0,0:0:0:0:
133,292,126668,2,0,P|199:229|282:264,1,191.999994140625,2|0,1:3|0:0,0:0:0:0:
278,285,127141,1,2,0:0:0:0:
274,309,127299,1,0,0:0:0:0:
427,111,127615,6,0,P|305:125|220:183,1,191.999994140625,10|0,0:0|0:0,0:0:0:0:
190,107,128089,1,10,0:0:0:0:
196,84,128246,1,0,0:0:0:0:
203,257,128562,2,0,P|117:214|22:209,2,191.999994140625,2|0|0,1:3|0:0|0:0,0:0:0:0:
305,363,129510,6,0,P|313:300|333:247,1,95.9999970703126,10|0,0:0|0:0,0:0:0:0:
223,238,129825,2,0,P|215:175|195:122,1,95.9999970703126,8|0,0:0|0:0,0:0:0:0:
354,108,130141,2,0,P|362:45|382:-8,1,95.9999970703126,10|0,0:0|0:0,0:0:0:0:
490,161,130457,2,0,P|415:235|412:330,1,191.999994140625,2|0,1:3|1:0,0:0:0:0:
332,368,130931,1,0,1:0:0:0:
256,355,131089,1,10,0:0:0:0:
180,341,131246,1,0,1:0:0:0:
11,362,131404,6,0,P|77:340|124:283,1,95.9999970703126,14|0,0:0|0:0,0:0:0:0:
47,262,131720,1,2,0:0:0:0:
56,239,131878,1,8,0:0:0:0:
157,116,132036,2,0,P|133:157|126:204,1,95.9999970703126,2|8,0:0|0:0,0:0:0:0:
137,92,132352,1,2,1:3:0:0:
253,201,132667,1,2,0:0:0:0:
271,182,132825,2,0,P|290:59|342:-10,1,191.999994140625,2|0,0:0|0:0,0:0:0:0:
512,161,133299,6,0,P|421:188|334:115,1,191.999994140625,10|0,0:0|0:0,0:0:0:0:
442,294,133773,2,0,P|337:318|262:380,1,191.999994140625,10|8,0:0|0:0,0:0:0:0:
130,291,134246,2,0,P|177:208|185:113,2,191.999994140625,2|0|2,1:3|0:0|0:0,0:0:0:0:
57,268,135036,1,0,0:0:0:0:
12,327,135194,6,0,P|102:294|187:365,1,191.999994140625,10|8,0:0|0:0,0:0:0:0:
239,300,135667,1,0,0:0:0:0:
263,318,135825,2,0,P|336:321|373:306,1,95.9999970703126,8|0,0:0|0:0,0:0:0:0:
302,199,136141,2,0,P|313:90|356:-16,1,191.999994140625,0|0,1:0|0:0,0:0:0:0:
416,30,136615,1,8,0:0:0:0:
488,5,136773,1,2,1:3:0:0:
229,65,137089,1,10,0:0:0:0:
418,165,137404,6,0,P|431:227|423:285,1,95.9999970703126,0|0,1:0|0:0,0:0:0:0:
299,321,137720,2,0,P|359:340|405:376,1,95.9999970703126,10|0,0:0|0:0,0:0:0:0:
231,250,138036,2,0,P|212:133|226:25,1,191.999994140625,0|0,1:0|1:0,0:0:0:0:
291,12,138510,1,0,1:0:0:0:
186,55,138667,1,2,1:3:0:0:
416,25,138983,6,0,L|437:274,2,240.000009155274,14|8|8,0:0|0:0|0:0,0:0:0:0:
286,279,139931,2,0,L|307:30,2,240.000009155274,12|10|10,0:0|0:0|0:0,0:0:0:0:
171,16,140878,2,0,L|192:265,2,240.000009155274,14|8|10,0:0|0:0|0:0,0:0:0:0:
41,270,141825,2,0,L|62:21,2,240.000009155274,14|8|10,0:0|0:0|0:0,0:0:0:0:
244,301,142773,6,0,P|138:299|44:391,2,240.000009155274,12|10|10,0:0|0:0|0:0,0:0:0:0:
281,188,143720,2,0,P|397:191|479:275,2,240.000009155274,14|8|10,0:0|0:0|0:0,0:0:0:0:
222,89,144667,2,0,P|105:91|23:175,2,240.000009155274,12|10|10,0:0|0:0|0:0,0:0:0:0:
344,256,145615,2,0,L|323:16,2,240.000009155274,14|10|10,0:0|0:0|0:0,0:0:0:0:
145,369,146562,6,0,L|401:348,1,240.000009155274,14|8,0:0|0:0,0:0:0:0:
126,352,147194,1,8,0:0:0:0:
379,245,147510,2,0,L|123:224,2,240.000009155274,14|8|8,0:0|0:0|0:0,0:0:0:0:
99,138,148457,1,14,0:0:0:0:
127,336,148773,1,8,0:0:0:0:
108,121,149089,1,8,0:0:0:0:
239,343,149404,2,0,P|374:367|456:283,2,240.000009155274,14|8|8,0:0|0:0|0:0,0:0:0:0:
512,177,150352,6,0,L|223:154,2,240.000009155274,14|8|8,0:0|0:0|0:0,0:0:0:0:
200,39,151299,2,0,L|489:16,2,240.000009155274,14|8|8,0:0|0:0|0:0,0:0:0:0:
101,239,152246,1,14,1:3:0:0:
115,40,152562,1,8,1:3:0:0:
108,252,152878,1,10,1:3:0:0:
7,15,153194,1,10,1:3:0:0:
220,116,153510,1,10,1:3:0:0:
148,108,153667,1,8,1:3:0:0:
75,99,153825,1,10,1:3:0:0:
3,94,153983,1,8,1:3:0:0:
3,94,154141,5,12,0:0:0:0:
242,131,154457,2,0,P|254:44|281:-11,1,120.000004577637,10|0,0:0|0:0,0:0:0:0:
217,309,154773,2,0,P|205:222|178:167,1,120.000004577637,10|0,0:0|0:0,0:0:0:0:
469,351,155089,2,0,L|214:329,1,240.000009155274,14|8,1:3|0:0,0:0:0:0:
397,254,155720,1,10,0:3:0:0:
125,252,156036,5,12,0:0:0:0:
353,150,156352,2,0,P|365:237|392:292,1,120.000004577637,10|0,0:0|0:0,0:0:0:0:
241,45,156668,2,0,P|229:132|202:187,1,120.000004577637,10|0,0:0|0:0,0:0:0:0:
493,3,156984,2,0,L|238:25,1,240.000009155274,14|8,0:0|0:0,0:0:0:0:
421,100,157615,1,10,0:0:0:0:
131,26,157931,6,0,L|109:285,1,240.000009155274,14|8,0:0|0:0,0:0:0:0:
115,7,158562,1,8,0:0:0:0:
251,305,158878,2,0,L|229:46,1,240.000009155274,14|8,0:0|0:0,0:0:0:0:
235,324,159509,1,10,0:0:0:0:
464,201,159825,6,0,P|383:220|326:274,1,136.000002593994,14|0,0:0|0:0,0:0:0:0:
104,295,160141,2,0,P|185:314|242:368,1,136.000002593994,12|0,0:0|0:0,0:0:0:0:
505,361,160457,2,0,P|421:358|352:395,1,136.000002593994,12|0,0:0|0:0,0:0:0:0:
431,280,160773,1,14,0:0:0:0:
102,367,161720,6,0,P|114:287|140:233,1,95.9999970703126,12|0,0:0|0:0,0:0:0:0:
34,206,162036,1,0,0:0:0:0:
139,245,162194,2,0,P|118:109|74:17,1,191.999994140625,8|8,0:0|0:0,0:0:0:0:
204,133,162667,2,0,B|262:146|318:112|283:83|338:66|402:85,2,191.999994140625,12|0|8,1:3|0:0|0:0,0:0:0:0:
59,47,163615,6,0,P|131:30|158:1,1,95.9999970703126,8|0,0:0|0:0,0:0:0:0:
44,65,163931,1,0,0:0:0:0:
186,147,164089,2,0,P|154:237|144:332,1,191.999994140625,8|8,0:0|0:0,0:0:0:0:
270,249,164562,2,0,B|308:240|366:249|331:281|387:304|466:285,2,191.999994140625,12|0|8,1:3|0:0|0:0,0:0:0:0:
498,191,165510,6,0,P|485:137|460:88,1,95.9999970703126,8|0,0:0|0:0,0:0:0:0:
484,213,165825,1,0,0:0:0:0:
511,35,165983,2,0,P|439:24|400:144,1,191.999994140625,8|8,0:0|0:0,0:0:0:0:
473,234,166457,2,0,P|363:264|287:331,2,191.999994140625,12|0|8,1:3|0:0|0:0,0:0:0:0:
208,335,167404,6,0,P|324:343|377:372,1,160,8|8,0:0|0:0,0:0:0:0:
321,264,167878,2,0,P|395:235|474:237,1,160,0|8,1:0|0:0,0:0:0:0:
369,159,168352,1,2,1:3:0:0:
393,137,168667,1,0,1:0:0:0:
289,124,168825,1,0,1:0:0:0:
185,109,168983,1,0,1:0:0:0:
438,94,169299,6,0,P|453:201|461:218,1,80,14|0,0:0|0:0,0:0:0:0:
460,76,169615,1,0,0:0:0:0:
512,288,169773,2,0,P|433:319|408:402,1,160,8|8,0:0|0:0,0:0:0:0:
293,241,170246,2,0,L|308:70,2,160,12|0|0,1:3|0:0|0:0,0:0:0:0:
148,325,171194,6,0,P|202:336|233:366,1,80,8|0,0:0|0:0,0:0:0:0:
108,261,171510,1,0,0:0:0:0:
36,353,171667,2,0,P|27:255|7:172,1,160,8|8,0:0|0:0,0:0:0:0:
97,92,172141,2,0,B|135:83|193:92|158:124|214:147|293:128,2,160,12|0|0,1:3|0:0|0:0,0:0:0:0:
312,37,173089,6,0,P|369:29|402:8,1,80,8|0,0:0|0:0,0:0:0:0:
302,58,173404,1,0,0:0:0:0:
468,17,173562,2,0,P|461:103|446:192,1,160,8|8,0:0|0:0,0:0:0:0:
343,272,174036,2,0,P|427:300|479:378,2,160,12|0|0,1:3|0:0|0:0,0:0:0:0:
219,355,174983,6,0,P|203:281|177:227,1,120.000004577637,12|0,0:0|0:0,0:0:0:0:
329,253,175299,2,0,P|345:179|371:125,1,120.000004577637,12|0,0:0|0:0,0:0:0:0:
133,182,175615,2,0,P|117:108|91:54,1,120.000004577637,12|0,0:0|0:0,0:0:0:0:
216,21,175931,1,10,0:0:0:0:
318,195,176878,6,0,L|444:186,1,120,10|8,0:0|0:0,0:0:0:0:
458,172,177510,1,10,0:0:0:0:
373,89,177825,1,2,1:3:0:0:
262,245,178773,6,0,L|136:254,1,120,10|0,0:0|0:0,0:0:0:0:
122,268,179405,1,10,0:0:0:0:
179,336,179720,1,2,1:3:0:0:
24,184,180667,6,0,P|7:143|58:65,1,120,10|8,0:0|0:0,0:0:0:0:
67,83,181299,1,10,0:0:0:0:
171,47,181615,1,2,1:3:0:0:
362,62,182562,6,0,P|352:109|350:212,1,120,10|0,0:0|0:0,0:0:0:0:
377,199,183194,1,10,0:0:0:0:
486,181,183510,1,2,1:3:0:0:
316,337,184457,6,0,P|240:306|178:370,1,167.999994873047,2|8,0:0|0:0,0:0:0:0:
202,371,185089,1,2,0:0:0:0:
189,226,185404,1,2,1:3:0:0:
22,113,186352,6,0,P|98:82|160:146,1,167.999994873047,10|0,0:0|0:0,0:0:0:0:
136,147,186984,1,10,0:0:0:0:
149,2,187299,1,2,1:3:0:0:
323,149,188246,6,0,L|312:342,1,167.999994873047,8|8,0:0|0:0,0:0:0:0:
320,335,188878,1,10,0:0:0:0:
446,320,189194,1,2,1:3:0:0:
189,149,190141,6,0,L|195:270,1,111.999996582031,10|0,0:0|0:0,0:0:0:0:
207,133,190773,1,10,0:0:0:0:
81,118,191089,1,2,1:3:0:0:
302,368,192036,6,0,L|356:361,2,47.9999985351563,14|8|10,0:0|0:0|0:0,0:0:0:0:
340,283,192983,2,0,L|292:289,2,47.9999985351563,10|8|10,0:0|0:0|0:0,0:0:0:0:
282,208,193931,2,0,L|336:201,2,47.9999985351563,10|8|8,0:0|0:0|0:0,0:0:0:0:
320,123,194878,2,0,L|272:129,2,47.9999985351563,10|8|8,0:0|0:0|0:0,0:0:0:0:
168,26,195825,6,0,P|162:54|167:81,2,47.9999985351563,10|8|10,0:0|0:0|0:0,0:0:0:0:
97,100,196773,2,0,P|112:124|135:139,2,47.9999985351563,10|8|10,0:0|0:0|0:0,0:0:0:0:
101,203,197720,2,0,P|129:209|156:204,2,47.9999985351563,10|8|10,0:0|0:0|0:0,0:0:0:0:
175,273,198667,2,0,P|199:257|214:234,2,47.9999985351563,10|8|10,0:0|0:0|1:3,0:0:0:0:
385,383,199615,6,0,L|468:372,2,80,14|8|10,1:3|0:0|0:0,0:0:0:0:
443,250,200562,2,0,L|343:262,2,80,10|8|10,0:0|0:0|0:0,0:0:0:0:
353,133,201510,2,0,L|436:122,2,80,10|8|8,0:0|0:0|0:0,0:0:0:0:
411,2,202457,2,0,L|309:15,2,80,10|8|10,0:0|0:0|1:3,0:0:0:0:
260,104,203404,5,10,1:3:0:0:
156,95,203720,1,8,1:3:0:0:
52,84,204036,1,10,1:3:0:0:
268,115,204352,5,10,1:3:0:0:
164,106,204668,1,8,1:3:0:0:
60,95,204984,1,10,1:3:0:0:
275,129,205299,5,10,1:3:0:0:
171,120,205615,1,8,1:3:0:0:
67,109,205931,1,10,1:3:0:0:
312,17,206246,1,10,1:3:0:0:
35,249,207194,6,0,P|89:232|131:238,1,95.9999970703126,14|0,0:0|0:0,0:0:0:0:
178,299,207510,1,2,0:0:0:0:
203,288,207667,1,8,0:0:0:0:
257,340,207825,2,0,P|311:357|353:351,1,95.9999970703126,2|8,0:0|0:0,0:0:0:0:
436,248,208141,2,0,P|446:317|459:350,1,95.9999970703126,2|0,1:3|0:0,0:0:0:0:
331,185,208457,2,0,P|321:254|308:287,1,95.9999970703126,2|0,0:0|0:0,0:0:0:0:
466,121,208773,2,0,P|493:185|514:213,1,95.9999970703126,2|0,0:0|0:0,0:0:0:0:
292,88,209089,6,0,P|181:57|128:135,1,191.999994140625,10|0,0:0|0:0,0:0:0:0:
188,160,209562,1,8,0:0:0:0:
205,176,209720,2,0,P|263:181|313:152,1,95.9999970703126,0|8,0:0|0:0,0:0:0:0:
102,199,210036,2,0,P|51:304|51:383,1,191.999994140625,2|0,1:3|0:0,0:0:0:0:
23,167,210667,1,2,0:0:0:0:
152,326,210983,6,0,P|222:343|320:259,1,191.999994140625,10|0,0:0|0:0,0:0:0:0:
270,198,211457,1,8,0:0:0:0:
282,168,211615,1,0,0:0:0:0:
248,96,211773,1,8,0:0:0:0:
293,34,211931,2,0,P|208:81|119:54,1,191.999994140625,0|0,1:0|0:0,0:0:0:0:
310,17,212562,1,2,0:0:0:0:
138,187,212878,6,0,P|108:285|95:380,1,191.999994140625,10|0,0:0|0:0,0:0:0:0:
31,288,213352,1,8,0:0:0:0:
181,363,213510,2,0,P|245:365|283:339,1,95.9999970703126,2|8,0:0|0:0,0:0:0:0:
302,226,213825,1,2,1:3:0:0:
417,360,214141,1,8,0:0:0:0:
423,283,214299,1,8,1:3:0:0:
430,206,214457,1,2,1:3:0:0:
440,74,214615,1,0,1:0:0:0:
409,188,214773,6,0,P|305:216|228:162,1,191.999994140625,14|0,0:0|0:0,0:0:0:0:
296,95,215246,1,8,0:0:0:0:
279,75,215562,1,8,0:0:0:0:
207,101,215720,2,0,P|138:117|79:119,1,95.9999970703126,2|0,1:3|0:0,0:0:0:0:
0,26,216036,2,0,P|69:42|128:44,1,95.9999970703126,2|0,0:0|0:0,0:0:0:0:
134,199,216352,2,0,P|64:184|10:161,1,95.9999970703126,10|0,0:0|0:0,0:0:0:0:
222,350,216667,6,0,P|246:294|390:264,1,191.999994140625,10|0,0:0|0:0,0:0:0:0:
458,350,217141,1,10,0:0:0:0:
487,327,217457,1,8,0:0:0:0:
447,256,217615,2,0,P|465:143|496:72,1,191.999994140625,2|0,1:3|0:0,0:0:0:0:
313,28,218089,2,0,P|349:116|361:211,1,191.999994140625,2|0,0:0|0:0,0:0:0:0:
227,313,218562,6,0,B|123:292|142:356|24:328,1,191.999994140625,10|0,0:0|0:0,0:0:0:0:
17,214,219036,1,8,0:0:0:0:
52,193,219194,2,0,P|68:135|65:80,1,95.9999970703126,2|8,0:0|0:0,0:0:0:0:
140,213,219510,2,0,P|243:215|345:124,2,191.999994140625,0|0|0,1:0|0:0|0:0,0:0:0:0:
310,368,220457,6,0,P|316:301|348:244,1,95.9999970703126,10|0,0:0|0:0,0:0:0:0:
211,361,220773,2,0,L|-11:336,1,191.999994140625,0|10,1:0|0:0,0:0:0:0:
167,216,221404,1,2,1:3:0:0:
191,283,221562,1,0,1:0:0:0:
158,186,221720,1,8,0:0:0:0:
204,131,221878,1,0,1:0:0:0:
130,205,222036,1,2,1:3:0:0:
221,108,222352,6,0,P|210:30|190:-15,1,95.9999970703126,14|0,0:0|0:0,0:0:0:0:
87,106,222667,1,2,0:0:0:0:
112,100,222825,1,8,0:0:0:0:
48,209,222983,2,0,P|34:255|31:302,1,95.9999970703126,0|8,0:0|0:0,0:0:0:0:
221,320,223299,2,0,P|160:344|138:376,1,95.9999970703126,10|0,1:3|0:0,0:0:0:0:
178,227,223615,1,2,0:0:0:0:
327,372,223773,2,0,P|433:379|493:319,1,191.999994140625,2|0,0:0|0:0,0:0:0:0:
296,251,224246,6,0,P|311:141|353:39,1,191.999994140625,10|0,0:0|0:0,0:0:0:0:
429,33,224720,2,0,P|335:85|249:40,1,191.999994140625,10|8,0:0|0:0,0:0:0:0:
131,8,225194,2,0,P|162:98|174:193,1,191.999994140625,2|0,1:3|0:0,0:0:0:0:
101,233,225667,1,2,0:0:0:0:
322,354,226141,6,0,L|105:338,1,191.999994140625,10|0,0:0|0:0,0:0:0:0:
0,310,226615,2,0,L|191:324,1,191.999994140625,10|8,0:0|0:0,0:0:0:0:
299,258,227089,2,0,P|333:161|303:70,1,191.999994140625,10|0,1:3|0:0,0:0:0:0:
309,282,227720,1,2,0:0:0:0:
182,74,228036,6,0,P|285:59|373:7,1,191.999994140625,10|0,0:0|0:0,0:0:0:0:
434,80,228510,1,8,0:0:0:0:
454,107,228667,2,0,P|445:182|433:234,1,95.9999970703126,10|0,0:0|0:0,0:0:0:0:
309,278,228983,1,2,1:3:0:0:
463,368,229299,1,8,1:3:0:0:
386,362,229457,1,0,1:0:0:0:
309,356,229615,1,2,1:3:0:0:
111,294,229931,6,0,P|173:284|224:243,1,95.9999970703126,14|0,0:0|0:0,0:0:0:0:
76,176,230246,1,2,0:0:0:0:
64,201,230404,1,8,0:0:0:0:
163,135,230562,2,0,P|153:79|139:29,1,95.9999970703126,2|8,0:0|0:0,0:0:0:0:
245,195,230878,2,0,P|287:217|334:221,1,95.9999970703126,2|0,1:3|0:0,0:0:0:0:
240,167,231194,1,2,0:0:0:0:
365,316,231352,2,0,P|385:210|438:134,1,191.999994140625,2|0,0:0|0:0,0:0:0:0:
327,21,231825,6,0,P|213:64|140:28,1,191.999994140625,10|0,0:0|0:0,0:0:0:0:
27,16,232299,2,0,P|58:118|66:256,1,191.999994140625,10|8,0:0|0:0,0:0:0:0:
131,328,232773,2,0,P|143:233|172:142,2,191.999994140625,2|0|10,1:3|0:0|0:0,0:0:0:0:
303,374,233720,6,0,P|396:374|479:300,1,191.999994140625,14|0,0:0|0:0,0:0:0:0:
404,220,234194,1,0,0:0:0:0:
460,164,234352,2,0,P|472:96|493:62,1,95.9999970703126,8|0,0:0|0:0,0:0:0:0:
328,27,234667,2,0,P|365:115|373:210,1,191.999994140625,0|8,1:0|0:0,0:0:0:0:
418,16,235299,1,2,1:3:0:0:
274,150,235615,6,0,P|198:137|100:127,1,160,14|2,0:0|0:0,0:0:0:0:
47,302,236562,2,0,P|123:289|221:279,1,160,14|2,0:0|0:0,0:0:0:0:
60,189,237510,1,14,0:0:0:0:
256,192,237667,12,0,240352,2:0:0:0:
