osu file format v14

[General]
AudioFilename: audio.mp3
AudioLeadIn: 0
PreviewTime: 207141
Countdown: 0
SampleSet: Drum
StackLeniency: 0.7
Mode: 0
LetterboxInBreaks: 0
EpilepsyWarning: 1
WidescreenStoryboard: 1

[Editor]
Bookmarks: 5404,13299,14246
DistanceSpacing: 2.4
BeatDivisor: 6
GridSize: 4
TimelineZoom: 1.8

[Metadata]
Title:Line Without a Hook
TitleUnicode:Line Without a Hook
Artist:Ricky Montgomery
ArtistUnicode:Ricky Montgomery
Creator:pdet
Version:Legosi's Hard
Source:
Tags:Lian2002 lian -lian- - Clubber - clubber minnin English li syaoran Min SleepyLegosi Legosi fa featured artist indie soft rock The honeysticks
BeatmapID:2671885
BeatmapSetID:1286918

[Difficulty]
HPDrainRate:4.5
CircleSize:3.8
OverallDifficulty:7
ApproachRate:8
SliderMultiplier:1.225
SliderTickRate:1

[Events]
//Background and Video events
0,0,"bg.jpg",0,0
//Break Periods
2,78552,83286
//Storyboard Layer 0 (Background)
//Storyboard Layer 1 (Fail)
//Storyboard Layer 2 (Pass)
//Storyboard Layer 3 (Foreground)
Sprite,Foreground,Centre,"sb\light01.png",320,240 M,0,32878,,312.4361,241.1636 F,0,32878,33036,0,1 F,0,32878,33273,0,1 S,1,32878,33273,0.5287274,1.290909 F,0,33036,33509,1,0 F,0,33273,33509,1,0 F,0,33509,,0 F,0,33509,,1
Sprite,Foreground,Centre,"sb\light01.png",320,240 M,0,33510,,245.527,397.6727 F,0,33510,33668,0,1 F,0,33510,33905,0,1 S,1,33510,33905,0.5287274,1.290909 F,0,33668,34141,1,0 F,0,33905,34141,1,0 F,0,34141,,0 F,0,34141,,1
Sprite,Foreground,Centre,"sb\light01.png",320,240 M,0,33194,,414.2543,380.8 F,0,33194,33352,0,1 F,0,33194,33589,0,1 S,1,33194,33589,0.5287274,1.290909 F,0,33352,33825,1,0 F,0,33589,33825,1,0 F,0,33825,,0 F,0,33825,,1
Sprite,Foreground,Centre,"sb\light01.png",320,240 M,0,17720,,431.127,213.8181 F,0,17720,17878,0,1 F,0,17720,18115,0,1 S,1,17720,18115,0.5287274,1.290909 F,0,17878,18351,1,0 F,0,18115,18351,1,0 F,0,18351,,0 F,0,18351,,1
Sprite,Foreground,Centre,"sb\light01.png",320,240 M,0,34773,,439.2725,82.32726 F,0,34773,34931,0,1 F,0,34773,35168,0,1 S,1,34773,35168,0.5287274,1.290909 F,0,34931,35404,1,0 F,0,35168,35404,1,0 F,0,35404,,0 F,0,35404,,1
Sprite,Foreground,Centre,"sb\light01.png",320,240 M,0,35089,,333.9634,221.3817 F,0,35089,35247,0,1 F,0,35089,35484,0,1 S,1,35089,35484,0.5287274,1.290909 F,0,35247,35720,1,0 F,0,35484,35720,1,0 F,0,35720,,0 F,0,35720,,1
Sprite,Foreground,Centre,"sb\light01.png",320,240 M,0,36668,,214.1088,162.6181 F,0,36668,36826,0,1 F,0,36668,37063,0,1 S,1,36668,37063,0.5287274,1.290909 F,0,36826,37299,1,0 F,0,37063,37299,1,0 F,0,37299,,0 F,0,37299,,1
Sprite,Foreground,Centre,"sb\light01.png",320,240 M,0,35404,,505.5997,238.2546 F,0,35404,35562,0,1 F,0,35404,35799,0,1 S,1,35404,35799,0.5287274,1.290909 F,0,35562,36035,1,0 F,0,35799,36035,1,0 F,0,36035,,0 F,0,36035,,1
Sprite,Foreground,Centre,"sb\light01.png",320,240 M,0,40457,,314.7633,412.2182 F,0,40457,40615,0,1 F,0,40457,40852,0,1 S,1,40457,40852,0.5287274,1.290909 F,0,40615,41088,1,0 F,0,40852,41088,1,0 F,0,41088,,0 F,0,41088,,1
Sprite,Foreground,Centre,"sb\light01.png",320,240 M,0,40773,,417.1634,277.2364 F,0,40773,40931,0,1 F,0,40773,41168,0,1 S,1,40773,41168,0.5287274,1.290909 F,0,40931,41404,1,0 F,0,41168,41404,1,0 F,0,41404,,0 F,0,41404,,1
Sprite,Foreground,Centre,"sb\light01.png",320,240 M,0,41089,,244.9452,257.4546 F,0,41089,41247,0,1 F,0,41089,41484,0,1 S,1,41089,41484,0.5287274,1.290909 F,0,41247,41720,1,0 F,0,41484,41720,1,0 F,0,41720,,0 F,0,41720,,1
Sprite,Foreground,Centre,"sb\light01.png",320,240 M,0,42352,,244.9452,256.8727 F,0,42352,42510,0,1 F,0,42352,42747,0,1 S,1,42352,42747,0.5287274,1.290909 F,0,42510,42983,1,0 F,0,42747,42983,1,0 F,0,42983,,0 F,0,42983,,1
Sprite,Foreground,Centre,"sb\light01.png",320,240 M,0,42668,,307.7816,98.61818 F,0,42668,42826,0,1 F,0,42668,43063,0,1 S,1,42668,43063,0.5287274,1.290909 F,0,42826,43299,1,0 F,0,43063,43299,1,0 F,0,43299,,0 F,0,43299,,1
Sprite,Foreground,Centre,"sb\light01.png",320,240 M,0,42983,,417.1634,233.0182 F,0,42983,43141,0,1 F,0,42983,43378,0,1 S,1,42983,43378,0.5287274,1.290909 F,0,43141,43614,1,0 F,0,43378,43614,1,0 F,0,43614,,0 F,0,43614,,1
Sprite,Foreground,Centre,"sb\light01.png",320,240 M,0,44246,,244.9451,257.4546 F,0,44246,44404,0,1 F,0,44246,44641,0,1 S,1,44246,44641,0.5287274,1.290909 F,0,44404,44877,1,0 F,0,44641,44877,1,0 F,0,44877,,0 F,0,44877,,1
Sprite,Foreground,Centre,"sb\light01.png",320,240 M,0,61299,,386.327,138.7637 F,0,61299,61457,0,1 F,0,61299,61694,0,1 S,1,61299,61694,0.5287274,1.290909 F,0,61457,61930,1,0 F,0,61694,61930,1,0 F,0,61930,,0 F,0,61930,,1
Sprite,Foreground,Centre,"sb\light01.png",320,240 M,0,61615,,240.8725,204.5092 F,0,61615,61773,0,1 F,0,61615,62010,0,1 S,1,61615,62010,0.5287274,1.290909 F,0,61773,62246,1,0 F,0,62010,62246,1,0 F,0,62246,,0 F,0,62246,,1
Sprite,Foreground,Centre,"sb\light01.png",320,240 M,0,61931,,412.5088,235.3455 F,0,61931,62089,0,1 F,0,61931,62326,0,1 S,1,61931,62326,0.5287274,1.290909 F,0,62089,62562,1,0 F,0,62326,62562,1,0 F,0,62562,,0 F,0,62562,,1
Sprite,Foreground,Centre,"sb\light01.png",320,240 M,0,62246,,269.3815,301.091 F,0,62246,62404,0,1 F,0,62246,62641,0,1 S,1,62246,62641,0.5287274,1.290909 F,0,62404,62877,1,0 F,0,62641,62877,1,0 F,0,62877,,0 F,0,62877,,1
Sprite,Foreground,Centre,"sb\light01.png",320,240 M,0,63194,,486.9816,269.6728 F,0,63194,63352,0,1 F,0,63194,63589,0,1 S,1,63194,63589,0.5287274,1.290909 F,0,63352,63825,1,0 F,0,63589,63825,1,0 F,0,63825,,0 F,0,63825,,1
Sprite,Foreground,Centre,"sb\light01.png",320,240 M,0,70773,,320.5816,120.1455 F,0,70773,70931,0,1 F,0,70773,71168,0,1 S,1,70773,71168,0.5287274,1.290909 F,0,70931,71404,1,0 F,0,71168,71404,1,0 F,0,71404,,0 F,0,71404,,1
Sprite,Foreground,Centre,"sb\light01.png",320,240 M,0,76457,,564.3633,285.9637 F,0,76457,76615,0,1 F,0,76457,76852,0,1 S,1,76457,76852,0.5287274,1.290909 F,0,76615,77088,1,0 F,0,76852,77088,1,0 F,0,77088,,0 F,0,77088,,1
Sprite,Foreground,Centre,"sb\light01.png",320,240 M,0,77404,,313.5997,318.5455 F,0,77404,77562,0,1 F,0,77404,77799,0,1 S,1,77404,77799,0.5287274,1.290909 F,0,77562,78035,1,0 F,0,77799,78035,1,0 F,0,78035,,0 F,0,78035,,1
Sprite,Foreground,Centre,"sb\light01.png",320,240 M,0,78352,,443.3452,297.0183 F,0,78352,78510,0,1 F,0,78352,78747,0,1 S,1,78352,78747,0.5287274,1.290909 F,0,78510,78983,1,0 F,0,78747,78983,1,0 F,0,78983,,0 F,0,78983,,1
Sprite,Foreground,Centre,"sb\light01.png",320,240 M,0,84036,,289.1634,126.5456 F,0,84036,84194,0,1 F,0,84036,84431,0,1 S,1,84036,84431,0.5287274,1.290909 F,0,84194,84667,1,0 F,0,84431,84667,1,0 F,0,84667,,0 F,0,84667,,1
Sprite,Foreground,Centre,"sb\light01.png",320,240 M,0,84352,,441.0179,198.1092 F,0,84352,84510,0,1 F,0,84352,84747,0,1 S,1,84352,84747,0.5287274,1.290909 F,0,84510,84983,1,0 F,0,84747,84983,1,0 F,0,84983,,0 F,0,84983,,1
Sprite,Foreground,Centre,"sb\light01.png",320,240 M,0,84668,,355.4906,355.2001 F,0,84668,84826,0,1 F,0,84668,85063,0,1 S,1,84668,85063,0.5287274,1.290909 F,0,84826,85299,1,0 F,0,85063,85299,1,0 F,0,85299,,0 F,0,85299,,1
Sprite,Foreground,Centre,"sb\light01.png",320,240 M,0,84983,,198.3997,270.8364 F,0,84983,85141,0,1 F,0,84983,85378,0,1 S,1,84983,85378,0.5287274,1.290909 F,0,85141,85614,1,0 F,0,85378,85614,1,0 F,0,85614,,0 F,0,85614,,1
Sprite,Foreground,Centre,"sb\light01.png",320,240 M,0,85931,,421.818,170.1819 F,0,85931,86089,0,1 F,0,85931,86326,0,1 S,1,85931,86326,0.5287274,1.290909 F,0,86089,86562,1,0 F,0,86326,86562,1,0 F,0,86562,,0 F,0,86562,,1
Sprite,Foreground,Centre,"sb\light01.png",320,240 M,0,93510,,384.5815,307.491 F,0,93510,93668,0,1 F,0,93510,93905,0,1 S,1,93510,93905,0.5287274,1.290909 F,0,93668,94141,1,0 F,0,93905,94141,1,0 F,0,94141,,0 F,0,94141,,1
Sprite,Foreground,Centre,"sb\light01.png",320,240 M,0,94457,,264.7271,129.4547 F,0,94457,94615,0,1 F,0,94457,94852,0,1 S,1,94457,94852,0.5287274,1.290909 F,0,94615,95088,1,0 F,0,94852,95088,1,0 F,0,95088,,0 F,0,95088,,1
Sprite,Foreground,Centre,"sb\light01.png",320,240 M,0,95404,,279.8544,341.2365 F,0,95404,95562,0,1 F,0,95404,95799,0,1 S,1,95404,95799,0.5287274,1.290909 F,0,95562,96035,1,0 F,0,95799,96035,1,0 F,0,96035,,0 F,0,96035,,1
Sprite,Foreground,Centre,"sb\light01.png",320,240 M,0,96352,,372.9452,253.9637 F,0,96352,96510,0,1 F,0,96352,96747,0,1 S,1,96352,96747,0.5287274,1.290909 F,0,96510,96983,1,0 F,0,96747,96983,1,0 F,0,96983,,0 F,0,96983,,1
Sprite,Foreground,Centre,"sb\light01.png",320,240 M,0,97299,,462.5452,367.4183 F,0,97299,97457,0,1 F,0,97299,97694,0,1 S,1,97299,97694,0.5287274,1.290909 F,0,97457,97930,1,0 F,0,97694,97930,1,0 F,0,97930,,0 F,0,97930,,1
Sprite,Foreground,Centre,"sb\light01.png",320,240 M,0,101089,,361.8907,138.7637 F,0,101089,101247,0,1 F,0,101089,101484,0,1 S,1,101089,101484,0.5287274,1.290909 F,0,101247,101720,1,0 F,0,101484,101720,1,0 F,0,101720,,0 F,0,101720,,1
Sprite,Foreground,Centre,"sb\light01.png",320,240 M,0,101404,,349.0906,218.4728 F,0,101404,101562,0,1 F,0,101404,101799,0,1 S,1,101404,101799,0.5287274,1.290909 F,0,101562,102035,1,0 F,0,101799,102035,1,0 F,0,102035,,0 F,0,102035,,1
Sprite,Foreground,Centre,"sb\light01.png",320,240 M,0,101720,,339.1998,299.9273 F,0,101720,101878,0,1 F,0,101720,102115,0,1 S,1,101720,102115,0.5287274,1.290909 F,0,101878,102351,1,0 F,0,102115,102351,1,0 F,0,102351,,0 F,0,102351,,1
Sprite,Foreground,Centre,"sb\light01.png",320,240 M,0,102036,,332.7998,377.891 F,0,102036,102194,0,1 F,0,102036,102431,0,1 S,1,102036,102431,0.5287274,1.290909 F,0,102194,102667,1,0 F,0,102431,102667,1,0 F,0,102667,,0 F,0,102667,,1
Sprite,Foreground,Centre,"sb\light01.png",320,240 M,0,102983,,282.1815,139.9274 F,0,102983,103141,0,1 F,0,102983,103378,0,1 S,1,102983,103378,0.5287274,1.290909 F,0,103141,103614,1,0 F,0,103378,103614,1,0 F,0,103614,,0 F,0,103614,,1
Sprite,Foreground,Centre,"sb\light01.png",320,240 M,0,103299,,294.3997,219.0546 F,0,103299,103457,0,1 F,0,103299,103694,0,1 S,1,103299,103694,0.5287274,1.290909 F,0,103457,103930,1,0 F,0,103694,103930,1,0 F,0,103930,,0 F,0,103930,,1
Sprite,Foreground,Centre,"sb\light01.png",320,240 M,0,103615,,304.2906,299.3456 F,0,103615,103773,0,1 F,0,103615,104010,0,1 S,1,103615,104010,0.5287274,1.290909 F,0,103773,104246,1,0 F,0,104010,104246,1,0 F,0,104246,,0 F,0,104246,,1
Sprite,Foreground,Centre,"sb\light01.png",320,240 M,0,103931,,314.7633,382.5456 F,0,103931,104089,0,1 F,0,103931,104326,0,1 S,1,103931,104326,0.5287274,1.290909 F,0,104089,104562,1,0 F,0,104326,104562,1,0 F,0,104562,,0 F,0,104562,,1
Sprite,Foreground,Centre,"sb\light01.png",320,240 M,0,108668,,351.9997,134.1092 F,0,108668,108826,0,1 F,0,108668,109063,0,1 S,1,108668,109063,0.5287274,1.290909 F,0,108826,109299,1,0 F,0,109063,109299,1,0 F,0,109299,,0 F,0,109299,,1
Sprite,Foreground,Centre,"sb\light01.png",320,240 M,0,104878,,282.7634,276.6546 F,0,104878,105036,0,1 F,0,104878,105273,0,1 S,1,104878,105273,0.5287274,1.290909 F,0,105036,105509,1,0 F,0,105273,105509,1,0 F,0,105509,,0 F,0,105509,,1
Sprite,Foreground,Centre,"sb\light01.png",320,240 M,0,121931,,289.7452,70.69101 F,0,121931,122089,0,1 F,0,121931,122326,0,1 S,1,121931,122326,0.5287274,1.290909 F,0,122089,122562,1,0 F,0,122326,122562,1,0 F,0,122562,,0 F,0,122562,,1
Sprite,Foreground,Centre,"sb\light01.png",320,240 M,0,122246,,458.4725,128.2911 F,0,122246,122404,0,1 F,0,122246,122641,0,1 S,1,122246,122641,0.5287274,1.290909 F,0,122404,122877,1,0 F,0,122641,122877,1,0 F,0,122877,,0 F,0,122877,,1
Sprite,Foreground,Centre,"sb\light01.png",320,240 M,0,122562,,283.927,170.1819 F,0,122562,122720,0,1 F,0,122562,122957,0,1 S,1,122562,122957,0.5287274,1.290909 F,0,122720,123193,1,0 F,0,122957,123193,1,0 F,0,123193,,0 F,0,123193,,1
Sprite,Foreground,Centre,"sb\light01.png",320,240 M,0,122878,,419.4906,227.7819 F,0,122878,123036,0,1 F,0,122878,123273,0,1 S,1,122878,123273,0.5287274,1.290909 F,0,123036,123509,1,0 F,0,123273,123509,1,0 F,0,123509,,0 F,0,123509,,1
Sprite,Foreground,Centre,"sb\light01.png",320,240 M,0,123825,,197.8179,294.691 F,0,123825,123983,0,1 F,0,123825,124220,0,1 S,1,123825,124220,0.5287274,1.290909 F,0,123983,124456,1,0 F,0,124220,124456,1,0 F,0,124456,,0 F,0,124456,,1
Sprite,Foreground,Centre,"sb\light01.png",320,240 M,0,131404,,340.9452,126.5455 F,0,131404,131562,0,1 F,0,131404,131799,0,1 S,1,131404,131799,0.5287274,1.290909 F,0,131562,132035,1,0 F,0,131799,132035,1,0 F,0,132035,,0 F,0,132035,,1
Sprite,Foreground,Centre,"sb\light01.png",320,240 M,0,138983,,324.6542,148.6546 F,0,138983,139141,0,1 F,0,138983,139378,0,1 S,1,138983,139378,0.5287274,1.290909 F,0,139141,139614,1,0 F,0,139378,139614,1,0 F,0,139614,,0 F,0,139614,,1
Sprite,Foreground,Centre,"sb\light01.png",320,240 M,0,139931,,426.4724,214.9818 F,0,139931,140089,0,1 F,0,139931,140326,0,1 S,1,139931,140326,0.5287274,1.290909 F,0,140089,140562,1,0 F,0,140326,140562,1,0 F,0,140562,,0 F,0,140562,,1
Sprite,Foreground,Centre,"sb\light01.png",320,240 M,0,140878,,329.3087,231.8545 F,0,140878,141036,0,1 F,0,140878,141273,0,1 S,1,140878,141273,0.5287274,1.290909 F,0,141036,141509,1,0 F,0,141273,141509,1,0 F,0,141509,,0 F,0,141509,,1
Sprite,Foreground,Centre,"sb\light01.png",320,240 M,0,141825,,410.1815,212.6545 F,0,141825,141983,0,1 F,0,141825,142220,0,1 S,1,141825,142220,0.5287274,1.290909 F,0,141983,142456,1,0 F,0,142220,142456,1,0 F,0,142456,,0 F,0,142456,,1
Sprite,Foreground,Centre,"sb\light01.png",320,240 M,0,142773,,329.3088,233.0182 F,0,142773,142931,0,1 F,0,142773,143168,0,1 S,1,142773,143168,0.5287274,1.290909 F,0,142931,143404,1,0 F,0,143168,143404,1,0 F,0,143404,,0 F,0,143404,,1
Sprite,Foreground,Centre,"sb\light01.png",320,240 M,0,143720,,399.7088,324.9456 F,0,143720,143878,0,1 F,0,143720,144115,0,1 S,1,143720,144115,0.5287274,1.290909 F,0,143878,144351,1,0 F,0,144115,144351,1,0 F,0,144351,,0 F,0,144351,,1
Sprite,Foreground,Centre,"sb\light01.png",320,240 M,0,145615,,324.0724,309.2364 F,0,145615,145773,0,1 F,0,145615,146010,0,1 S,1,145615,146010,0.5287274,1.290909 F,0,145773,146246,1,0 F,0,146010,146246,1,0 F,0,146246,,0 F,0,146246,,1
Sprite,Foreground,Centre,"sb\light01.png",320,240 M,0,144668,,428.7997,244.6546 F,0,144668,144826,0,1 F,0,144668,145063,0,1 S,1,144668,145063,0.5287274,1.290909 F,0,144826,145299,1,0 F,0,145063,145299,1,0 F,0,145299,,0 F,0,145299,,1
Sprite,Foreground,Centre,"sb\light01.png",320,240 M,0,146562,,148.3633,225.4546 F,0,146562,146720,0,1 F,0,146562,146957,0,1 S,1,146562,146957,0.5287274,1.290909 F,0,146720,147193,1,0 F,0,146957,147193,1,0 F,0,147193,,0 F,0,147193,,1
Sprite,Foreground,Centre,"sb\light01.png",320,240 M,0,147510,,381.0905,170.1819 F,0,147510,147668,0,1 F,0,147510,147905,0,1 S,1,147510,147905,0.5287274,1.290909 F,0,147668,148141,1,0 F,0,147905,148141,1,0 F,0,148141,,0 F,0,148141,,1
Sprite,Foreground,Centre,"sb\light01.png",320,240 M,0,148457,,122.1815,245.8182 F,0,148457,148615,0,1 F,0,148457,148852,0,1 S,1,148457,148852,0.5287274,1.290909 F,0,148615,149088,1,0 F,0,148852,149088,1,0 F,0,149088,,0 F,0,149088,,1
Sprite,Foreground,Centre,"sb\light01.png",320,240 M,0,149404,,402.0361,145.1636 F,0,149404,149562,0,1 F,0,149404,149799,0,1 S,1,149404,149799,0.5287274,1.290909 F,0,149562,150035,1,0 F,0,149799,150035,1,0 F,0,150035,,0 F,0,150035,,1
Sprite,Foreground,Centre,"sb\light01.png",320,240 M,0,150352,,155.345,179.4909 F,0,150352,150510,0,1 F,0,150352,150747,0,1 S,1,150352,150747,0.5287274,1.290909 F,0,150510,150983,1,0 F,0,150747,150983,1,0 F,0,150983,,0 F,0,150983,,1
Sprite,Foreground,Centre,"sb\light01.png",320,240 M,0,151299,,208.8724,413.3819 F,0,151299,151457,0,1 F,0,151299,151694,0,1 S,1,151299,151694,0.5287274,1.290909 F,0,151457,151930,1,0 F,0,151694,151930,1,0 F,0,151930,,0 F,0,151930,,1
Sprite,Foreground,Centre,"sb\light01.png",320,240 M,0,153194,,230.3996,438.4001 F,0,153194,153352,0,1 F,0,153194,153589,0,1 S,1,153194,153589,0.5287274,1.290909 F,0,153352,153825,1,0 F,0,153589,153825,1,0 F,0,153825,,0 F,0,153825,,1
Sprite,Foreground,Centre,"sb\light01.png",320,240 M,0,152246,,133.236,153.3092 F,0,152246,152404,0,1 F,0,152246,152641,0,1 S,1,152246,152641,0.5287274,1.290909 F,0,152404,152877,1,0 F,0,152641,152877,1,0 F,0,152877,,0 F,0,152877,,1
Sprite,Foreground,Centre,"sb\light01.png",320,240 M,0,2562,,155.927,253.9636 F,0,2562,2720,0,1 F,0,2562,2957,0,1 S,1,2562,2957,0.5287274,1.290909 F,0,2720,3193,1,0 F,0,2957,3193,1,0 F,0,3193,,0 F,0,3193,,1
Sprite,Foreground,Centre,"sb\light01.png",320,240 M,0,154141,,300.7997,197.5273 F,0,154141,154299,0,1 F,0,154141,154536,0,1 S,1,154141,154536,0.5287274,1.290909 F,0,154299,154772,1,0 F,0,154536,154772,1,0 F,0,154772,,0 F,0,154772,,1
Sprite,Foreground,Centre,"sb\light01.png",320,240 M,0,155089,,555.0542,244.0728 F,0,155089,155247,0,1 F,0,155089,155484,0,1 S,1,155089,155484,0.5287274,1.290909 F,0,155247,155720,1,0 F,0,155484,155720,1,0 F,0,155720,,0 F,0,155720,,1
Sprite,Foreground,Centre,"sb\light01.png",320,240 M,0,156036,,481.7451,318.5455 F,0,156036,156194,0,1 F,0,156036,156431,0,1 S,1,156036,156431,0.5287274,1.290909 F,0,156194,156667,1,0 F,0,156431,156667,1,0 F,0,156667,,0 F,0,156667,,1
Sprite,Foreground,Centre,"sb\light01.png",320,240 M,0,156983,,224.5815,320.291 F,0,156983,157141,0,1 F,0,156983,157378,0,1 S,1,156983,157378,0.5287274,1.290909 F,0,157141,157614,1,0 F,0,157378,157614,1,0 F,0,157614,,0 F,0,157614,,1
Sprite,Foreground,Centre,"sb\light01.png",320,240 M,0,158878,,285.0905,372.0727 F,0,158878,159036,0,1 F,0,158878,159273,0,1 S,1,158878,159273,0.5287274,1.290909 F,0,159036,159509,1,0 F,0,159273,159509,1,0 F,0,159509,,0 F,0,159509,,1
Sprite,Foreground,Centre,"sb\light01.png",320,240 M,0,157931,,316.5089,386.6181 F,0,157931,158089,0,1 F,0,157931,158326,0,1 S,1,157931,158326,0.5287274,1.290909 F,0,158089,158562,1,0 F,0,158326,158562,1,0 F,0,158562,,0 F,0,158562,,1
Sprite,Foreground,Centre,"sb\light01.png",320,240 M,0,160773,,372.3633,210.3273 F,0,160773,160931,0,1 F,0,160773,161168,0,1 S,1,160773,161168,0.5287274,1.290909 F,0,160931,161404,1,0 F,0,161168,161404,1,0 F,0,161404,,0 F,0,161404,,1
Sprite,Foreground,Centre,"sb\light01.png",320,240 M,0,161720,,412.5087,436.6546 F,0,161720,161878,0,1 F,0,161720,162115,0,1 S,1,161720,162115,0.5287274,1.290909 F,0,161878,162351,1,0 F,0,162115,162351,1,0 F,0,162351,,0 F,0,162351,,1
Sprite,Foreground,Centre,"sb\light01.png",320,240 M,0,169299,,559.1268,437.8182 F,0,169299,169457,0,1 F,0,169299,169694,0,1 S,1,169299,169694,0.5287274,1.290909 F,0,169457,169930,1,0 F,0,169694,169930,1,0 F,0,169930,,0 F,0,169930,,1
Sprite,Foreground,Centre,"sb\light01.png",320,240 M,0,174983,,387.4905,184.7273 F,0,174983,175141,0,1 F,0,174983,175378,0,1 S,1,174983,175378,0.5287274,1.290909 F,0,175141,175614,1,0 F,0,175378,175614,1,0 F,0,175614,,0 F,0,175614,,1
Sprite,Foreground,Centre,"sb\light01.png",320,240 M,0,175299,,543.4177,256.291 F,0,175299,175457,0,1 F,0,175299,175694,0,1 S,1,175299,175694,0.5287274,1.290909 F,0,175457,175930,1,0 F,0,175694,175930,1,0 F,0,175930,,0 F,0,175930,,1
Sprite,Foreground,Centre,"sb\light01.png",320,240 M,0,175615,,346.7632,323.2 F,0,175615,175773,0,1 F,0,175615,176010,0,1 S,1,175615,176010,0.5287274,1.290909 F,0,175773,176246,1,0 F,0,176010,176246,1,0 F,0,176246,,0 F,0,176246,,1
Sprite,Foreground,Centre,"sb\light01.png",320,240 M,0,175931,,521.3087,378.4728 F,0,175931,176089,0,1 F,0,175931,176326,0,1 S,1,175931,176326,0.5287274,1.290909 F,0,176089,176562,1,0 F,0,176326,176562,1,0 F,0,176562,,0 F,0,176562,,1
Sprite,Foreground,Centre,"sb\light01.png",320,240 M,0,207194,,70.39962,413.3819 F,0,207194,207352,0,1 F,0,207194,207589,0,1 S,1,207194,207589,0.5287274,1.290909 F,0,207352,207825,1,0 F,0,207589,207825,1,0 F,0,207825,,0 F,0,207825,,1
Sprite,Foreground,Centre,"sb\light01.png",320,240 M,0,222352,,432.2906,257.4546 F,0,222352,222510,0,1 F,0,222352,222747,0,1 S,1,222352,222747,0.5287274,1.290909 F,0,222510,222983,1,0 F,0,222747,222983,1,0 F,0,222983,,0 F,0,222983,,1
Sprite,Foreground,Centre,"sb\light01.png",320,240 M,0,214773,,499.1996,119.5637 F,0,214773,214931,0,1 F,0,214773,215168,0,1 S,1,214773,215168,0.5287274,1.290909 F,0,214931,215404,1,0 F,0,215168,215404,1,0 F,0,215404,,0 F,0,215404,,1
Sprite,Foreground,Centre,"sb\light01.png",320,240 M,0,220457,,123.9269,251.6364 F,0,220457,220615,0,1 F,0,220457,220852,0,1 S,1,220457,220852,0.5287274,1.290909 F,0,220615,221088,1,0 F,0,220852,221088,1,0 F,0,221088,,0 F,0,221088,,1
Sprite,Foreground,Centre,"sb\light01.png",320,240 M,0,220773,,213.5269,393.0181 F,0,220773,220931,0,1 F,0,220773,221168,0,1 S,1,220773,221168,0.5287274,1.290909 F,0,220931,221404,1,0 F,0,221168,221404,1,0 F,0,221404,,0 F,0,221404,,1
Sprite,Foreground,Centre,"sb\light01.png",320,240 M,0,221089,,275.7814,233.6001 F,0,221089,221247,0,1 F,0,221089,221484,0,1 S,1,221089,221484,0.5287274,1.290909 F,0,221247,221720,1,0 F,0,221484,221720,1,0 F,0,221720,,0 F,0,221720,,1
Sprite,Foreground,Centre,"sb\light01.png",320,240 M,0,221404,,370.036,372.6546 F,0,221404,221562,0,1 F,0,221404,221799,0,1 S,1,221404,221799,0.5287274,1.290909 F,0,221562,222035,1,0 F,0,221799,222035,1,0 F,0,222035,,0 F,0,222035,,1
Sprite,Foreground,Centre,"sb\light01.png",320,240 M,0,229931,,349.0905,145.1637 F,0,229931,230089,0,1 F,0,229931,230326,0,1 S,1,229931,230326,0.5287274,1.290909 F,0,230089,230562,1,0 F,0,230326,230562,1,0 F,0,230562,,0 F,0,230562,,1
Sprite,Foreground,Centre,"sb\light01.png",320,240 M,0,236562,,407.2724,226.6182 F,0,236562,236720,0,1 F,0,236562,236957,0,1 S,1,236562,236957,0.5287274,1.290909 F,0,236720,237193,1,0 F,0,236957,237193,1,0 F,0,237193,,0 F,0,237193,,1
Sprite,Foreground,Centre,"sb\light01.png",320,240 M,0,237510,,406.6906,231.2728 F,0,237510,237668,0,1 F,0,237510,237905,0,1 S,1,237510,237905,0.5287274,1.290909 F,0,237668,238141,1,0 F,0,237905,238141,1,0 F,0,238141,,0 F,0,238141,,1
Sprite,Foreground,Centre,"sb\light01.png",320,240 M,0,235615,,405.5269,229.5273 F,0,235615,235773,0,1 F,0,235615,236010,0,1 S,1,235615,236010,0.5287274,1.290909 F,0,235773,236246,1,0 F,0,236010,236246,1,0 F,0,236246,,0 F,0,236246,,1
Sprite,Foreground,Centre,"sb\light01.png",320,240 M,0,159825,,245.527,352.291 F,0,159825,159983,0,1 F,0,159825,160220,0,1 S,1,159825,160220,0.5287274,1.290909 F,0,159983,160456,1,0 F,0,160220,160456,1,0 F,0,160456,,0 F,0,160456,,1
Sprite,Foreground,Centre,"sb\light01.png",320,240 M,0,160141,,373.5269,212.0728 F,0,160141,160299,0,1 F,0,160141,160536,0,1 S,1,160141,160536,0.5287274,1.290909 F,0,160299,160772,1,0 F,0,160536,160772,1,0 F,0,160772,,0 F,0,160772,,1
Sprite,Foreground,Centre,"sb\light01.png",320,240 M,0,160457,,426.4724,393.6001 F,0,160457,160615,0,1 F,0,160457,160852,0,1 S,1,160457,160852,0.5287274,1.290909 F,0,160615,161088,1,0 F,0,160852,161088,1,0 F,0,161088,,0 F,0,161088,,1
//Storyboard Layer 4 (Overlay)
//Storyboard Sound Samples

[TimingPoints]
668,315.789473684211,3,3,1,60,1,0
32878,-100,3,3,1,60,0,1
33825,-200,3,3,1,60,0,0
34773,-100,3,3,1,60,0,1
35720,-200,3,3,1,60,0,0
36668,-100,3,3,1,60,0,0
40457,-83.3333333333333,3,3,1,60,0,1
41404,-83.3333333333333,3,3,1,60,0,0
42352,-83.3333333333333,3,3,1,60,0,1
43299,-83.3333333333333,3,3,1,60,0,0
44246,-100,3,3,1,60,0,0
48036,-142.857142857143,3,3,1,30,0,0
61299,-111.111111111111,3,3,1,60,0,1
63194,-100,3,3,1,60,0,0
78352,-100,3,3,1,30,0,0
84036,-100,3,3,1,60,0,1
85931,-90.9090909090909,3,3,1,60,0,0
93510,-100,3,3,1,60,0,1
94299,-100,3,3,1,5,0,1
94457,-62.5,3,3,1,60,0,0
94536,-62.5,3,3,1,5,0,0
95404,-86.9565217391304,3,3,1,60,0,1
96194,-86.9565217391304,3,3,1,5,0,1
96352,-62.5,3,3,1,60,0,0
96431,-45.4545454545455,3,3,1,5,0,0
97299,-100,3,3,1,60,0,0
101089,-100,3,3,1,60,0,1
102036,-100,3,3,1,60,0,0
102983,-100,3,3,1,60,0,1
103931,-100,3,3,1,60,0,0
108036,-100,3,3,1,30,0,0
108141,-100,3,3,1,40,0,0
108246,-100,3,3,1,50,0,0
108352,-100,3,3,1,60,0,0
108668,-100,3,3,1,45,0,0
121931,-100,3,3,1,60,0,0
138983,-90.9090909090909,3,3,1,60,0,1
160773,-200,3,3,1,60,0,0
161720,-100,3,3,1,60,0,0
174983,-100,3,3,1,60,0,1
175931,-100,3,3,1,60,0,0
176878,-200,3,3,1,30,0,0
192036,-333.333333333333,3,3,1,45,0,0
195825,-250,3,3,1,45,0,0
199615,-200,3,3,1,55,0,0
203404,-142.857142857143,3,3,1,55,0,0
205299,-142.857142857143,3,3,1,60,0,0
206246,-200,3,3,1,60,0,0
207194,-83.3333333333333,3,3,1,60,0,1
222036,-83.3333333333333,3,3,1,60,0,0
222352,-83.3333333333333,3,3,1,60,0,1
235299,-83.3333333333333,3,3,1,60,0,0
235615,-83.3333333333333,3,3,1,60,0,1
236246,-83.3333333333333,3,3,1,60,0,0
236562,-83.3333333333333,3,3,1,60,0,1
237194,-83.3333333333333,3,3,1,60,0,0
237510,-588.235294117647,3,3,1,40,0,0
238141,-588.235294117647,3,3,1,30,0,0
238773,-588.235294117647,3,3,1,20,0,0
239404,-588.235294117647,3,3,1,10,0,0
240352,-588.235294117647,3,3,1,5,0,0

[Colours]
Combo1 : 78,123,209
Combo2 : 199,153,230
Combo3 : 147,108,181
Combo4 : 51,108,172
SliderBorder : 78,123,209

[HitObjects]
113,87,1615,5,2,0:0:0:0:
113,87,1931,2,0,P|124:56|121:11,2,61.25,2|2|0,0:0|0:0|1:0,0:0:0:0:
30,128,2404,1,0,1:0:0:0:
89,197,2562,6,0,P|146:220|217:200,1,122.5,14|2,0:0|0:0,0:0:0:0:
245,143,3036,2,0,B|221:174|221:174|221:213|256:301,1,122.5,8|8,0:0|0:0,0:0:0:0:
304,329,3510,2,0,P|271:344|234:344,1,61.25,2|0,1:3|0:0,0:0:0:0:
181,271,3825,2,0,P|214:256|251:256,1,61.25,2|0,0:0|0:0,0:0:0:0:
304,329,4141,2,0,P|337:344|374:344,1,61.25,2|0,0:0|0:0,0:0:0:0:
416,276,4457,6,0,L|430:133,1,122.5,10|0,0:0|0:0,0:0:0:0:
494,117,4931,2,0,B|462:136|462:136|417:133|368:96,1,122.5,8|8,0:0|0:0,0:0:0:0:
314,52,5404,1,0,1:0:0:0:
131,93,5720,6,0,P|159:78|204:74,1,61.25,2|0,0:0|0:0,0:0:0:0:
263,121,6036,2,0,P|291:136|336:140,1,61.25,2|0,0:0|0:0,0:0:0:0:
395,95,6352,2,0,B|416:123|416:123|417:162|397:215,1,122.5,10|0,0:0|0:0,0:0:0:0:
430,288,6825,2,0,P|389:246|314:265,1,122.5,10|8,0:0|0:0,0:0:0:0:
267,297,7299,2,0,B|247:263|247:263|270:165,1,122.5,2|0,1:3|0:0,0:0:0:0:
308,111,7773,2,0,P|316:64|305:27,2,61.25,2|0|0,0:0|0:0|0:0,0:0:0:0:
265,182,8246,6,0,B|231:200|231:200|186:201|137:175,1,122.5,10|0,0:0|0:0,0:0:0:0:
100,124,8720,2,0,P|118:159|97:242,1,122.5,10|8,0:0|0:0,0:0:0:0:
37,289,9194,1,2,1:3:0:0:
146,354,9510,6,0,P|179:360|218:360,1,61.25,10|0,0:0|0:0,0:0:0:0:
279,315,9825,1,10,0:0:0:0:
279,315,9983,1,0,0:0:0:0:
345,260,10141,2,0,P|400:233|459:264,1,122.5,10|0,0:0|0:0,0:0:0:0:
492,321,10615,2,0,B|476:285|476:285|493:193,1,122.5,10|8,0:0|0:0,0:0:0:0:
466,126,11089,5,2,1:3:0:0:
335,22,11404,2,0,P|318:51|330:101,1,61.25,2|0,0:0|0:0,0:0:0:0:
359,152,11720,1,2,0:0:0:0:
359,152,11878,1,0,0:0:0:0:
299,211,12036,2,0,P|238:230|178:210,1,122.5,10|0,0:0|0:0,0:0:0:0:
133,156,12510,2,0,B|155:193|155:193|156:233|136:289,1,122.5,10|8,0:0|0:0,0:0:0:0:
83,339,12983,6,0,P|110:354|174:349,1,61.25,2|2,1:3|0:0,0:0:0:0:
212,314,13299,2,0,P|239:299|303:304,1,61.25,2|2,0:0|0:0,0:0:0:0:
338,348,13615,2,0,P|365:363|429:358,1,61.25,2|2,0:0|0:0,0:0:0:0:
462,312,13931,1,10,0:0:0:0:
462,312,14089,1,2,0:0:0:0:
462,312,14246,2,0,L|475:219,2,61.25,2|10|2,0:0|3:0|0:0,0:0:0:0:
394,367,14720,1,10,0:0:0:0:
394,367,14878,6,0,B|334:385|334:346|269:362,2,122.5,2|2|2,1:3|0:0|0:0,0:0:0:0:
470,251,15825,1,10,0:0:0:0:
365,160,16141,6,0,B|347:100|386:100|370:34,2,122.5,2|2|2,0:0|0:0|1:3,0:0:0:0:
470,251,17089,1,10,0:0:0:0:
365,160,17404,1,2,1:3:0:0:
365,160,17562,1,0,1:0:0:0:
365,160,17720,6,0,B|334:145|334:145|296:149|246:165,1,122.5,14|2,0:0|0:0,0:0:0:0:
196,223,18194,2,0,P|213:164|177:100,1,122.5,8|8,0:0|0:0,0:0:0:0:
136,46,18668,1,2,1:3:0:0:
16,153,18983,2,0,L|87:161,1,61.25,2|0,0:0|0:0,0:0:0:0:
81,248,19299,2,0,L|141:254,1,61.25,2|0,0:0|0:0,0:0:0:0:
220,217,19615,6,0,B|202:157|241:157|225:91,1,122.5,10|0,0:0|0:0,0:0:0:0:
287,52,20089,2,0,P|240:74|171:35,1,122.5,10|8,0:0|0:0,0:0:0:0:
121,0,20562,2,0,B|117:54|117:54|120:63|120:63|116:71|116:71|111:135,1,122.5,2|0,1:3|0:0,0:0:0:0:
53,176,21036,2,0,B|57:122|57:122|54:113|54:113|58:105|58:105|63:41,1,122.5,2|0,0:0|0:0,0:0:0:0:
135,19,21510,6,0,L|203:14,1,61.25,10|2,0:0|0:0,0:0:0:0:
177,97,21825,2,0,L|245:92,1,61.25,2|10,0:0|0:0,0:0:0:0:
219,175,22141,2,0,L|287:170,1,61.25,2|10,0:0|0:0,0:0:0:0:
356,130,22457,2,0,P|380:70|345:22,2,122.5,2|2|10,1:3|0:0|0:0,0:0:0:0:
249,177,23404,6,0,P|226:231|258:280,1,122.5,10|2,0:0|0:0,0:0:0:0:
329,314,23878,2,0,B|293:301|293:301|257:305|207:325,1,122.5,8|8,0:0|0:0,0:0:0:0:
127,358,24352,1,2,1:3:0:0:
53,251,24667,2,0,P|84:233|121:233,1,61.25,10|0,0:0|0:0,0:0:0:0:
185,266,24983,2,0,P|216:284|253:284,1,61.25,10|0,0:0|0:0,0:0:0:0:
316,230,25299,6,0,P|351:208|439:228,1,122.5,10|0,0:0|0:0,0:0:0:0:
468,288,25773,2,0,B|450:244|450:244|473:147,1,122.5,8|8,0:0|0:0,0:0:0:0:
491,87,26246,1,0,1:0:0:0:
357,144,26562,2,0,P|321:145|277:122,1,61.25,2|0,0:0|0:0,0:0:0:0:
226,98,26878,2,0,P|190:97|146:120,1,61.25,2|0,0:0|0:0,0:0:0:0:
96,150,27194,6,0,B|78:210|117:210|102:270,1,122.5,10|0,0:0|0:0,0:0:0:0:
51,330,27667,2,0,P|94:295|165:298,1,122.5,10|8,0:0|0:0,0:0:0:0:
237,328,28141,1,0,1:0:0:0:
178,203,28457,2,0,P|169:173|171:143,1,61.25,2|0,0:0|0:0,0:0:0:0:
214,63,28773,2,0,P|243:52|274:51,1,61.25,2|0,0:0|0:0,0:0:0:0:
353,53,29089,6,0,B|381:85|381:85|388:130|369:184,1,122.5,10|0,0:0|0:0,0:0:0:0:
311,206,29562,2,0,L|187:215,1,122.5,10|8,0:0|0:0,0:0:0:0:
112,235,30036,2,0,B|84:267|84:267|77:312|103:363,1,122.5,2|0,1:3|0:0,0:0:0:0:
170,366,30510,2,0,L|240:370,1,61.25,2|0,0:0|0:0,0:0:0:0:
315,361,30825,1,0,0:0:0:0:
379,308,30983,6,0,B|382:253|382:253|386:245|386:245|389:187,2,122.5,10|8|10,0:0|0:0|0:0,0:0:0:0:
253,308,31931,2,0,B|250:253|250:253|246:245|246:245|243:187,2,122.5,2|8|0,1:3|0:0|1:0,0:0:0:0:
243,187,32878,5,14,0:0:0:0:
348,325,33194,1,12,0:0:0:0:
176,343,33510,1,12,0:0:0:0:
266,166,33825,6,0,B|290:157|322:174|322:174|324:169|324:169|360:194|402:173,1,122.5,0|2,0:0|0:0,0:0:0:0:
371,28,34773,5,14,0:0:0:0:
266,166,35089,1,12,0:0:0:0:
438,184,35405,1,12,0:0:0:0:
348,7,35720,6,0,B|324:-2|292:15|292:15|290:10|290:10|254:35|212:14,1,122.5,2|0,0:0|0:0,0:0:0:0:
148,109,36668,6,0,B|140:167|140:167|146:175|146:175|137:235,1,122.5,14|0,0:0|0:0,0:0:0:0:
75,286,37141,2,0,P|40:297|-2:289,2,61.25,8|0|8,0:0|0:0|0:0,0:0:0:0:
137,228,37615,2,0,B|129:170|129:170|135:162|135:162|126:102,1,122.5,2|0,1:3|0:0,0:0:0:0:
39,36,38246,1,8,0:0:0:0:
126,108,38562,6,0,B|157:134|192:125|192:125|220:93|257:99,1,122.5,10|2,0:0|0:0,0:0:0:0:
373,202,39194,1,2,0:0:0:0:
426,109,39510,2,0,B|395:135|360:126|360:126|332:94|295:100,1,122.5,2|10,1:3|0:0,0:0:0:0:
179,203,40142,1,2,1:3:0:0:
246,359,40457,5,14,0:0:0:0:
351,221,40773,1,12,0:0:0:0:
179,203,41089,1,12,0:0:0:0:
179,203,42352,5,14,0:0:0:0:
241,45,42668,1,12,0:0:0:0:
350,179,42984,1,12,0:0:0:0:
179,203,44246,6,0,P|166:138|170:74,1,122.5,14|0,0:0|0:0,0:0:0:0:
237,27,44720,1,8,0:0:0:0:
307,81,44878,2,0,L|395:72,1,61.25,0|8,0:0|0:0,0:0:0:0:
419,16,45194,2,0,B|401:48|401:48|422:148,1,122.5,2|0,1:3|0:0,0:0:0:0:
452,208,45668,1,0,0:0:0:0:
396,271,45825,2,0,P|373:285|329:285,1,61.25,8|0,0:0|0:0,0:0:0:0:
265,261,46141,1,10,0:0:0:0:
202,163,46457,6,0,L|195:244,1,61.25,0|0,0:0|1:0,0:0:0:0:
280,119,46773,2,0,L|287:200,1,61.25,8|0,0:0|1:0,0:0:0:0:
361,92,47089,1,0,1:0:0:0:
445,0,47404,6,0,L|452:69,1,61.25,0|8,1:0|0:0,0:0:0:0:
367,39,47720,2,0,L|360:108,1,61.25,8|8,0:0|0:0,0:0:0:0:
298,158,48036,6,0,P|261:174|191:168,2,85.7499973831178,6|2|2,0:0|0:0|0:0,0:0:0:0:
367,115,48983,1,2,0:0:0:0:
320,21,49299,1,2,0:0:0:0:
243,91,49615,1,10,0:0:0:0:
367,115,49931,2,0,P|375:156|366:198,1,85.7499973831178,10|0,0:0|0:0,0:0:0:0:
339,282,50562,1,2,0:0:0:0:
279,217,50878,2,0,B|251:207|251:207|166:231,1,85.7499973831178,2|0,0:0|0:0,0:0:0:0:
126,273,51510,1,2,0:0:0:0:
198,223,51825,6,0,B|227:126|160:146|199:40,1,171.499994766236,10|2,0:0|0:0,0:0:0:0:
259,6,52773,2,0,P|299:-3|351:1,2,85.7499973831178,0|0|2,0:0|0:0|0:0,0:0:0:0:
190,71,53720,6,0,P|142:109|33:90,1,171.499994766236,10|2,0:0|0:0,0:0:0:0:
0,34,54668,2,0,B|29:65|29:65|15:203,1,171.499994766236,2|10,0:0|0:0,0:0:0:0:
0,265,55615,6,0,P|40:224|162:233,1,171.499994766236,10|0,0:0|0:0,0:0:0:0:
210,278,56562,2,0,P|253:291|299:284,2,85.7499973831178,2|2|2,0:0|0:0|0:0,0:0:0:0:
148,223,57510,2,0,B|126:116|188:158|160:46,1,171.499994766236,10|2,0:0|0:0,0:0:0:0:
95,9,58457,2,0,P|61:0|3:1,2,85.7499973831178,2|0|8,0:0|0:0|0:0,0:0:0:0:
158,69,59404,6,0,P|206:93|329:73,1,171.499994766236,10|2,0:0|0:0,0:0:0:0:
385,28,60352,2,0,P|419:19|477:20,2,85.7499973831178,0|0|0,0:0|0:0|0:0,0:0:0:0:
318,83,61299,6,0,B|262:103,1,55.1249983177186,14|0,1:3|0:0,0:0:0:0:
174,149,61615,2,0,B|229:169,1,55.1249983177186,8|0,0:0|0:0,0:0:0:0:
347,182,61931,2,0,B|291:202,1,55.1249983177186,10|0,0:0|0:0,0:0:0:0:
203,248,62247,2,0,B|258:268,1,55.1249983177186,14|0,1:3|0:0,0:0:0:0:
336,313,62562,1,8,0:0:0:0:
336,313,62720,1,0,1:0:0:0:
336,313,62878,1,2,1:3:0:0:
425,215,63194,6,0,P|443:172|418:96,1,122.5,14|2,0:0|0:0,0:0:0:0:
353,60,63668,1,8,0:0:0:0:
353,60,63825,2,0,P|315:48|275:54,1,61.25,0|8,0:0|0:0,0:0:0:0:
218,81,64141,1,2,1:3:0:0:
279,248,64457,1,2,0:0:0:0:
279,248,64615,2,0,B|298:213|298:213|294:165|281:112,1,122.5,2|0,0:0|0:0,0:0:0:0:
237,73,65089,6,0,P|291:105|364:82,1,122.5,10|0,0:0|0:0,0:0:0:0:
398,41,65562,2,0,B|379:76|379:76|396:177,1,122.5,10|8,0:0|0:0,0:0:0:0:
437,218,66036,2,0,P|383:186|311:216,1,122.5,2|0,1:3|0:0,0:0:0:0:
277,263,66510,2,0,P|223:295|150:272,1,122.5,2|0,0:0|0:0,0:0:0:0:
110,228,66983,6,0,B|87:161|134:161|105:95,1,122.5,10|0,0:0|0:0,0:0:0:0:
61,45,67457,2,0,P|31:38|0:36,2,61.25,10|0|8,0:0|0:0|0:0,0:0:0:0:
132,90,67931,2,0,B|151:144|107:153|133:212,1,122.5,10|0,0:0|0:0,0:0:0:0:
194,261,68404,2,0,P|223:267|255:261,2,61.25
110,227,68878,1,10,0:0:0:0:
42,112,69194,6,0,L|51:194,1,61.25,8|0,0:0|1:0,0:0:0:0:
131,85,69510,2,0,L|126:156,1,61.25,2|8,0:0|0:0,0:0:0:0:
214,57,69826,1,2,1:3:0:0:
416,133,70141,2,0,L|407:215,1,61.25,8|0,0:0|1:0,0:0:0:0:
327,106,70457,2,0,L|336:188,1,61.25,2|0,1:3|1:0,0:0:0:0:
255,65,70773,6,0,P|201:38|137:36,1,122.5,14|2,0:0|0:0,0:0:0:0:
77,6,71246,2,0,B|98:38|98:38|81:133,1,122.5,8|8,0:0|0:0,0:0:0:0:
43,197,71720,1,2,1:3:0:0:
110,288,72036,1,2,0:0:0:0:
110,288,72194,2,0,P|180:311|239:300,1,122.5,2|0,0:0|0:0,0:0:0:0:
309,250,72668,6,0,B|367:257|367:257|376:264|376:264|458:272,1,122.5,10|0,0:0|0:0,0:0:0:0:
450,337,73141,2,0,B|392:330|392:330|383:323|383:323|301:315,1,122.5,10|8,0:0|0:0,0:0:0:0:
270,255,73615,2,0,P|200:232|141:243,1,122.5,2|0,1:3|0:0,0:0:0:0:
86,295,74089,2,0,P|51:309|10:306,2,61.25,0|10|0,0:0|0:0|0:0,0:0:0:0:
152,238,74562,6,0,B|145:179|145:179|138:170|138:170|130:88,1,122.5,10|0,0:0|0:0,0:0:0:0:
68,92,75036,2,0,B|75:150|75:150|82:159|82:159|90:241,1,122.5,8|8,0:0|0:0,0:0:0:0:
155,263,75510,1,0,1:0:0:0:
258,192,75825,2,0,P|300:185|343:196,1,61.25
379,242,76141,1,10,0:0:0:0:
507,231,76457,6,0,P|468:347|357:375,1,245,10|10,0:0|0:0,0:0:0:0:
250,266,77404,2,0,P|288:144|391:115,1,245,10|10,0:0|0:0,0:0:0:0:
379,242,78352,1,14,0:0:0:0:
223,73,84036,6,0,P|264:104|271:127,1,61.25,14|0,1:3|0:0,0:0:0:0:
375,146,84352,2,0,P|343:187|320:194,1,61.25,10|0,1:3|0:0,0:0:0:0:
286,302,84668,2,0,P|244:270|237:247,1,61.25,10|0,1:3|0:0,0:0:0:0:
133,217,84984,2,0,P|164:175|187:168,1,61.25,10|8,0:0|1:3,0:0:0:0:
236,108,85299,1,10,1:3:0:0:
256,190,85457,1,8,0:0:0:0:
326,237,85615,1,10,1:3:0:0:
355,116,85931,2,0,P|340:151|235:186,1,134.750004112244,14|0,0:0|0:0,0:0:0:0:
187,139,86404,6,0,B|219:171|219:171|199:281,1,134.750004112244,8|8,0:0|0:0,0:0:0:0:
161,330,86878,2,0,P|94:345|34:304,1,134.750004112244,4|2,1:3|0:0,0:0:0:0:
9,181,87510,1,2,0:0:0:0:
115,98,87825,6,0,L|261:91,1,134.750004112244,10|0,0:0|0:0,0:0:0:0:
297,29,88299,2,0,P|275:94|315:142,1,134.750004112244,8|8,0:0|0:0,0:0:0:0:
376,194,88773,1,0,1:0:0:0:
286,339,89089,6,0,L|272:255,1,67.3750020561219,2|0,0:0|0:0,0:0:0:0:
367,298,89404,2,0,L|379:216,1,67.3750020561219,2|0,0:0|0:0,0:0:0:0:
464,283,89720,2,0,L|443:121,1,134.750004112244,10|0,0:0|0:0,0:0:0:0:
494,95,90194,2,0,P|452:126|351:96,1,134.750004112244,8|8,0:0|0:0,0:0:0:0:
328,49,90668,1,0,1:0:0:0:
183,54,90983,6,0,L|198:136,1,67.3750020561219,2|8,0:0|0:0,0:0:0:0:
102,95,91299,2,0,L|92:178,1,67.3750020561219,10|0,0:0|0:0,0:0:0:0:
6,129,91615,2,0,L|27:285,1,134.750004112244,10|0,0:0|0:0,0:0:0:0:
0,333,92088,2,0,P|42:302|142:333,1,134.750004112244,8|0,0:0|0:0,0:0:0:0:
191,342,92562,5,0,1:0:0:0:
287,333,92878,1,8,0:0:0:0:
416,373,93194,1,2,1:3:0:0:
317,252,93510,6,0,B|253:232|208:288|208:288|162:218|205:170|217:205|251:141|209:92,1,336.875,14|0,0:0|0:0,0:0:0:0:
201,77,94457,2,0,P|190:53|188:21,1,49,14|0,0:0|0:0,0:0:0:0:
216,288,95404,6,0,B|252:274|294:285|273:299|314:316|340:284|390:330|460:305|487:242|446:148|378:114|286:209|316:220,1,387.406257389188,14|0,0:0|0:0,0:0:0:0:
308,202,96352,2,0,P|264:211|250:204,1,49,12|0,0:0|0:0,0:0:0:0:
396,314,97299,6,0,L|253:324,1,122.5,14|0,0:0|0:0,0:0:0:0:
201,275,97773,1,2,0:0:0:0:
201,275,97931,2,0,P|191:240|207:203,1,61.25,8|0,0:0|0:0,0:0:0:0:
241,148,98246,2,0,P|257:98|220:38,1,122.5,2|0,1:3|0:0,0:0:0:0:
122,0,98878,1,8,0:0:0:0:
26,98,99194,6,0,L|15:228,1,122.5,10|0,0:0|0:0,0:0:0:0:
64,300,99668,1,10,0:0:0:0:
64,300,99826,2,0,P|101:318|156:305,1,61.25,0|8,0:0|0:0,0:0:0:0:
185,272,100141,1,10,1:3:0:0:
84,164,100457,2,0,P|124:126|192:119,1,122.5,10|2,0:0|1:3,0:0:0:0:
294,86,101089,6,0,L|372:80,1,61.25,14|0,0:0|0:0,0:0:0:0:
284,166,101404,2,0,L|362:160,1,61.25,12|0,0:0|0:0,0:0:0:0:
274,246,101720,2,0,L|352:240,1,61.25,12|0,0:0|0:0,0:0:0:0:
264,326,102036,2,0,L|342:320,1,61.25,12|0,0:0|0:0,0:0:0:0:
218,86,102983,6,0,L|140:80,1,61.25,14|0,0:0|0:0,0:0:0:0:
228,166,103299,2,0,L|150:160,1,61.25,12|0,0:0|0:0,0:0:0:0:
238,246,103615,2,0,L|160:240,1,61.25,12|0,0:0|0:0,0:0:0:0:
248,326,103931,2,0,L|170:320,1,61.25,12|0,0:0|0:0,0:0:0:0:
115,286,104246,2,0,B|85:277|85:277|54:282,2,61.25,10|2|0,0:0|1:3|1:0,0:0:0:0:
221,221,104878,6,0,P|237:160|229:86,1,122.5,14|2,0:0|0:0,0:0:0:0:
178,50,105352,2,0,B|213:67|213:67|331:38,1,122.5,8|8,0:0|0:0,0:0:0:0:
351,0,105825,6,0,P|336:48|359:130,1,122.5,2|0,1:3|0:0,0:0:0:0:
401,168,106299,2,0,B|355:152|355:152|266:195,1,122.5,2|0,0:0|0:0,0:0:0:0:
227,232,106773,6,0,P|151:252|103:226,1,122.5,10|8,0:0|0:0,0:0:0:0:
56,170,107246,1,0,0:0:0:0:
56,170,107404,2,0,P|47:117|54:90,1,61.25,8|0,0:0|0:0,0:0:0:0:
90,41,107720,1,2,1:3:0:0:
179,118,108036,6,0,B|200:127|200:127|230:126,2,40.8333333333333,0|0|0,1:0|1:0|1:0,0:0:0:0:
147,104,108352,1,0,1:0:0:0:
262,34,108668,6,0,P|315:18|387:49,2,122.5,14|2|2,0:0|0:0|0:0,0:0:0:0:
194,105,109457,1,8,0:0:0:0:
194,105,109615,2,0,L|62:118,1,122.5,2|2,1:3|0:0,0:0:0:0:
0,204,110246,1,2,0:0:0:0:
79,290,110562,2,0,B|111:312|111:312|161:316|195:279,1,122.5,10|0,0:0|0:0,0:0:0:0:
237,215,111036,1,10,0:0:0:0:
237,215,111194,2,0,P|248:181|244:139,1,61.25,0|8,0:0|0:0,0:0:0:0:
194,105,111510,6,0,B|222:119|222:119|340:92,1,122.5,2|0,1:3|0:0,0:0:0:0:
393,28,112141,1,2,0:0:0:0:
451,110,112457,2,0,P|470:182|441:232,1,122.5,10|0,0:0|0:0,0:0:0:0:
379,276,112931,1,8,0:0:0:0:
379,276,113089,2,0,P|329:285|300:278,1,61.25,2|8,0:0|0:0,0:0:0:0:
248,239,113404,2,0,L|239:107,1,122.5,0|0,1:0|0:0,0:0:0:0:
291,26,114036,1,2,0:0:0:0:
355,115,114352,6,0,P|285:133|237:115,1,122.5,10|0,0:0|0:0,0:0:0:0:
120,45,114983,1,10,0:0:0:0:
3,118,115299,2,0,P|73:136|121:118,1,122.5,2|8,1:3|0:0,0:0:0:0:
238,44,115930,1,10,0:0:0:0:
118,119,116246,6,0,L|110:258,1,122.5,14|0,0:0|0:0,0:0:0:0:
58,292,116720,2,0,B|101:270|101:270|209:287,1,122.5,8|8,0:0|0:0,0:0:0:0:
240,332,117194,2,0,P|293:357|371:325,2,122.5,2|2|2,1:3|0:0|0:0,0:0:0:0:
174,281,118141,2,0,L|165:156,1,122.5,10|0,0:0|0:0,0:0:0:0:
119,89,118615,1,8,0:0:0:0:
119,89,118773,2,0,P|79:80|29:100,1,61.25,2|8,0:0|0:0,0:0:0:0:
7,150,119089,2,0,L|2:272,1,122.5,2|0,1:3|0:0,0:0:0:0:
88,351,119720,1,0,0:0:0:0:
163,291,120036,6,0,P|229:275|300:297,1,122.5,10|0,0:0|0:0,0:0:0:0:
350,337,120510,1,8,0:0:0:0:
350,337,120668,2,0,P|407:350|434:344,1,61.25,10|0,0:0|0:0,0:0:0:0:
482,303,120983,1,0,1:0:0:0:
397,220,121299,2,0,L|392:74,1,122.5,0|0,0:0|0:0,0:0:0:0:
225,18,121931,6,0,P|249:36|284:41,1,61.25,10|0,0:0|0:0,0:0:0:0:
394,72,122246,2,0,B|371:97|335:95,1,61.25,8|0,0:0|0:0,0:0:0:0:
217,110,122562,2,0,B|236:136|276:133,1,61.25,10|0,0:0|0:0,0:0:0:0:
358,172,122878,2,0,B|339:202|293:199,1,61.25,2|0,1:3|0:0,0:0:0:0:
220,202,123194,1,8,1:3:0:0:
235,285,123352,1,0,1:0:0:0:
311,322,123510,1,2,1:3:0:0:
138,240,123825,6,0,P|122:179|144:112,1,122.5,14|2,0:0|0:0,0:0:0:0:
209,65,124299,1,0,0:0:0:0:
209,65,124457,2,0,P|256:54|289:59,1,61.25,2|0,0:0|0:0,0:0:0:0:
334,109,124773,1,14,1:3:0:0:
252,254,125089,5,2,0:0:0:0:
252,254,125246,2,0,B|236:213|236:213|260:101,1,122.5,2|0,0:0|0:0,0:0:0:0:
310,89,125720,2,0,P|240:107|182:74,1,122.5,10|0,0:0|0:0,0:0:0:0:
137,40,126194,2,0,B|164:70|164:70|134:190,1,122.5,10|8,0:0|0:0,0:0:0:0:
86,199,126668,2,0,P|157:187|212:225,1,122.5,2|0,1:3|0:0,0:0:0:0:
262,258,127141,2,0,P|316:282|375:268,1,122.5,2|0,0:0|0:0,0:0:0:0:
439,217,127615,6,0,L|449:78,1,122.5,10|0,0:0|0:0,0:0:0:0:
377,44,128089,2,0,P|336:37|302:41,2,61.25,10|0|0,0:0|0:0|0:0,0:0:0:0:
447,94,128562,2,0,L|438:216,1,122.5,2|0,1:3|0:0,0:0:0:0:
373,272,129036,2,0,B|314:294|314:250|243:276,1,122.5
183,309,129510,1,10,0:0:0:0:
105,200,129825,6,0,L|108:273,1,61.25,8|0,0:0|0:0,0:0:0:0:
195,167,130141,2,0,L|192:240,1,61.25,10|0,0:0|0:0,0:0:0:0:
276,133,130457,1,2,1:3:0:0:
443,149,130773,2,0,L|440:222,1,61.25,0|0,1:0|1:0,0:0:0:0:
353,116,131089,2,0,L|356:189,1,61.25,10|0,0:0|1:0,0:0:0:0:
278,73,131404,6,0,P|208:59|141:66,1,122.5,14|2,0:0|0:0,0:0:0:0:
88,45,131878,2,0,B|120:73|120:73|108:164,1,122.5,8|8,0:0|0:0,0:0:0:0:
58,228,132352,1,2,1:3:0:0:
167,335,132667,1,2,0:0:0:0:
167,335,132825,2,0,P|205:347|246:344,2,61.25,2|0|0,0:0|0:0|0:0,0:0:0:0:
102,269,133299,6,0,B|98:215|98:215|93:203|93:203|96:191|96:191|95:137,1,122.5,10|0,0:0|0:0,0:0:0:0:
137,104,133773,2,0,B|141:158|141:158|146:170|146:170|143:182|143:182|144:236,1,122.5,10|8,0:0|0:0,0:0:0:0:
197,291,134246,2,0,P|237:312|324:300,1,122.5,2|0,1:3|0:0,0:0:0:0:
378,253,134720,2,0,P|430:238|476:247,2,61.25,0|2|0,0:0|0:0|0:0,0:0:0:0:
312,306,135194,6,0,B|258:310|258:310|246:315|246:315|234:312|234:312|180:313,1,122.5,10|8,0:0|0:0,0:0:0:0:
146,284,135668,2,0,B|200:280|200:280|212:275|212:275|224:278|224:278|278:277,1,122.5,0|0,0:0|0:0,0:0:0:0:
316,203,136141,1,0,1:0:0:0:
406,85,136457,2,0,L|401:150,1,61.25,0|8,0:0|0:0,0:0:0:0:
329,52,136773,2,0,L|324:117,1,61.25,2|0,1:3|0:0,0:0:0:0:
254,26,137089,6,0,B|198:22|198:22|193:27|193:27|128:22,1,122.5,10|0,0:0|1:0,0:0:0:0:
331,2,137720,1,10,0:0:0:0:
336,118,138036,6,0,B|392:114|392:114|397:119|397:119|462:114,1,122.5,0|0,1:0|1:0,0:0:0:0:
482,39,138510,2,0,L|410:45,1,61.25,0|2,1:0|1:3,0:0:0:0:
261,95,138983,6,0,B|216:99|216:99|212:96|212:96|166:100|166:100|161:96|161:96|124:98,2,134.750004112244,14|8|8,0:0|0:0|0:0,0:0:0:0:
366,163,139931,6,0,B|411:167|411:167|415:164|415:164|455:169|455:169|462:164|462:164|501:166,2,134.750004112244,12|10|10,0:0|0:0|0:0,0:0:0:0:
264,178,140878,6,0,B|270:210|270:210|265:220|265:220|270:226|270:226|273:269|273:269|279:279|279:279|274:289|274:289|277:318,1,134.750004112244,14|8,0:0|0:0,0:0:0:0:
184,205,141510,1,10,0:0:0:0:
348,160,141825,6,0,B|342:128|342:128|347:118|347:118|342:112|342:112|339:69|339:69|333:59|333:59|338:49|338:49|336:19,1,134.750004112244,14|8,0:0|0:0,0:0:0:0:
428,133,142457,1,10,0:0:0:0:
264,178,142773,6,0,B|219:182|219:182|215:179|215:179|171:183|171:183|162:179|162:179|123:182,2,134.750004112244,12|10|10,0:0|0:0|0:0,0:0:0:0:
334,270,143721,6,0,B|379:274|379:274|383:271|383:271|428:274|428:274|435:270|435:270|470:273,2,134.750004112244,14|8|10,0:0|0:0|0:0,0:0:0:0:
363,189,144668,6,0,B|369:157|369:157|364:147|364:147|369:141|369:141|372:98|372:98|378:88|378:88|373:78|373:78|376:51,1,134.750004112244,12|10,0:0|0:0,0:0:0:0:
449,159,145300,1,10,0:0:0:0:
255,237,145615,6,0,B|249:269|249:269|254:279|254:279|249:285|249:285|246:328|246:328|240:338|240:338|245:348|245:348|242:375,1,134.750004112244,14|10,0:0|0:0,0:0:0:0:
169,267,146247,1,10,0:0:0:0:
81,169,146562,6,0,B|138:174|138:174|154:181|154:181|215:185,2,134.750004112244,14|8|8,0:0|0:0|0:0,0:0:0:0:
314,114,147510,6,0,B|256:108|256:108|239:100|239:100|174:93,2,134.750004112244,14|8|8,0:0|0:0|0:0,0:0:0:0:
55,189,148457,5,14,0:0:0:0:
135,213,148773,1,8,0:0:0:0:
219,205,149089,1,8,0:0:0:0:
339,92,149404,5,14,0:0:0:0:
260,63,149720,1,8,0:0:0:0:
176,66,150036,1,8,0:0:0:0:
89,125,150352,6,0,B|83:182|83:182|77:192|77:192|70:261,2,134.750004112244,14|8|8,0:0|0:0|0:0,0:0:0:0:
144,358,151300,6,0,B|149:300|149:300|155:290|155:290|162:221,2,134.750004112244,14|0|0,0:0|0:0|0:0,0:0:0:0:
69,99,152247,5,14,1:3:0:0:
45,179,152563,1,8,1:3:0:0:
53,263,152879,1,10,1:3:0:0:
165,383,153194,5,10,1:3:0:0:
194,304,153510,2,0,L|285:298,1,67.3750020561219,10|8,1:3|1:3,0:0:0:0:
191,220,153825,2,0,L|104:214,1,67.3750020561219,10|8,1:3|1:3,0:0:0:0:
236,143,154141,1,12,0:0:0:0:
305,233,154457,6,0,B|330:259|359:256|359:256|398:224|446:253,1,134.750004112244,10|10,0:0|0:0,0:0:0:0:
490,189,155089,2,0,B|505:163|491:127|491:127|500:131|500:131|489:92|505:65,2,134.750004112244,14|8|10,1:3|0:0|0:3,0:0:0:0:
414,262,156036,1,12,0:0:0:0:
335,321,156352,6,0,B|310:347|281:344|281:344|241:314|192:341,1,134.750004112244,10|10,0:0|0:0,0:0:0:0:
160,267,156984,2,0,B|144:241|159:204|159:204|151:207|151:207|161:173|145:147,2,134.750004112244,14|8|10,0:0|0:0|0:0,0:0:0:0:
251,327,157931,5,14,0:0:0:0:
254,218,158246,1,8,0:0:0:0:
348,278,158562,1,8,0:0:0:0:
221,315,158878,5,14,0:0:0:0:
274,192,159193,1,8,0:0:0:0:
351,300,159509,1,10,0:0:0:0:
181,294,159825,5,14,0:0:0:0:
309,156,160140,1,12,0:0:0:0:
362,338,160456,1,12,0:0:0:0:
309,156,160773,6,0,B|309:191|309:191|303:208|303:208|302:246|302:246|297:266|297:266|297:313,1,153.125,14|0,0:0|0:0,0:0:0:0:
346,381,161720,6,0,P|296:349|229:361,1,122.5,12|0,0:0|0:0,0:0:0:0:
171,384,162194,2,0,B|197:351|197:351|204:307|186:260,1,122.5,8|8,0:0|0:0,0:0:0:0:
144,205,162667,1,12,1:3:0:0:
22,165,162983,2,0,P|13:207|25:236,2,61.25,0|0|8,0:0|0:0|0:0,0:0:0:0:
82,105,163457,1,0,0:0:0:0:
82,105,163615,6,0,L|214:108,1,122.5,8|0,0:0|0:0,0:0:0:0:
263,59,164089,2,0,B|236:104|236:104|236:137|267:171,1,122.5,8|8,0:0|0:0,0:0:0:0:
303,234,164562,1,12,1:3:0:0:
232,283,164878,2,0,B|216:263|216:263|208:210,2,61.25,0|8|8,0:0|0:0|0:0,0:0:0:0:
306,339,165352,1,0,0:0:0:0:
378,283,165510,6,0,B|392:247|392:247|392:202|379:142,1,122.5,8|0,0:0|0:0,0:0:0:0:
425,101,165983,2,0,P|358:140|309:131,1,122.5,8|8,0:0|0:0,0:0:0:0:
243,72,166457,1,12,1:3:0:0:
154,155,166773,2,0,P|188:164|242:163,2,61.25,0|0|8,0:0|0:0|0:0,0:0:0:0:
106,80,167246,1,0,0:0:0:0:
52,146,167404,6,0,L|39:274,1,122.5,8|8,0:0|0:0,0:0:0:0:
0,328,167878,2,0,P|66:295|120:314,1,122.5,0|8,1:0|0:0,0:0:0:0:
186,343,168352,1,2,1:3:0:0:
336,242,168667,5,0,1:0:0:0:
301,317,168825,1,0,1:0:0:0:
360,375,168983,2,0,L|433:386,1,61.25,0|0,1:0|0:0,0:0:0:0:
493,384,169299,6,0,B|466:355|466:355|464:312|491:249,1,122.5,14|0,0:0|0:0,0:0:0:0:
512,204,169773,2,0,P|437:214|383:175,1,122.5,8|8,0:0|0:0,0:0:0:0:
316,146,170246,1,12,1:3:0:0:
400,40,170562,2,0,L|389:117,2,61.25
469,0,171036,1,0,0:0:0:0:
511,70,171194,6,0,B|519:107|519:107|496:201,1,122.5,8|0,0:0|0:0,0:0:0:0:
508,266,171667,2,0,P|454:225|360:240,1,122.5,8|8,0:0|0:0,0:0:0:0:
324,247,172141,1,12,1:3:0:0:
181,304,172457,2,0,L|244:311,2,61.25
109,265,172931,1,0,0:0:0:0:
49,211,173089,6,0,L|44:87,1,122.5,8|0,0:0|0:0,0:0:0:0:
0,27,173562,2,0,B|36:50|36:50|128:32,1,122.5,8|8,0:0|0:0,0:0:0:0:
197,22,174036,1,12,1:3:0:0:
184,161,174352,2,0,P|172:125|170:95,2,61.25,0|0|0,0:0|0:0|0:0,0:0:0:0:
264,198,174825,1,0,0:0:0:0:
316,128,174983,6,0,L|413:120,1,61.25,12|0,0:0|0:0,0:0:0:0:
475,201,175299,2,0,L|378:193,1,61.25,12|0,0:0|0:0,0:0:0:0:
276,267,175615,2,0,L|373:259,1,61.25,12|0,0:0|0:0,0:0:0:0:
452,322,175931,1,10,0:0:0:0:
276,267,176878,6,0,P|256:209|279:147,1,122.5,10|10,0:0|0:0,0:0:0:0:
341,103,177825,2,0,P|381:94|402:92,2,61.25,2|2|2,1:3|0:0|0:0,0:0:0:0:
274,152,178773,2,0,P|210:168|154:141,1,122.5,10|10,0:0|0:0,0:0:0:0:
115,87,179720,2,0,B|120:150|120:150|125:156|125:156|131:221,1,122.5,2|2,1:3|0:0,0:0:0:0:
177,276,180667,6,0,P|221:296|304:289,1,122.5,10|10,0:0|0:0,0:0:0:0:
363,251,181615,2,0,L|372:124,1,122.5,2|2,1:3|0:0,0:0:0:0:
320,65,182562,1,10,0:0:0:0:
460,100,183194,1,10,0:0:0:0:
460,100,183510,2,0,L|451:227,1,122.5,2|2,1:3|0:0,0:0:0:0:
386,278,184457,6,0,P|327:296|258:265,1,122.5,2|2,0:0|0:0,0:0:0:0:
225,217,185404,2,0,B|246:251|246:251|222:351,1,122.5,2|2,1:3|0:0,0:0:0:0:
161,361,186352,2,0,B|201:364|201:364|206:368|206:368|238:371|238:371|242:376|242:376|283:379,1,122.5,10|10,0:0|0:0,0:0:0:0:
365,346,187299,2,0,P|387:302|373:217,1,122.5,2|2,1:3|0:0,0:0:0:0:
342,155,188246,5,8,0:0:0:0:
223,210,188562,2,0,P|276:219|306:207,1,61.25,2|10,0:0|0:0,0:0:0:0:
342,155,189194,2,0,P|359:90|336:27,1,122.5,2|2,1:3|0:0,0:0:0:0:
267,4,190141,2,0,L|141:-1,1,122.5,10|10,0:0|0:0,0:0:0:0:
80,46,191089,2,0,P|64:104|81:162,1,122.5,2|2,1:3|0:0,0:0:0:0:
156,212,192036,6,0,L|197:219,1,36.749998878479,14|8,0:0|0:0,0:0:0:0:
274,227,192667,1,10,0:0:0:0:
150,200,192983,6,0,L|191:207,1,36.749998878479,10|8,0:0|0:0,0:0:0:0:
283,220,193615,1,10,0:0:0:0:
365,173,193931,2,0,P|380:124|380:88,1,73.4999977569581,10|8,0:0|0:0,0:0:0:0:
300,32,194878,2,0,P|285:81|285:117,1,73.4999977569581,10|8,0:0|0:0,0:0:0:0:
356,212,195825,6,0,L|301:219,1,49,10|8,0:0|0:0,0:0:0:0:
217,239,196457,1,10,0:0:0:0:
366,196,196773,6,0,L|311:203,1,49,10|8,0:0|0:0,0:0:0:0:
201,222,197405,1,10,0:0:0:0:
124,159,197720,2,0,P|108:111|112:61,1,98,10|10,0:0|0:0,0:0:0:0:
216,10,198667,2,0,P|232:58|228:108,1,98,10|10,0:0|1:3,0:0:0:0:
142,212,199615,6,0,L|207:220,1,61.25,14|8,1:3|0:0,0:0:0:0:
299,233,200247,1,10,0:0:0:0:
132,194,200562,6,0,L|197:202,1,61.25,10|8,0:0|0:0,0:0:0:0:
326,217,201194,1,10,0:0:0:0:
409,173,201510,6,0,P|424:138|417:96,1,61.25,10|8,0:0|0:0,0:0:0:0:
363,37,202141,1,8,0:0:0:0:
294,204,202457,6,0,P|279:169|286:127,1,61.25,10|8,0:0|0:0,0:0:0:0:
340,68,203088,1,10,1:3:0:0:
422,250,203404,6,0,L|323:262,1,85.7499973831178,10|8,1:3|1:3,0:0:0:0:
241,273,204036,1,10,1:3:0:0:
450,222,204352,6,0,L|351:234,1,85.7499973831178,10|8,1:3|1:3,0:0:0:0:
196,254,204984,1,10,1:3:0:0:
63,169,205299,6,0,L|162:181,1,85.7499973831178,10|8,1:3|1:3,0:0:0:0:
296,196,205931,1,10,1:3:0:0:
37,149,206246,6,0,B|13:190|30:221|30:221|22:242|22:242|44:274|23:313,1,153.125,10|0,1:3|0:0,0:0:0:0:
0,359,207194,6,0,P|41:332|145:343,1,146.999995513916,14|2,0:0|0:0,0:0:0:0:
198,384,207667,2,0,B|181:337|181:337|224:205,1,146.999995513916,8|8,0:0|0:0,0:0:0:0:
238,165,208141,1,2,1:3:0:0:
391,214,208457,2,0,P|315:229|294:223,1,73.4999977569581,2|0,0:0|0:0,0:0:0:0:
238,165,208773,2,0,P|162:150|141:156,1,73.4999977569581,2|0,0:0|0:0,0:0:0:0:
83,169,209089,6,0,L|71:324,1,146.999995513916,10|0,0:0|0:0,0:0:0:0:
17,363,209562,2,0,P|92:331|162:353,1,146.999995513916,8|8,0:0|0:0,0:0:0:0:
232,384,210036,1,2,1:3:0:0:
313,313,210352,2,0,P|326:272|308:219,1,73.4999977569581,0|2,0:0|0:0,0:0:0:0:
242,197,210668,2,0,P|229:156|247:103,1,73.4999977569581,0|2,0:0|0:0,0:0:0:0:
299,36,210983,6,0,L|450:28,1,146.999995513916,10|0,0:0|0:0,0:0:0:0:
497,0,211457,2,0,B|478:37|478:37|497:107|497:107|488:145,1,146.999995513916,8|8,0:0|0:0,0:0:0:0:
450,230,211931,1,0,1:0:0:0:
356,325,212246,2,0,L|429:332,2,73.4999977569581,0|0|2,0:0|0:0|0:0,0:0:0:0:
276,289,212720,1,0,0:0:0:0:
208,239,212878,6,0,B|121:229|154:292|61:282,2,146.999995513916,10|0|2,0:0|0:0|0:0,0:0:0:0:
281,164,213825,2,0,B|368:154|335:217|428:207,1,146.999995513916,2|8,1:3|0:0,0:0:0:0:
456,146,214299,2,0,B|443:177|443:177|462:233,2,73.4999977569581,8|2|0,1:3|1:3|1:0,0:0:0:0:
431,64,214773,6,0,P|362:36|278:59,1,146.999995513916,14|0,0:0|0:0,0:0:0:0:
230,101,215246,2,0,L|225:282,1,146.999995513916,8|8,0:0|0:0,0:0:0:0:
274,310,215720,6,0,P|309:324|358:314,1,73.4999977569581,2|0,1:3|0:0,0:0:0:0:
465,372,216036,2,0,P|450:336|404:309,1,73.4999977569581,2|0,0:0|0:0,0:0:0:0:
416,185,216352,2,0,P|390:213|383:267,1,73.4999977569581,10|0,0:0|0:0,0:0:0:0:
356,354,216667,2,0,P|289:380|220:347,1,146.999995513916,10|0,0:0|0:0,0:0:0:0:
169,295,217141,2,0,P|102:269|33:302,1,146.999995513916,10|8,0:0|0:0,0:0:0:0:
0,371,217615,1,2,1:3:0:0:
169,295,217931,2,0,P|190:251|178:211,1,73.4999977569581,0|2,0:0|0:0,0:0:0:0:
123,169,218246,2,0,P|111:122|128:84,1,73.4999977569581
216,72,218562,6,0,L|396:69,1,146.999995513916,10|0,0:0|0:0,0:0:0:0:
407,2,219036,2,0,B|381:44|381:44|400:159,1,146.999995513916,8|8,0:0|0:0,0:0:0:0:
414,232,219510,1,0,1:0:0:0:
248,302,219825,2,0,P|202:281|168:292,1,73.4999977569581
110,336,220141,2,0,P|67:355|25:343,1,73.4999977569581
56,197,220457,6,0,B|63:278,1,73.4999977569581,10|0,0:0|0:0,0:0:0:0:
147,336,220773,2,0,B|140:255,1,73.4999977569581,0|0,1:0|0:0,0:0:0:0:
209,181,221089,2,0,B|216:262,1,73.4999977569581,10|0,0:0|0:0,0:0:0:0:
302,316,221404,2,0,B|295:235,2,73.4999977569581,2|0|8,1:3|1:0|0:0,0:0:0:0:
384,363,221878,1,0,1:0:0:0:
384,363,222036,1,2,1:3:0:0:
363,202,222352,6,0,P|303:162|228:194,1,146.999995513916,14|2,0:0|0:0,0:0:0:0:
175,237,222825,1,8,0:0:0:0:
175,237,222983,2,0,L|68:243,1,73.4999977569581,0|8,0:0|0:0,0:0:0:0:
36,186,223299,1,10,1:3:0:0:
125,326,223615,1,2,0:0:0:0:
125,326,223773,2,0,P|194:356|269:318,1,146.999995513916,2|0,0:0|0:0,0:0:0:0:
308,267,224246,6,0,L|312:108,1,146.999995513916,10|0,0:0|0:0,0:0:0:0:
254,56,224720,2,0,P|198:45|170:54,2,73.4999977569581,10|0|8,0:0|0:0|0:0,0:0:0:0:
311,120,225194,2,0,L|314:266,1,146.999995513916,2|0,1:3|0:0,0:0:0:0:
372,323,225667,2,0,P|428:334|456:325,2,73.4999977569581,2|0|0,0:0|0:0|0:0,0:0:0:0:
314,266,226141,6,0,P|234:245|142:253,1,146.999995513916,10|0,0:0|0:0,0:0:0:0:
132,185,226615,2,0,B|139:257|139:257|145:263|145:263|140:272|140:272|144:328,1,146.999995513916,10|8,0:0|0:0,0:0:0:0:
84,377,227089,2,0,B|77:305|77:305|71:299|71:299|76:290|76:290|72:234,1,146.999995513916,10|0,1:3|0:0,0:0:0:0:
123,156,227562,2,0,P|203:134|295:142,1,146.999995513916
354,176,228036,1,10,0:0:0:0:
454,256,228352,6,0,L|451:338,1,73.4999977569581,0|8,0:0|0:0,0:0:0:0:
363,211,228667,2,0,L|366:293,1,73.4999977569581,10|0,0:0|0:0,0:0:0:0:
285,177,228983,1,2,1:3:0:0:
115,170,229299,6,0,L|118:252,1,73.4999977569581,8|0,1:3|1:0,0:0:0:0:
206,125,229615,2,0,L|203:207,1,73.4999977569581,2|0,1:3|1:0,0:0:0:0:
284,91,229931,6,0,P|342:73|442:93,1,146.999995513916,14|2,0:0|0:0,0:0:0:0:
483,39,230404,2,0,B|461:73|461:73|478:207,1,146.999995513916,8|8,0:0|0:0,0:0:0:0:
489,275,230878,1,2,1:3:0:0:
329,354,231194,1,2,0:0:0:0:
329,354,231352,2,0,B|351:320|351:320|334:186,1,146.999995513916,2|0,0:0|0:0,0:0:0:0:
351,137,231825,6,0,B|286:151|286:151|273:165|273:165|201:178,1,146.999995513916,10|0,0:0|0:0,0:0:0:0:
151,144,232299,2,0,B|216:130|216:130|229:116|229:116|301:103,1,146.999995513916,10|8,0:0|0:0,0:0:0:0:
354,156,232773,2,0,P|372:217|351:319,1,146.999995513916,2|0,1:3|0:0,0:0:0:0:
287,345,233246,2,0,P|227:355|182:351,2,73.4999977569581,0|10|0,0:0|0:0|0:0,0:0:0:0:
360,298,233720,6,0,L|366:128,1,146.999995513916,14|0,0:0|0:0,0:0:0:0:
413,92,234194,2,0,B|372:122|372:122|254:103,1,146.999995513916,0|0,0:0|0:0,0:0:0:0:
192,88,234667,1,0,1:0:0:0:
74,165,234983,6,0,P|123:176|165:154,1,73.4999977569581,8|0,0:0|0:0,0:0:0:0:
206,122,235299,2,0,P|255:111|297:133,1,73.4999977569581,2|0,1:3|0:0,0:0:0:0:
342,172,235615,6,0,B|434:96|506:242|415:302|370:239|370:356,1,293.999991027832,14|2,0:0|0:0,0:0:0:0:
342,172,236562,2,0,B|230:128|207:289|316:322|343:252|376:359,1,293.999991027832,14|2,0:0|0:0,0:0:0:0:
342,172,237510,6,0,B|351:209|351:209|337:237|337:237|358:266|358:266|347:299|347:299|368:320|368:320|370:339,1,187.425001143951,14|0,0:0|2:0,0:0:0:0:
