osu file format v14

[General]
AudioFilename: audio.mp3
AudioLeadIn: 0
PreviewTime: 32720
Countdown: 0
SampleSet: Soft
StackLeniency: 0.4
Mode: 0
LetterboxInBreaks: 0
WidescreenStoryboard: 0

[Editor]
Bookmarks: 668,2563,17720,32878,36668,40457,44247,48036,61299,63194,78352,84036,85931,93510,97299,101089,104878,108668,121931,123826,138984,154141,161720,176878,192036,199615,206247,207194,222352,235615
DistanceSpacing: 0.8
BeatDivisor: 4
GridSize: 32
TimelineZoom: 2.6

[Metadata]
Title:Line Without a Hook
TitleUnicode:Line Without a Hook
Artist:Ricky Montgomery
ArtistUnicode:Ricky Montgomery
Creator:hypercyte
Version:Expert
Source:osu!
Tags:alternative rock indie english featured artist fa mapper's guild mappers guild mpg hypercute rohmontgomery rickymontgomery the honeysticks full spread
BeatmapID:2224972
BeatmapSetID:1062477

[Difficulty]
HPDrainRate:6.4
CircleSize:4.4
OverallDifficulty:8.2
ApproachRate:9.2
SliderMultiplier:1.74
SliderTickRate:1

[Events]
//Background and Video events
0,0,"4 without a hook.jpg",0,0
//Break Periods
//Storyboard Layer 0 (Background)
//Storyboard Layer 1 (Fail)
//Storyboard Layer 2 (Pass)
//Storyboard Layer 3 (Foreground)
//Storyboard Layer 4 (Overlay)
//Storyboard Sound Samples

[TimingPoints]
668,315.789473684211,3,2,4,44,1,0
668,-200,3,2,4,44,0,0
2562,-111.111111111111,3,2,4,54,0,0
3273,-111.111111111111,3,2,4,5,0,0
3352,-111.111111111111,3,2,4,54,0,0
4378,-111.111111111111,3,2,4,5,0,0
4457,-111.111111111111,3,2,4,54,0,0
10852,-111.111111111111,3,2,4,5,0,0
10931,-111.111111111111,3,2,4,54,0,0
17720,-117.647058823529,3,2,4,54,0,0
26010,-117.647058823529,3,2,4,5,0,0
26089,-117.647058823529,3,2,4,54,0,0
27904,-117.647058823529,3,2,4,5,0,0
27983,-117.647058823529,3,2,4,54,0,0
32878,-66.6666666666667,3,2,4,84,0,0
33115,-66.6666666666667,3,2,4,5,0,0
33194,-66.6666666666667,3,2,4,84,0,0
33431,-66.6666666666667,3,2,4,5,0,0
33510,-66.6666666666667,3,2,4,84,0,0
33746,-66.6666666666667,3,2,4,5,0,0
33825,-333.333333333333,3,2,4,84,0,0
34773,-66.6666666666667,3,2,4,84,0,0
35010,-66.6666666666667,3,2,4,5,0,0
35089,-66.6666666666667,3,2,4,84,0,0
35325,-66.6666666666667,3,2,4,5,0,0
35404,-66.6666666666667,3,2,4,84,0,0
35641,-66.6666666666667,3,2,4,5,0,0
35720,-500,3,2,4,84,0,0
36668,-86.9565217391304,3,2,4,74,0,0
37931,-100,3,2,4,74,0,0
38562,-86.9565217391304,3,2,4,74,0,0
39510,-111.111111111111,3,2,4,74,0,0
40457,-66.6666666666667,3,2,4,84,0,0
40694,-66.6666666666667,3,2,4,5,0,0
40773,-66.6666666666667,3,2,4,84,0,0
41010,-66.6666666666667,3,2,4,5,0,0
41089,-80,3,2,4,84,0,0
42352,-66.6666666666667,3,2,4,84,0,0
42589,-66.6666666666667,3,2,4,5,0,0
42668,-66.6666666666667,3,2,4,84,0,0
42904,-66.6666666666667,3,2,4,5,0,0
42983,-86.9565217391304,3,2,4,84,0,0
44246,-86.9565217391304,3,2,4,74,0,0
47325,-86.9565217391304,3,2,4,5,0,0
47404,-86.9565217391304,3,2,4,74,0,0
48036,-133.333333333333,3,2,4,54,0,0
61299,-74.0740740740741,3,2,4,74,0,0
61536,-74.0740740740741,3,2,4,5,0,0
61615,-74.0740740740741,3,2,4,74,0,0
61852,-74.0740740740741,3,2,4,5,0,0
61931,-74.0740740740741,3,2,4,74,0,0
63194,-90.9090909090909,3,2,4,64,0,0
63904,-90.9090909090909,3,2,4,5,0,0
63983,-90.9090909090909,3,2,4,64,0,0
65799,-90.9090909090909,3,2,4,5,0,0
65878,-90.9090909090909,3,2,4,64,0,0
69115,-90.9090909090909,3,2,4,5,0,0
69194,-90.9090909090909,3,2,4,64,0,0
69273,-90.9090909090909,3,2,4,5,0,0
69352,-90.9090909090909,3,2,4,64,0,0
69825,-83.3333333333333,3,2,4,64,0,0
70062,-83.3333333333333,3,2,4,5,0,0
70141,-83.3333333333333,3,2,4,64,0,0
70773,-90.9090909090909,3,2,4,64,0,0
74562,-100,3,2,4,64,0,0
78352,-100,3,2,4,44,0,0
80168,-100,3,2,4,5,0,0
80246,-333.333333333333,3,2,4,44,0,0
82141,-500,3,2,4,44,0,0
84036,-66.6666666666667,3,2,4,74,0,0
84273,-66.6666666666667,3,2,4,5,0,0
84352,-66.6666666666667,3,2,4,74,0,0
84589,-66.6666666666667,3,2,4,5,0,0
84668,-66.6666666666667,3,2,4,74,0,0
84904,-66.6666666666667,3,2,4,5,0,0
84983,-66.6666666666667,3,2,4,74,0,0
85931,-90.9090909090909,3,2,4,74,0,0
86404,-100,3,2,4,74,0,0
87115,-66.6666666666667,3,2,4,5,0,0
87194,-100,3,2,4,74,0,0
90904,-100,3,2,4,5,0,0
90983,-100,3,2,4,74,0,0
93510,-133.333333333333,3,2,4,64,0,0
94378,-133.333333333333,3,2,4,5,0,0
94457,-90.9090909090909,3,2,4,64,0,0
95404,-133.333333333333,3,2,4,64,0,0
96273,-66.6666666666667,3,2,4,5,0,0
96352,-90.9090909090909,3,2,4,64,0,0
97299,-119.047619047619,3,2,4,64,0,0
101089,-66.6666666666667,3,2,4,84,0,0
101325,-66.6666666666667,3,2,4,5,0,0
101404,-66.6666666666667,3,2,4,84,0,0
101641,-66.6666666666667,3,2,4,5,0,0
101720,-66.6666666666667,3,2,4,84,0,0
101957,-66.6666666666667,3,2,4,5,0,0
102036,-66.6666666666667,3,2,4,84,0,0
102273,-66.6666666666667,3,2,4,5,0,0
102352,-333.333333333333,3,2,4,84,0,0
102983,-66.6666666666667,3,2,4,84,0,0
103220,-66.6666666666667,3,2,4,5,0,0
103299,-66.6666666666667,3,2,4,84,0,0
103536,-66.6666666666667,3,2,4,5,0,0
103615,-66.6666666666667,3,2,4,84,0,0
103852,-66.6666666666667,3,2,4,5,0,0
103931,-66.6666666666667,3,2,4,84,0,0
104168,-66.6666666666667,3,2,4,5,0,0
104246,-66.6666666666667,3,2,4,84,0,0
104878,-86.9565217391304,3,2,4,64,0,0
107010,-66.6666666666667,3,2,4,5,0,0
107089,-86.9565217391304,3,2,4,64,0,0
107325,-66.6666666666667,3,2,4,5,0,0
107404,-86.9565217391304,3,2,4,64,0,0
107641,-66.6666666666667,3,2,4,5,0,0
107720,-86.9565217391304,3,2,4,64,0,0
108352,-111.111111111111,3,2,4,64,0,0
108589,-66.6666666666667,3,2,4,5,0,0
108668,-133.333333333333,3,2,4,54,0,0
121931,-133.333333333333,3,2,4,64,0,0
122246,-105.263157894737,3,2,4,64,0,0
122562,-86.9565217391303,3,2,4,64,0,0
122878,-74.0740740740741,3,2,4,74,0,0
123825,-90.9090909090909,3,2,4,64,0,0
128562,-100,3,2,4,64,0,0
129746,-66.6666666666667,3,2,4,5,0,0
129825,-100,3,2,4,64,0,0
130062,-66.6666666666667,3,2,4,5,0,0
130141,-100,3,2,4,64,0,0
130378,-66.6666666666667,3,2,4,5,0,0
130457,-100,3,2,4,64,0,0
136378,-66.6666666666667,3,2,4,5,0,0
136457,-100,3,2,4,64,0,0
137325,-66.6666666666667,3,2,4,5,0,0
137404,-100,3,2,4,64,0,0
137957,-66.6666666666667,3,2,4,5,0,0
138036,-100,3,2,4,64,0,0
138983,-76.9230769230769,3,2,4,84,0,1
139220,-76.9230769230769,3,2,4,5,0,1
139299,-76.9230769230769,3,2,4,84,0,1
139536,-76.9230769230769,3,2,4,5,0,1
139615,-76.9230769230769,3,2,4,84,0,1
139931,-76.9230769230769,3,2,4,84,0,1
140168,-76.9230769230769,3,2,4,5,0,1
140246,-76.9230769230769,3,2,4,84,0,1
140483,-76.9230769230769,3,2,4,5,0,1
140562,-76.9230769230769,3,2,4,84,0,1
140878,-76.9230769230769,3,2,4,84,0,1
141115,-76.9230769230769,3,2,4,5,0,1
141194,-76.9230769230769,3,2,4,84,0,1
141431,-76.9230769230769,3,2,4,5,0,1
141510,-76.9230769230769,3,2,4,84,0,1
141549,-76.9230769230769,3,2,4,5,0,1
141825,-76.9230769230769,3,2,4,84,0,1
142062,-76.9230769230769,3,2,4,5,0,1
142141,-76.9230769230769,3,2,4,84,0,1
142378,-76.9230769230769,3,2,4,5,0,1
142457,-76.9230769230769,3,2,4,84,0,1
142496,-76.9230769230769,3,2,4,5,0,1
142773,-76.9230769230769,3,2,4,84,0,1
143010,-76.9230769230769,3,2,4,5,0,1
143089,-76.9230769230769,3,2,4,84,0,1
143325,-76.9230769230769,3,2,4,5,0,1
143404,-76.9230769230769,3,2,4,84,0,1
143720,-76.9230769230769,3,2,4,84,0,1
143957,-76.9230769230769,3,2,4,5,0,1
144036,-76.9230769230769,3,2,4,84,0,1
144273,-76.9230769230769,3,2,4,5,0,1
144352,-76.9230769230769,3,2,4,84,0,1
144668,-76.9230769230769,3,2,4,84,0,1
144904,-76.9230769230769,3,2,4,5,0,1
144983,-76.9230769230769,3,2,4,84,0,1
145220,-76.9230769230769,3,2,4,5,0,1
145299,-76.9230769230769,3,2,4,84,0,1
145339,-76.9230769230769,3,2,4,5,0,1
145615,-68.9655172413793,3,2,4,84,0,1
145852,-76.9230769230769,3,2,4,5,0,1
145931,-68.9655172413793,3,2,4,84,0,1
146168,-76.9230769230769,3,2,4,5,0,1
146246,-68.9655172413793,3,2,4,84,0,1
146286,-76.9230769230769,3,2,4,5,0,1
146562,-111.111111111111,3,2,4,64,0,1
146799,-76.9230769230769,3,2,4,5,0,1
146878,-111.111111111111,3,2,4,64,0,1
147510,-90.9090909090909,3,2,4,74,0,1
147746,-76.9230769230769,3,2,4,5,0,1
147825,-90.9090909090909,3,2,4,74,0,1
148457,-76.9230769230769,3,2,4,84,0,1
148694,-76.9230769230769,3,2,4,5,0,1
148773,-76.9230769230769,3,2,4,84,0,1
149404,-66.6666666666667,3,2,4,94,0,1
149641,-76.9230769230769,3,2,4,5,0,1
149720,-66.6666666666667,3,2,4,94,0,1
150352,-111.111111111111,3,2,4,64,0,1
150589,-76.9230769230769,3,2,4,5,0,1
150668,-111.111111111111,3,2,4,64,0,1
151299,-90.9090909090909,3,2,4,74,0,1
151536,-76.9230769230769,3,2,4,5,0,1
151615,-90.9090909090909,3,2,4,74,0,1
152246,-76.9230769230769,3,2,4,84,0,1
152483,-76.9230769230769,3,2,4,5,0,1
152562,-76.9230769230769,3,2,4,84,0,1
153194,-66.6666666666667,3,2,4,94,0,1
153431,-76.9230769230769,3,2,4,5,0,1
153510,-66.6666666666667,3,2,4,94,0,1
154141,-90.9090909090909,3,2,4,84,0,1
154378,-90.9090909090909,3,2,4,5,0,1
154457,-90.9090909090909,3,2,4,84,0,1
156273,-90.9090909090909,3,2,4,5,0,1
156352,-90.9090909090909,3,2,4,84,0,1
158168,-90.9090909090909,3,2,4,5,0,1
158246,-90.9090909090909,3,2,4,84,0,1
158878,-83.3333333333333,3,2,4,84,0,1
159115,-90.9090909090909,3,2,4,5,0,1
159194,-83.3333333333333,3,2,4,84,0,1
159825,-74.0740740740741,3,2,4,84,0,1
160062,-90.9090909090909,3,2,4,5,0,1
160141,-74.0740740740741,3,2,4,84,0,1
160773,-333.333333333333,3,2,4,84,0,0
161641,-100,3,2,4,5,0,0
161720,-100,3,2,4,64,0,0
162904,-66.6666666666667,3,2,4,5,0,0
162983,-100,3,2,4,64,0,0
166694,-66.6666666666667,3,2,4,5,0,0
166773,-100,3,2,4,64,0,0
167641,-66.6666666666667,3,2,4,5,0,0
167720,-100,3,2,4,64,0,0
168589,-66.6666666666667,3,2,4,5,0,0
168668,-100,3,2,4,64,0,0
170010,-66.6666666666667,3,2,4,5,0,0
170089,-100,3,2,4,64,0,0
170483,-66.6666666666667,3,2,4,5,0,0
170562,-100,3,2,4,64,0,0
173325,-66.6666666666667,3,2,4,5,0,0
173404,-100,3,2,4,64,0,0
174273,-66.6666666666667,3,2,4,5,0,0
174352,-100,3,2,4,64,0,0
174983,-80,3,2,4,64,0,0
175220,-66.6666666666667,3,2,4,5,0,0
175299,-80,3,2,4,64,0,0
175536,-66.6666666666667,3,2,4,5,0,0
175615,-80,3,2,4,64,0,0
175852,-66.6666666666667,3,2,4,5,0,0
175931,-80,3,2,4,64,0,0
176878,-200,3,2,4,44,0,0
177825,-333.333333333333,3,2,4,44,0,0
178773,-200,3,2,4,44,0,0
179720,-500,3,2,4,44,0,0
180668,-200,3,2,4,44,0,0
181615,-500,3,2,4,44,0,0
182562,-200,3,2,4,44,0,0
183510,-400,3,2,4,44,0,0
184457,-200,3,2,4,44,0,0
185404,-500,3,2,4,44,0,0
186352,-200,3,2,4,44,0,0
187299,-400,3,2,4,44,0,0
188246,-200,3,2,4,44,0,0
191089,-400,3,2,4,44,0,0
192036,-142.857142857143,3,2,4,44,0,0
198668,-133.333333333333,3,2,4,44,0,0
199615,-117.647058823529,3,2,4,54,0,0
199852,-66.6666666666667,3,2,4,5,0,0
199931,-117.647058823529,3,2,4,54,0,0
200799,-66.6666666666667,3,2,4,5,0,0
200878,-117.647058823529,3,2,4,54,0,0
201510,-125,3,2,4,64,0,0
201746,-66.6666666666667,3,2,4,5,0,0
201825,-125,3,2,4,64,0,0
202457,-111.111111111111,3,2,4,64,0,0
202694,-66.6666666666667,3,2,4,5,0,0
202773,-111.111111111111,3,2,4,64,0,0
203404,-100,3,2,4,74,0,0
203641,-66.6666666666667,3,2,4,5,0,0
203720,-100,3,2,4,74,0,0
204352,-90.9090909090909,3,2,4,74,0,0
204589,-66.6666666666667,3,2,4,5,0,0
204668,-90.9090909090909,3,2,4,74,0,0
205299,-83.3333333333333,3,2,4,84,0,0
205536,-66.6666666666667,3,2,4,5,0,0
205615,-83.3333333333333,3,2,4,84,0,0
207115,-83.3333333333333,3,2,4,5,0,0
207194,-83.3333333333333,3,2,4,74,0,0
207431,-66.6666666666667,3,2,4,5,0,0
207510,-83.3333333333333,3,2,4,74,0,0
211220,-66.6666666666667,3,2,4,5,0,0
211299,-83.3333333333333,3,2,4,74,0,0
212799,-66.6666666666667,3,2,4,5,0,0
212878,-83.3333333333333,3,2,4,74,0,0
214062,-66.6666666666667,3,2,4,5,0,0
214141,-83.3333333333333,3,2,4,74,0,0
219273,-66.6666666666667,3,2,4,5,0,0
219352,-83.3333333333333,3,2,4,74,0,0
220694,-66.6666666666667,3,2,4,5,0,0
220773,-83.3333333333333,3,2,4,74,0,0
221325,-66.6666666666667,3,2,4,5,0,0
221404,-83.3333333333333,3,2,4,74,0,0
222352,-87.719298245614,3,2,4,74,0,0
235615,-166.666666666667,3,2,4,64,0,0
237589,-166.666666666667,3,2,4,44,0,0
240352,-166.666666666667,3,2,4,5,0,0

[Colours]
Combo1 : 141,156,207
Combo2 : 255,201,147
Combo3 : 255,153,40
Combo4 : 189,205,232

[HitObjects]
193,209,1615,5,2,0:3:0:0:
193,209,1931,2,0,P|218:222|231:245,2,43.5,2|2|8,0:3|0:3|0:1,0:0:0:0:
114,231,2404,1,8,0:1:0:0:
364,218,2562,6,0,B|318:226|306:264|321:285|296:315|259:322,1,156.599995220947,14|0,0:0|0:0,0:0:0:0:
385,230,3036,2,0,P|408:170|375:131,1,117.449996415711,8|0,0:0|0:0,0:0:0:0:
371,136,3352,1,8,0:0:0:0:
383,58,3510,6,0,L|367:160,1,78.2999976104737,10|0,0:1|0:0,0:0:0:0:
282,254,3825,2,0,L|266:152,1,78.2999976104737,2|0,0:0|0:0,0:0:0:0:
178,61,4141,2,0,P|109:61|78:106,1,117.449996415711,2|0,0:0|0:0,0:0:0:0:
197,75,4457,6,0,L|356:38,1,156.599995220947,8|0,0:0|0:0,0:0:0:0:
460,74,4931,2,0,P|468:120|451:156,1,78.2999976104737,8|0,0:0|0:0,0:0:0:0:
274,253,5246,1,8,0:0:0:0:
203,204,5404,6,0,L|288:216,1,78.2999976104737,8|0,0:1|0:0,0:0:0:0:
423,254,5720,2,0,P|432:312|407:346,1,78.2999976104737,2|0,0:0|0:0,0:0:0:0:
177,198,6036,2,0,P|168:140|193:106,1,78.2999976104737,2|0,0:0|0:0,0:0:0:0:
108,333,6352,6,0,P|98:261|17:247,1,156.599995220947,8|0,0:0|0:0,0:0:0:0:
106,349,6825,2,0,L|195:331,1,78.2999976104737,8|0,0:0|0:0,0:0:0:0:
422,291,7141,1,8,0:0:0:0:
486,341,7299,6,0,L|327:308,1,156.599995220947,8|0,0:1|0:0,0:0:0:0:
195,261,7773,2,0,P|195:218|218:190,1,78.2999976104737,2|0,0:0|0:0,0:0:0:0:
303,176,8089,1,0,0:0:0:0:
221,73,8246,6,0,L|405:105,1,156.599995220947,8|0,0:0|0:0,0:0:0:0:
213,55,8720,2,0,L|122:64,1,78.2999976104737,8|0,0:0|0:0,0:0:0:0:
390,116,9036,1,8,0:0:0:0:
462,81,9194,6,0,P|476:35|462:5,1,78.2999976104737,8|0,0:1|0:0,0:0:0:0:
167,201,9510,2,0,L|185:283,1,78.2999976104737,8|0,0:0|0:0,0:0:0:0:
117,128,9825,2,0,L|72:195,1,78.2999976104737,8|0,0:0|0:0,0:0:0:0:
285,103,10141,6,0,B|322:96|347:66|332:45|344:7|390:-1,1,156.599995220947,10|0,0:0|0:0,0:0:0:0:
272,116,10615,2,0,L|144:98,1,117.449996415711,8|0,0:0|0:0,0:0:0:0:
285,103,10931,1,8,0:0:0:0:
131,100,11089,6,0,P|112:142|131:191,1,78.2999976104737,10|0,0:1|0:0,0:0:0:0:
284,261,11404,2,0,P|303:303|284:352,1,78.2999976104737,2|0,0:0|0:0,0:0:0:0:
208,371,11720,1,2,0:0:0:0:
208,371,11878,1,0,0:0:0:0:
353,196,12036,6,0,P|296:182|284:261,1,156.599995220947,8|0,0:0|0:0,0:0:0:0:
371,192,12510,2,0,P|342:146|231:135,1,156.599995220947,8|8,0:0|0:0,0:0:0:0:
112,30,12983,5,10,0:1:0:0:
240,146,13141,1,2,0:0:0:0:
340,114,13299,2,0,P|344:68|320:42,1,78.2999976104737,2|0,0:0|0:0,0:0:0:0:
151,118,13615,1,2,0:0:0:0:
151,118,13773,1,2,0:0:0:0:
310,190,13931,5,10,0:0:0:0:
207,243,14089,1,2,0:0:0:0:
34,259,14246,5,2,0:0:0:0:
137,312,14404,1,10,0:0:0:0:
311,326,14562,5,2,0:0:0:0:
208,379,14720,1,10,0:0:0:0:
34,259,14878,6,0,P|24:210|40:175,1,78.2999976104737,10|0,0:1|0:0,0:0:0:0:
219,159,15194,2,0,L|319:175,1,78.2999976104737,2|0,0:0|0:0,0:0:0:0:
470,149,15510,2,0,P|480:100|464:65,1,78.2999976104737,2|0,0:0|0:0,0:0:0:0:
208,172,15825,6,0,B|162:164|150:126|165:105|140:75|103:68,1,156.599995220947,10|2,0:0|0:0,0:0:0:0:
234,184,16299,1,8,0:0:0:0:
311,149,16457,2,0,P|335:114|328:75,1,78.2999976104737,2|8,0:0|0:0,0:0:0:0:
183,322,16773,6,0,P|228:315|277:323,1,78.2999976104737,8|0,0:1|0:0,0:0:0:0:
52,271,17089,2,0,P|68:235|71:196,1,78.2999976104737,10|0,0:0|0:0,0:0:0:0:
234,184,17404,1,10,0:1:0:0:
341,258,17562,1,8,0:1:0:0:
415,25,17720,6,0,B|463:34|474:71|457:84|480:120|515:124,1,147.900002820969,10|0,0:0|0:0,0:0:0:0:
393,15,18194,2,0,P|360:21|299:32,1,73.9500014104843,8|0,0:0|0:0,0:0:0:0:
238,47,18510,1,8,0:0:0:0:
393,180,18668,2,0,P|380:131|278:126,2,147.900002820969,8|2|2,0:1|0:0|0:0,0:0:0:0:
306,201,19457,1,0,0:0:0:0:
177,331,19615,6,0,P|261:294|326:294,1,147.900002820969,10|0,0:0|0:0,0:0:0:0:
155,350,20089,2,0,P|108:321|123:230,1,147.900002820969,8|8,0:0|0:0,0:0:0:0:
4,96,20562,6,0,B|16:119|38:126|38:126|139:107,1,147.900002820969,8|0,0:1|0:0,0:0:0:0:
232,110,21036,2,0,L|147:128,2,73.9500014104843,2|0|0,0:0|0:0|0:0,0:0:0:0:
403,80,21510,5,10,0:0:0:0:
372,159,21668,1,2,0:0:0:0:
277,266,21825,5,2,0:0:0:0:
308,345,21983,1,10,0:0:0:0:
372,159,22141,5,2,0:0:0:0:
403,80,22299,1,10,0:0:0:0:
409,249,22457,6,0,P|360:176|278:182,1,147.900002820969,10|2,0:1|0:0,0:0:0:0:
178,307,22931,1,8,0:0:0:0:
178,307,23089,2,0,P|127:313|84:291,1,73.9500014104843,10|0,0:0|0:0,0:0:0:0:
163,92,23404,6,0,B|180:128|180:128|143:235,1,147.900002820969,10|2,0:0|0:0,0:0:0:0:
139,84,23878,2,0,P|155:44|186:24,1,73.9500014104843,8|2,0:0|0:0,0:0:0:0:
389,101,24194,1,8,0:0:0:0:
450,37,24352,6,0,B|420:12|420:12|381:14,1,73.9500014104843,10|0,0:1|0:0,0:0:0:0:
256,192,24668,1,8,0:0:0:0:
256,192,24983,1,8,0:0:0:0:
60,361,25299,6,0,P|80:297|81:208,1,147.900002820969,10|0,0:0|0:0,0:0:0:0:
75,370,25773,2,0,P|132:334|204:313,1,110.925002115727,8|0,0:0|0:0,0:0:0:0:
173,319,26089,1,8,0:0:0:0:
256,192,26246,6,0,P|282:225|321:238,1,73.9500014104843,8|0,0:1|0:0,0:0:0:0:
453,348,26562,2,0,L|435:268,1,73.9500014104843,2|0,0:0|0:0,0:0:0:0:
406,120,26878,2,0,L|388:200,1,73.9500014104843,2|0,0:0|0:0,0:0:0:0:
178,324,27194,6,0,B|139:316|135:274|147:266|151:221|109:206,1,147.900002820969,10|0,0:0|0:0,0:0:0:0:
192,331,27668,2,0,B|236:315|236:315|249:298|249:298|300:276,1,110.925002115727,8|0,0:0|0:0,0:0:0:0:
300,285,27983,1,8,0:0:0:0:
243,157,28141,6,0,P|225:211|237:236,1,73.9500014104843,8|0,0:1|0:0,0:0:0:0:
351,75,28457,2,0,P|308:59|274:32,1,73.9500014104843,2|0,0:0|0:0,0:0:0:0:
180,79,28773,2,0,P|137:95|103:122,1,73.9500014104843,2|0,0:0|0:0,0:0:0:0:
351,75,29089,6,0,P|359:20|319:66,1,147.900002820969,8|0,0:0|0:0,0:0:0:0:
382,157,29562,2,0,P|394:194|386:247,1,73.9500014104843,10|0,0:0|0:0,0:0:0:0:
264,333,29878,1,8,0:0:0:0:
189,293,30036,6,0,L|275:303,1,73.9500014104843,8|0,0:1|0:0,0:0:0:0:
349,352,30352,2,0,L|435:342,1,73.9500014104843,0|0,0:0|0:0,0:0:0:0:
508,320,30668,1,2,0:0:0:0:
508,320,30825,1,0,0:0:0:0:
192,292,30983,6,0,P|167:230|229:184,2,147.900002820969,8|8|8,0:0|0:0|0:0,0:0:0:0:
504,235,31931,2,0,P|529:300|475:344,2,147.900002820969,8|8|8,0:1|0:0|0:1,0:0:0:0:
207,152,32878,6,0,B|245:294|245:294|297:219,1,195.75000746727,14|0,0:0|0:0,0:0:0:0:
219,130,33194,6,0,B|77:91|77:91|115:174,1,195.75000746727,12|0,0:0|0:0,0:0:0:0:
238,153,33510,6,0,B|341:49|341:49|251:41,1,195.75000746727,12|0,0:0|0:0,0:0:0:0:
291,44,33825,6,0,P|288:83|343:123,1,104.399996813965,2|0,0:0|0:0,0:0:0:0:
196,266,34773,6,0,B|233:256|240:228|240:228|190:71,1,195.75000746727,14|0,0:0|0:0,0:0:0:0:
185,286,35089,6,0,B|175:324|195:344|195:344|356:379,1,195.75000746727,12|0,0:0|0:0,0:0:0:0:
169,263,35404,6,0,B|141:236|114:244|114:244|3:366,1,195.75000746727,12|0,0:0|0:0,0:0:0:0:
23,344,35720,6,0,L|87:306,1,69.6,2|0,0:0|0:0,0:0:0:0:
206,108,36668,6,0,B|206:131|224:147|224:147|379:188,1,200.100003816605,14|0,0:0|0:0,0:0:0:0:
206,86,37141,2,0,B|133:104|133:104|104:133|104:133|12:159,1,200.100003816605,8|8,0:0|0:0,0:0:0:0:
395,189,37615,6,0,P|436:128|423:95,1,100.050001908302,10|0,0:1|0:0,0:0:0:0:
332,41,37931,1,0,0:0:0:0:
160,240,38089,1,8,0:0:0:0:
30,234,38246,2,0,P|11:198|39:141,1,87,10|0,0:0|0:0,0:0:0:0:
327,278,38562,6,0,L|369:368,1,100.050001908302,10|0,0:0|0:0,0:0:0:0:
134,165,38878,6,0,L|35:156,1,100.050001908302,2|8,0:0|0:0,0:0:0:0:
332,71,39194,6,0,L|392:-13,1,100.050001908302,2|8,0:0|0:0,0:0:0:0:
184,282,39510,6,0,L|127:363,1,78.2999976104737,10|0,0:1|0:0,0:0:0:0:
398,197,39825,6,0,L|497:205,1,78.2999976104737,10|0,0:0|0:0,0:0:0:0:
189,65,40141,6,0,L|147:-24,1,78.2999976104737,10|0,0:1|0:0,0:0:0:0:
268,204,40457,6,0,P|342:187|339:77,1,195.75000746727,14|0,0:0|0:0,0:0:0:0:
238,199,40773,6,0,P|215:271|312:323,1,195.75000746727,12|0,0:0|0:0,0:0:0:0:
259,175,41089,6,0,P|207:119|103:193,1,217.5,12|0,0:0|0:0,0:0:0:0:
291,227,42352,6,0,L|99:266,1,195.75000746727,12|0,0:0|0:0,0:0:0:0:
268,146,42668,6,0,L|397:292,1,195.75000746727,14|0,0:0|0:0,0:0:0:0:
205,213,42983,6,0,L|272:12,1,200.100003816605,12|0,0:0|0:0,0:0:0:0:
268,23,44246,6,0,B|327:33|336:93|314:106|334:156|389:160,1,200.100003816605,14|0,0:0|0:0,0:0:0:0:
241,41,44720,2,0,P|196:80|192:129,1,100.050001908302,8|0,0:0|0:0,0:0:0:0:
236,186,45036,1,8,0:0:0:0:
413,144,45194,6,0,P|458:183|462:232,1,100.050001908302,10|0,0:1|0:0,0:0:0:0:
405,307,45510,2,0,L|298:293,1,100.050001908302,0|8,0:0|0:0,0:0:0:0:
117,267,45825,1,8,0:0:0:0:
117,267,46141,6,0,B|176:257|185:197|163:184|183:134|238:130,1,200.100003816605,10|0,0:0|0:0,0:0:0:0:
427,231,46615,1,8,0:1:0:0:
485,140,46773,1,8,0:0:0:0:
371,4,46931,1,8,0:0:0:0:
298,239,47089,6,0,L|332:394,1,150.075002862454,10|0,0:1|0:0,0:0:0:0:
308,223,47404,1,8,0:1:0:0:
277,321,47562,1,8,0:3:0:0:
330,384,47720,1,4,0:3:0:0:
308,223,48036,6,0,P|277:181|196:161,2,130.50000497818,10|0|0,0:0|0:0|0:0,0:0:0:0:
406,230,48983,2,0,P|413:178|474:124,2,130.50000497818,2|0|8,0:3|0:0|0:0,0:0:0:0:
204,330,49931,6,0,B|172:332|139:313|153:299|123:270|92:270,1,130.50000497818,10|0,0:0|0:0,0:0:0:0:
207,146,50562,2,0,P|231:104|172:30,2,130.50000497818,2|2|0,0:0|0:3|0:0,0:0:0:0:
88,258,51510,1,8,0:0:0:0:
196,37,51825,6,0,B|241:53|241:53|265:82|265:82|318:97,1,130.50000497818,10|0,0:0|0:0,0:0:0:0:
338,210,52457,2,0,L|477:166,1,130.50000497818,2|2,0:0|0:3,0:0:0:0:
338,210,53089,1,0,0:0:0:0:
338,210,53404,1,2,0:0:0:0:
175,160,53720,6,0,B|134:141|134:141|190:288,1,195.75000746727,10|0,0:0|0:0,0:0:0:0:
299,351,54352,2,0,L|273:292,1,65.2500024890901,2|0,0:0|0:0,0:0:0:0:
350,125,54668,1,2,0:3:0:0:
350,125,54983,2,0,L|324:195,1,65.2500024890901,8|0,0:0|0:0,0:0:0:0:
245,232,55299,2,0,L|276:299,1,65.2500024890901,8|0,0:0|0:0,0:0:0:0:
350,125,55615,6,0,B|388:120|404:84|393:72|417:48|456:46,2,130.50000497818,10|0|2,0:0|0:0|0:0,0:0:0:0:
218,278,56562,2,0,L|68:254,2,130.50000497818,2|2|2,0:3|0:0|0:0,0:0:0:0:
460,245,57510,6,0,P|400:261|379:333,1,130.50000497818,8|0,0:0|0:0,0:0:0:0:
486,241,58141,2,0,P|493:191|472:160,1,65.2500024890901,2|0,0:0|0:0,0:0:0:0:
423,124,58457,2,0,B|360:132|360:132|300:176|300:176|237:182,1,195.75000746727,2|0,0:3|0:0,0:0:0:0:
135,176,59089,2,0,P|117:138|130:106,1,65.2500024890901,8|0,0:0|0:0,0:0:0:0:
389,225,59404,6,0,B|373:272|373:272|377:307|377:307|354:367,2,130.50000497818,10|0|2,0:0|0:0|0:0,0:0:0:0:
389,225,60352,1,2,0:3:0:0:
320,72,60668,1,0,0:0:0:0:
320,72,60983,1,0,0:0:0:0:
218,230,61299,6,0,B|192:250|152:239|152:239|133:213|133:213|93:195|60:215,1,176.175000672054,14|0,0:0|0:0,0:0:0:0:
242,234,61615,2,0,B|269:215|272:183|272:183|193:58,1,176.175000672054,12|0,0:0|0:0,0:0:0:0:
197,72,61931,2,0,L|157:194,1,117.450000448036,14|0,0:0|0:0,0:0:0:0:
461,354,62246,6,0,L|424:242,1,117.450000448036,14|0,0:0|0:0,0:0:0:0:
357,4,62562,1,12,0:0:0:0:
128,268,62720,1,8,0:1:0:0:
62,208,62878,2,0,B|106:168|106:168|184:191,1,117.450000448036,14|0,0:1|0:0,0:0:0:0:
275,36,63194,6,0,B|266:74|266:74|287:181|287:181|274:225,1,191.400005841065,14|0,0:0|0:0,0:0:0:0:
293,28,63668,2,0,B|305:49|330:60|330:60|429:36,1,143.550004380798,8|0,0:0|0:0,0:0:0:0:
434,34,63983,1,8,0:0:0:0:
393,192,64141,6,0,P|408:134|454:112,1,95.7000029205323,8|0,0:1|0:0,0:0:0:0:
512,148,64457,1,2,0:0:0:0:
305,261,64615,1,2,0:0:0:0:
240,199,64773,1,0,0:0:0:0:
175,137,64931,1,0,0:0:0:0:
311,36,65089,6,0,B|268:58|268:58|239:201,1,191.400005841065,8|0,0:0|0:0,0:0:0:0:
312,25,65562,2,0,P|251:-12|184:15,1,143.550004380798,8|0,0:0|0:0,0:0:0:0:
187,11,65878,1,8,0:0:0:0:
5,6,66036,6,0,L|35:113,1,95.7000029205323,8|0,0:1|0:0,0:0:0:0:
92,272,66352,1,0,0:0:0:0:
174,223,66510,1,2,0:0:0:0:
158,128,66668,1,0,0:0:0:0:
147,208,66825,1,0,0:0:0:0:
297,328,66983,6,0,B|440:282|440:282|390:262,1,191.400005841065,8|0,0:0|0:0,0:0:0:0:
290,343,67457,2,0,L|174:327,1,95.7000029205323,8|0,0:0|0:0,0:0:0:0:
502,232,67773,1,8,0:0:0:0:
452,150,67931,6,0,B|404:117|349:136|368:167|311:184|270:157,1,191.400005841065,8|0,0:1|0:0,0:0:0:0:
169,87,68404,1,0,0:0:0:0:
225,13,68562,1,2,0:0:0:0:
187,100,68720,1,0,0:0:0:0:
39,127,68878,6,0,B|14:179|14:179|68:290,1,143.550004380798,8|0,0:0|0:0,0:0:0:0:
65,262,69194,2,0,L|57:322,1,47.8500014602662,8|0,0:0|0:0,0:0:0:0:
138,215,69352,2,0,P|185:217|209:278,1,95.7000029205323,8|0,0:1|0:0,0:0:0:0:
124,194,69668,1,8,0:0:0:0:
411,230,69825,6,0,B|313:267|313:267|339:280|339:280|363:273,1,156.599995220947,8|0,0:1|0:0,0:0:0:0:
426,235,70141,1,8,0:0:0:0:
287,148,70299,1,8,0:1:0:0:
17,158,70457,1,8,0:1:0:0:
156,71,70615,1,8,0:1:0:0:
242,27,70773,6,0,B|229:96|229:96|210:128|210:128|194:215,1,191.400005841065,12|0,0:0|0:0,0:0:0:0:
261,35,71246,2,0,P|298:20|364:45,1,95.7000029205323,8|0,0:0|0:0,0:0:0:0:
428,279,71562,1,8,0:0:0:0:
470,184,71720,6,0,L|367:208,1,95.7000029205323,8|0,0:1|0:0,0:0:0:0:
196,277,72036,1,2,0:0:0:0:
113,226,72194,1,2,0:0:0:0:
188,301,72352,1,0,0:0:0:0:
288,267,72510,1,0,0:0:0:0:
94,211,72668,6,0,B|65:211|42:226|37:257|37:257|75:368,1,191.400005841065,10|0,0:0|0:0,0:0:0:0:
113,226,73141,2,0,L|84:116,1,95.7000029205323,8|0,0:0|0:0,0:0:0:0:
326,19,73457,1,8,0:0:0:0:
303,95,73615,6,0,L|278:187,1,95.7000029205323,8|0,0:1|0:0,0:0:0:0:
237,356,73931,2,0,P|304:341|315:302,1,95.7000029205323,0|0,0:0|0:0,0:0:0:0:
501,284,74246,2,0,P|477:325|482:371,1,95.7000029205323,10|0,0:0|0:0,0:0:0:0:
303,95,74562,6,0,B|253:100|231:145|255:166|223:205|176:207,1,174,8|0,0:0|0:0,0:0:0:0:
321,103,75036,2,0,B|341:62|341:62|318:22,1,87,8|0,0:0|0:0,0:0:0:0:
161,231,75352,1,8,0:0:0:0:
80,186,75510,6,0,P|61:142|132:33,2,174,8|0|8,0:1|0:0|0:0,0:0:0:0:
290,157,76299,1,0,0:0:0:0:
168,231,76457,6,0,P|229:225|262:332,1,174,10|0,0:0|0:0,0:0:0:0:
154,228,76931,1,8,0:1:0:0:
290,157,77089,2,0,P|261:196|262:234,1,87,8|0,0:0|0:0,0:0:0:0:
201,54,77404,6,0,L|400:88,2,174,10|8|8,0:1|0:0|0:0,0:0:0:0:
512,43,78352,1,14,0:0:0:0:
256,192,78431,12,0,80168,0:0:0:0:
343,246,80246,6,0,P|352:216|351:185,5,52.1999984069825,2|0|0|0|0|0,0:0|0:0|0:0|0:0|0:0|0:0,0:0:0:0:
437,142,82141,6,0,P|428:125|414:112,5,34.8,2|0|0|0|0|0,0:0|0:0|0:0|0:0|0:0|0:0,0:0:0:0:
308,118,84036,6,0,B|278:134|278:134|229:256|229:256|195:268,1,195.75000746727,14|0,0:1|0:0,0:0:0:0:
204,119,84352,6,0,B|233:135|233:135|282:257|282:257|316:269,1,195.75000746727,14|0,0:1|0:0,0:0:0:0:
199,132,84668,2,0,B|228:148|228:148|277:270|277:270|311:282,1,195.75000746727,14|0,0:1|0:0,0:0:0:0:
303,294,84983,5,10,0:1:0:0:
432,240,85141,1,8,0:1:0:0:
198,132,85299,5,10,0:1:0:0:
51,190,85457,1,8,0:3:0:0:
102,360,85615,1,6,0:3:0:0:
187,288,85773,1,0,0:0:0:0:
67,87,85931,6,0,B|46:36|46:36|27:180,1,191.400005841065,14|0,0:0|0:0,0:0:0:0:
145,38,86404,1,8,0:0:0:0:
145,38,86562,2,0,P|209:41|226:62,1,87,0|8,0:0|0:0,0:0:0:0:
427,81,86878,6,0,B|409:91|396:110|396:110|394:166|431:210,1,130.5,12|0,0:1|0:0,0:0:0:0:
451,74,87194,2,0,P|453:25|422:4,1,87,0|0,0:0|0:0,0:0:0:0:
220,54,87510,2,0,P|262:51|288:85,1,87,0|0,0:0|0:0,0:0:0:0:
418,193,87825,6,0,L|223:174,1,174,10|0,0:0|0:0,0:0:0:0:
146,176,88299,1,8,0:0:0:0:
146,176,88457,2,0,P|119:224|133:264,1,87,0|8,0:0|0:0,0:0:0:0:
317,145,88773,6,0,P|321:102|296:68,1,87,8|0,0:1|0:0,0:0:0:0:
146,176,89089,2,0,L|317:146,1,174,0|0,0:0|0:0,0:0:0:0:
128,186,89562,5,0,0:0:0:0:
128,186,89641,1,0,0:0:0:0:
128,186,89720,2,0,P|89:152|131:49,1,174,10|0,0:0|0:0,0:0:0:0:
147,201,90194,2,0,L|119:292,1,87,8|0,0:0|0:0,0:0:0:0:
153,190,90510,1,8,0:0:0:0:
288,288,90668,6,0,L|425:260,1,130.5,8|0,0:1|0:0,0:0:0:0:
270,294,90983,2,0,P|246:256|262:215,1,87,0|8,0:0|0:2,0:0:0:0:
349,156,91299,2,0,P|373:118|357:77,1,87,8|0,0:2|0:0,0:0:0:0:
172,18,91615,2,0,B|120:33|120:33|71:84|71:84|16:97,1,174,10|0,0:0|0:0,0:0:0:0:
191,32,92089,1,8,0:0:0:0:
191,32,92246,2,0,L|296:42,1,87,8|0,0:0|0:0,0:0:0:0:
503,60,92562,5,8,0:1:0:0:
318,129,92878,1,8,0:0:0:0:
218,284,93194,1,8,0:1:0:0:
29,341,93510,6,0,B|53:248|53:248|88:202|88:202|107:128|107:128|146:84|146:84|163:12,1,358.875013689995,12|0,0:0|0:0,0:0:0:0:
162,16,94457,6,0,L|189:131,1,95.7000029205323,8|0,0:0|0:0,0:0:0:0:
475,352,95404,6,0,B|430:331|423:301|434:268|434:268|460:246|460:246|473:209|460:173|433:159|433:159|396:152|396:152|373:130|372:101|387:77,1,358.875013689995,12|0,0:0|0:0,0:0:0:0:
387,76,96352,6,0,P|393:120|348:160,1,95.7000029205323,8|0,0:0|0:0,0:0:0:0:
360,156,97299,6,0,B|284:148|284:148|214:173|214:173|142:166,1,219.239993309326,12|0,0:0|0:0,0:0:0:0:
58,157,97931,2,0,P|45:114|65:83,1,73.0799977697755,8|0,0:0|0:0,0:0:0:0:
289,241,98246,6,0,B|301:274|301:274|273:390,1,146.159995539551,8|0,0:1|0:0,0:0:0:0:
266,221,98720,2,0,P|291:188|329:183,1,73.0799977697755,0|8,0:0|0:0,0:0:0:0:
240,77,99194,6,0,L|266:226,1,146.159995539551,8|0,0:0|0:0,0:0:0:0:
228,62,99668,2,0,B|185:77|185:77|147:124|147:124|102:136,1,146.159995539551,8|8,0:0|0:0,0:0:0:0:
364,97,100141,6,0,P|398:75|402:29,1,73.0799977697755,8|0,0:1|0:0,0:0:0:0:
265,220,100457,2,0,P|312:241|324:284,1,73.0799977697755,8|0,0:0|0:0,0:0:0:0:
108,134,100773,2,0,L|209:118,1,73.0799977697755,8|0,0:1|0:0,0:0:0:0:
359,278,101089,6,0,B|408:297|456:272|459:212|459:212|441:181|403:185,1,195.75000746727,12|0,0:0|0:0,0:0:0:0:
265,220,101404,6,0,B|246:269|271:317|331:320|331:320|363:295|358:264,1,195.75000746727,12|0,0:0|0:0,0:0:0:0:
322,126,101720,6,0,B|273:107|225:132|222:192|222:192|247:224|278:219,1,195.75000746727,12|0,0:0|0:0,0:0:0:0:
416,184,102036,6,0,B|435:135|410:87|350:84|350:84|318:109|323:140,1,195.75000746727,12|0,0:0|0:0,0:0:0:0:
322,126,102352,6,0,P|330:166|341:181,1,52.1999984069825,0|0,0:0|0:0,0:0:0:0:
133,314,102983,6,0,B|110:361|110:361|50:358|25:310|44:261,1,195.75000746727,12|0,0:0|0:0,0:0:0:0:
186,225,103299,6,0,B|233:247|233:247|230:307|182:332|133:313,1,195.75000746727,12|0,0:0|0:0,0:0:0:0:
96,172,103615,6,0,B|118:124|118:124|178:127|203:175|184:224,1,195.75000746727,12|0,0:0|0:0,0:0:0:0:
43,260,103931,6,0,B|-4:237|-4:237|-1:177|46:152|95:171,1,195.75000746727,12|0,0:0|0:0,0:0:0:0:
95,171,104246,5,8,0:3:0:0:
305,272,104404,1,8,0:1:0:0:
492,201,104562,1,8,0:1:0:0:
492,201,104878,6,0,B|537:128|468:78|468:78|431:84|418:111,1,200.100003816605,12|0,0:0|0:0,0:0:0:0:
246,45,105352,2,0,P|287:67|294:119,1,100.050001908302,8|0,0:0|0:0,0:0:0:0:
237,174,105668,1,8,0:0:0:0:
91,228,105825,6,0,L|319:200,1,200.100003816605,8|0,0:1|0:0,0:0:0:0:
422,269,106299,1,2,0:0:0:0:
500,292,106457,1,0,0:0:0:0:
402,264,106615,1,0,0:0:0:0:
275,97,106773,6,0,B|367:45|367:45|356:93,1,150.075002862454,8|0,0:0|0:0,0:0:0:0:
261,108,107089,2,0,L|96:88,1,150.075002862454,8|0,0:0|0:0,0:0:0:0:
95,87,107404,2,0,P|51:150|91:203,1,150.075002862454,8|0,0:0|0:0,0:0:0:0:
152,252,107720,2,0,B|193:224|193:224|255:234,1,100.050001908302,12|0,0:1|0:0,0:0:0:0:
373,325,108036,5,8,0:1:0:0:
405,330,108141,1,8,0:1:0:0:
436,318,108246,1,8,0:1:0:0:
451,288,108352,2,0,P|443:243|406:180,1,117.449996415711,8|0,0:1|0:0,0:0:0:0:
489,93,108668,6,0,B|451:98|439:132|447:145|425:173|387:173,2,130.50000497818,14|0|0,0:0|0:0|0:0,0:0:0:0:
368,90,109457,1,8,0:0:0:0:
368,90,109615,2,0,P|352:53|360:20,1,65.2500024890901,8|0,0:1|0:0,0:0:0:0:
296,156,109931,2,0,L|160:134,1,130.50000497818,2|2,0:0|0:0,0:0:0:0:
152,135,110562,6,0,B|135:172|135:172|168:280,1,130.50000497818,10|0,0:0|0:0,0:0:0:0:
201,361,111036,2,0,P|234:366|265:350,2,65.2500024890901,8|0|8,0:0|0:0|0:0,0:0:0:0:
421,357,111510,2,0,P|363:324|373:262,2,130.50000497818,8|0|0,0:1|0:0|0:0,0:0:0:0:
442,352,112457,6,0,B|462:318|462:318|458:260|458:260|479:222,1,130.50000497818,10|0,0:0|0:0,0:0:0:0:
453,144,112931,1,8,0:0:0:0:
453,144,113089,2,0,L|468:216,1,65.2500024890901,0|8,0:0|0:0,0:0:0:0:
341,49,113404,2,0,L|322:195,1,130.50000497818,8|0,0:1|0:0,0:0:0:0:
281,333,114036,2,0,P|229:317|214:296,1,65.2500024890901,2|0,0:0|0:0,0:0:0:0:
116,221,114352,6,0,P|62:235|54:313,1,130.50000497818,8|0,0:0|0:0,0:0:0:0:
149,224,114825,1,8,0:0:0:0:
149,224,114983,2,0,P|166:179|160:151,1,65.2500024890901,8|0,0:0|0:0,0:0:0:0:
281,333,115299,6,0,P|319:310|359:309,1,65.2500024890901,8|0,0:1|0:0,0:0:0:0:
312,193,115615,2,0,P|335:156|336:128,1,65.2500024890901,8|0,0:0|0:0,0:0:0:0:
467,186,115931,2,0,L|530:161,1,65.2500024890901,8|0,0:0|0:0,0:0:0:0:
344,15,116246,6,0,B|382:20|395:52|383:70|401:100|440:103,1,130.50000497818,14|0,0:0|0:0,0:0:0:0:
505,59,116720,1,8,0:0:0:0:
243,185,117036,1,8,0:0:0:0:
104,202,117194,2,0,L|168:214,1,65.2500024890901,8|0,0:1|0:0,0:0:0:0:
311,236,117510,2,0,P|330:196|320:156,1,65.2500024890901,2|0,0:0|0:0,0:0:0:0:
255,92,117825,2,0,L|190:104,1,65.2500024890901,2|0,0:0|0:0,0:0:0:0:
403,84,118141,6,0,L|261:64,1,130.50000497818,10|0,0:0|0:0,0:0:0:0:
144,42,118615,1,8,0:0:0:0:
426,89,118931,1,8,0:0:0:0:
512,110,119089,2,0,P|518:160|462:220,2,130.50000497818,8|0|0,0:1|0:0|0:0,0:0:0:0:
265,201,120036,6,0,B|229:207|210:236|227:255|202:285|171:290,1,130.50000497818,10|0,0:0|0:0,0:0:0:0:
82,287,120510,1,8,0:0:0:0:
82,287,120668,2,0,P|63:246|73:210,1,65.2500024890901,8|0,0:0|0:0,0:0:0:0:
278,185,120983,2,0,P|310:115|293:54,2,130.50000497818,8|0|0,0:1|0:0|0:0,0:0:0:0:
187,378,121931,6,0,P|159:363|127:361,1,65.2500024890901,8|0,0:0|0:0,0:0:0:0:
277,313,122246,6,0,P|306:283|344:267,1,82.649997793007,8|0,0:0|0:0,0:0:0:0:
169,204,122562,6,0,P|141:163|100:136,1,100.050001908302,8|0,0:0|0:0,0:0:0:0:
270,97,122878,6,0,L|314:-22,1,117.450000448036,12|0,0:1|0:0,0:0:0:0:
343,267,123194,5,8,0:1:0:0:
100,136,123352,1,8,0:1:0:0:
307,0,123510,1,8,0:1:0:0:
307,0,123825,6,0,B|351:4|364:40|347:59|369:89|408:88,1,143.550004380798,14|0,0:0|0:0,0:0:0:0:
424,90,124141,2,0,P|456:60|456:10,1,95.7000029205323,0|8,0:0|0:0,0:0:0:0:
330,175,124457,2,0,L|356:279,1,95.7000029205323,0|8,0:0|0:0,0:0:0:0:
202,54,124773,6,0,B|173:82|173:82|164:103|164:103|134:128,1,95.7000029205323,8|0,0:1|0:0,0:0:0:0:
48,223,125089,1,2,0:0:0:0:
133,246,125246,1,2,0:0:0:0:
65,205,125404,1,0,0:0:0:0:
44,111,125562,1,0,0:0:0:0:
148,264,125720,6,0,B|186:232|186:232|348:247,1,191.400005841065,8|0,0:0|0:0,0:0:0:0:
139,288,126194,2,0,B|100:290|100:290|79:302|79:302|28:301,1,95.7000029205323,8|0,0:0|0:0,0:0:0:0:
334,219,126510,1,8,0:0:0:0:
407,262,126668,6,0,P|414:312|386:366,1,95.7000029205323,8|0,0:1|0:0,0:0:0:0:
218,104,126983,1,0,0:0:0:0:
218,104,127141,1,2,0:0:0:0:
283,64,127299,2,0,P|336:71|385:80,1,95.7000029205323,8|0,0:0|0:0,0:0:0:0:
155,190,127615,6,0,B|89:178|86:130|106:110|82:68|24:57,1,191.400005841065,8|0,0:0|0:0,0:0:0:0:
172,182,128089,1,8,0:0:0:0:
126,284,128246,2,0,B|173:266|173:266|214:283,1,95.7000029205323,8|0,0:0|0:0,0:0:0:0:
356,176,128562,6,0,B|326:288|326:288|358:278|358:278|371:234,1,174,8|0,0:1|0:0,0:0:0:0:
375,161,129036,1,0,0:0:0:0:
375,161,129194,2,0,L|358:68,1,87,2|0,0:0|0:0,0:0:0:0:
72,213,129510,6,0,P|138:236|190:186,1,130.5,8|0,0:0|0:0,0:0:0:0:
264,173,129825,2,0,P|211:218|228:288,1,130.5,8|0,0:0|0:0,0:0:0:0:
199,360,130141,2,0,P|185:291|116:271,1,130.5,8|0,0:0|0:0,0:0:0:0:
59,305,130457,5,12,0:1:0:0:
59,305,130773,1,8,0:1:0:0:
129,182,130931,1,8,0:1:0:0:
370,216,131089,1,8,0:3:0:0:
502,177,131246,1,8,0:1:0:0:
361,21,131404,6,0,B|350:67|381:116|431:120|431:120|472:83,1,174,12|0,0:0|0:0,0:0:0:0:
354,5,131878,2,0,P|292:10|270:40,1,87,8|0,0:0|0:0,0:0:0:0:
121,204,132194,1,8,0:0:0:0:
73,129,132352,6,0,B|112:107|112:107|158:124,1,87,8|0,0:1|0:0,0:0:0:0:
307,249,132668,1,2,0:0:0:0:
388,223,132825,1,2,0:0:0:0:
301,270,132983,1,0,0:0:0:0:
220,245,133141,1,0,0:0:0:0:
402,215,133299,6,0,B|534:167|534:167|503:204,1,174,10|0,0:0|0:0,0:0:0:0:
388,223,133773,2,0,P|379:278|416:320,1,87,8|0,0:0|0:0,0:0:0:0:
511,73,134089,1,8,0:0:0:0:
452,24,134246,6,0,P|403:34|254:31,1,174,8|0,0:1|0:0,0:0:0:0:
154,68,134720,1,0,0:0:0:0:
79,22,134878,1,10,0:0:0:0:
173,64,135036,1,0,0:0:0:0:
168,212,135194,6,0,P|212:172|258:166,1,87,8|0,0:0|0:0,0:0:0:0:
327,268,135510,2,0,P|329:208|358:171,1,87,8|0,0:0|0:0,0:0:0:0:
485,210,135825,2,0,P|445:165|438:120,1,87,8|0,0:0|0:0,0:0:0:0:
161,55,136141,6,0,B|198:151|198:151|213:113,1,130.5,12|0,0:1|0:0,0:0:0:0:
164,41,136457,1,0,0:0:0:0:
150,137,136615,1,8,0:0:0:0:
261,243,136773,2,0,L|352:208,1,87,8|0,0:1|0:0,0:0:0:0:
348,39,137089,6,0,P|384:106|469:96,1,130.5,14|0,0:0|0:0,0:0:0:0:
349,15,137404,2,0,L|244:31,1,87,8|0,0:1|0:0,0:0:0:0:
31,170,137720,6,0,B|66:149|66:149|51:31,1,130.5,8|0,0:0|0:0,0:0:0:0:
10,176,138036,2,0,P|7:224|40:255,1,87,12|0,0:1|0:0,0:0:0:0:
256,359,138352,5,8,0:1:0:0:
382,229,138510,1,8,0:1:0:0:
309,86,138668,1,8,0:1:0:0:
309,86,138983,6,0,B|257:89|240:128|256:151|224:190|180:190,1,169.64999223404,14|0,0:0|0:0,0:0:0:0:
325,108,139299,2,0,B|377:111|394:150|378:173|410:212|454:212,1,169.64999223404,8|0,0:0|0:0,0:0:0:0:
466,213,139615,2,0,P|498:181|488:108,1,113.099994822693,8|0,0:0|0:0,0:0:0:0:
200,307,139931,6,0,B|90:332|90:332|60:325|48:297,1,169.64999223404,12|0,0:1|0:0,0:0:0:0:
206,277,140246,2,0,B|315:251|315:251|345:258|357:286,1,169.64999223404,10|0,0:0|0:0,0:0:0:0:
200,307,140562,2,0,B|161:273|161:273|180:206,1,113.099994822693,10|0,0:0|0:0,0:0:0:0:
281,53,140878,6,0,B|333:69|333:69|373:105|373:105|434:120,1,169.64999223404,14|0,0:0|0:0,0:0:0:0:
261,67,141194,2,0,L|78:97,1,169.64999223404,8|0,0:0|0:0,0:0:0:0:
78,99,141510,2,0,L|125:104,1,28.2749987056733,10|0,0:0|0:0,0:0:0:0:
70,108,141825,6,0,B|155:118|155:118|179:144|176:174|157:202,1,169.64999223404,14|0,0:1|0:0,0:0:0:0:
273,191,142141,2,0,B|187:202|187:202|164:227|167:257|186:285,1,169.64999223404,8|0,0:0|0:0,0:0:0:0:
194,290,142457,2,0,L|230:285,1,28.2749987056733,10|0,0:0|0:0,0:0:0:0:
206,300,142773,6,0,B|343:278|343:278|361:237,1,169.64999223404,12|0,0:0|0:0,0:0:0:0:
194,290,143089,2,0,B|57:314|57:314|43:351,1,169.64999223404,10|0,0:0|0:0,0:0:0:0:
206,300,143404,2,0,P|229:237|196:201,1,113.099994822693,10|0,0:0|0:0,0:0:0:0:
11,35,143720,6,0,B|1:80|1:80|20:153|20:153|13:200,1,169.64999223404,14|0,0:1|0:0,0:0:0:0:
14,200,144036,2,0,B|5:153|5:153|22:79|22:79|11:35,1,169.64999223404,8|0,0:0|0:0,0:0:0:0:
19,221,144352,2,0,B|70:245|70:245|124:212,1,113.099994822693,10|0,0:0|0:0,0:0:0:0:
287,60,144668,6,0,B|337:79|337:79|377:146|377:146|419:161,1,169.64999223404,12|0,0:0|0:0,0:0:0:0:
408,59,144983,2,0,B|358:78|358:78|318:145|318:145|276:160,1,169.64999223404,10|0,0:0|0:0,0:0:0:0:
276,166,145299,2,0,L|228:162,1,28.2749987056733,10|0,0:0|0:0,0:0:0:0:
268,175,145615,6,0,B|223:171|223:171|139:120|139:120|92:116,1,189.225005774689,14|0,0:1|0:0,0:0:0:0:
93,233,145931,2,0,B|138:229|138:229|222:178|222:178|269:174,1,189.225005774689,10|0,0:0|0:0,0:0:0:0:
274,184,146246,2,0,L|273:219,1,31.5375009624481,10|0,0:0|0:0,0:0:0:0:
282,193,146562,6,0,L|277:320,1,117.449996415711,14|0,0:0|0:0,0:0:0:0:
198,346,146878,2,0,L|202:260,1,78.2999976104737,8|0,0:0|0:0,0:0:0:0:
191,260,147194,2,0,L|188:339,1,78.2999976104737,8|0,0:0|0:0,0:0:0:0:
368,159,147510,6,0,L|361:319,1,143.550004380798,14|0,0:1|0:0,0:0:0:0:
279,349,147825,2,0,L|284:246,1,95.7000029205323,8|0,0:0|0:0,0:0:0:0:
274,245,148141,2,0,L|269:340,1,95.7000029205323,8|0,0:0|0:0,0:0:0:0:
452,128,148457,6,0,L|444:306,1,169.64999223404,14|0,0:0|0:0,0:0:0:0:
361,345,148773,2,0,L|367:222,1,113.099994822693,8|0,0:0|0:0,0:0:0:0:
357,227,149089,2,0,L|352:339,1,113.099994822693,8|0,0:0|0:0,0:0:0:0:
463,101,149404,6,0,L|454:299,1,195.75000746727,14|0,0:1|0:0,0:0:0:0:
371,345,149720,2,0,L|378:201,1,130.50000497818,8|0,0:0|0:0,0:0:0:0:
367,205,150036,2,0,L|360:335,1,130.50000497818,8|0,0:0|0:0,0:0:0:0:
138,80,150352,6,0,P|176:130|148:184,1,117.449996415711,14|0,0:0|0:0,0:0:0:0:
114,65,150668,2,0,P|133:24|173:13,1,78.2999976104737,8|0,0:0|0:0,0:0:0:0:
235,61,150983,2,0,P|277:45|313:65,1,78.2999976104737,8|0,0:0|0:0,0:0:0:0:
439,190,151299,6,0,P|374:179|349:253,1,143.550004380798,14|0,0:1|0:0,0:0:0:0:
465,206,151615,2,0,P|494:176|492:123,1,95.7000029205323,8|0,0:0|0:0,0:0:0:0:
409,86,151931,2,0,P|408:44|369:8,1,95.7000029205323,8|0,0:0|0:0,0:0:0:0:
82,214,152246,6,0,P|167:237|140:307,1,169.64999223404,14|0,0:1|0:0,0:0:0:0:
52,213,152562,2,0,P|34:169|70:108,1,113.099994822693,8|0,0:1|0:0,0:0:0:0:
171,122,152878,2,0,P|189:78|257:60,1,113.099994822693,8|0,0:1|0:0,0:0:0:0:
436,213,153194,6,0,P|407:290|514:341,1,195.75000746727,14|0,0:1|0:0,0:0:0:0:
463,207,153510,2,0,P|464:165|395:116,1,130.50000497818,8|8,0:1|0:1,0:0:0:0:
248,273,153825,1,8,0:1:0:0:
77,152,153983,1,8,0:1:0:0:
135,91,154141,6,0,P|209:105|212:183,1,143.550004380798,12|0,0:0|0:0,0:0:0:0:
221,163,154457,2,0,P|200:133|218:73,1,95.7000029205323,10|0,0:0|0:0,0:0:0:0:
329,28,154773,2,0,L|438:46,1,95.7000029205323,10|0,0:0|0:0,0:0:0:0:
240,179,155089,6,0,B|195:203|195:203|146:285|146:285|102:315,2,191.400005841065,14|8|8,0:1|0:0|0:0,0:0:0:0:
411,332,155878,1,0,0:0:0:0:
489,298,156036,6,0,B|513:231|513:231|472:169,1,143.550004380798,12|0,0:0|0:0,0:0:0:0:
473,170,156352,2,0,B|456:214|456:214|484:256,1,95.7000029205323,10|0,0:0|0:0,0:0:0:0:
409,81,156668,2,0,P|357:65|314:90,1,95.7000029205323,10|0,0:0|0:0,0:0:0:0:
227,237,156983,6,0,B|188:267|131:253|148:222|93:199|46:226,2,191.400005841065,14|8|8,0:1|0:0|0:0,0:0:0:0:
409,81,157773,1,0,0:0:0:0:
485,139,157931,6,0,P|491:214|430:258,1,143.550004380798,14|0,0:0|0:0,0:0:0:0:
443,255,158246,2,0,P|394:198|398:159,1,95.7000029205323,8|0,0:0|0:0,0:0:0:0:
278,43,158562,2,0,P|222:51|193:101,1,95.7000029205323,8|0,0:0|0:0,0:0:0:0:
56,282,158878,6,0,B|76:272|81:244|81:244|33:132,1,156.599995220947,14|0,0:1|0:0,0:0:0:0:
37,143,159194,2,0,L|-16:252,1,104.399996813965,8|0,0:0|0:0,0:0:0:0:
111,368,159510,2,0,L|157:274,1,104.399996813965,8|0,0:0|0:0,0:0:0:0:
314,39,159825,6,0,B|358:48|380:88|358:116|383:153|426:163,1,176.175000672054,14|0,0:0|0:0,0:0:0:0:
424,162,160141,2,0,P|469:118|462:60,1,117.450000448036,8|0,0:0|0:0,0:0:0:0:
163,125,160457,2,0,L|30:101,1,117.450000448036,8|0,0:0|0:0,0:0:0:0:
354,208,160773,6,0,L|505:180,1,143.549995619202,14|0,0:1|0:0,0:0:0:0:
495,181,161720,6,0,P|446:162|431:113,1,87,12|0,0:0|0:0,0:0:0:0:
457,48,162036,1,0,0:0:0:0:
323,46,162194,2,0,P|409:36|487:0,1,174,8|8,0:0|0:0,0:0:0:0:
95,62,162668,6,0,P|157:92|152:172,1,130.5,12|0,0:1|0:0,0:0:0:0:
64,70,162983,2,0,P|56:22|85:-13,1,87,0|0,0:0|0:0,0:0:0:0:
161,164,163299,2,0,L|245:143,1,87,8|0,0:0|0:0,0:0:0:0:
31,257,163615,6,0,B|79:265|79:265|149:310|149:310|200:320,1,174,8|0,0:0|0:0,0:0:0:0:
8,261,164089,2,0,P|32:218|22:174,1,87,8|0,0:0|0:0,0:0:0:0:
46,337,164404,1,8,0:0:0:0:
194,239,164562,6,0,B|173:278|173:278|194:327,1,87,12|0,0:1|0:0,0:0:0:0:
346,328,164878,1,8,0:0:0:0:
410,245,165036,1,8,0:0:0:0:
337,340,165194,1,8,0:0:0:0:
337,340,165510,6,0,B|318:283|318:283|324:224|324:224|306:171,1,174,8|0,0:0|0:0,0:0:0:0:
331,353,165983,2,0,B|293:373|293:373|234:364,1,87,8|0,0:0|0:0,0:0:0:0:
194,296,166299,1,8,0:0:0:0:
380,102,166457,6,0,P|312:120|310:179,1,130.5,12|0,0:1|0:0,0:0:0:0:
394,105,166773,2,0,B|417:65|417:65|400:28,1,87,0|0,0:0|0:0,0:0:0:0:
203,18,167089,2,0,B|180:58|180:58|197:95,1,87,8|0,0:0|0:0,0:0:0:0:
400,241,167404,6,0,P|437:291|390:346,1,130.5,8|0,0:0|0:0,0:0:0:0:
386,236,167720,1,8,0:0:0:0:
278,305,167878,2,0,P|237:316|195:293,1,87,8|0,0:0|0:0,0:0:0:0:
184,212,168194,1,8,0:0:0:0:
39,351,168352,6,0,B|58:303|58:303|21:203,1,130.5,8|0,0:1|0:0,0:0:0:0:
26,357,168668,1,8,0:1:0:0:
66,238,168825,1,8,0:1:0:0:
11,130,168983,1,8,0:1:0:0:
152,42,169141,1,0,0:0:0:0:
203,108,169299,6,0,B|189:126|167:133|167:133|4:101,1,174,8|0,0:0|0:0,0:0:0:0:
222,97,169773,2,0,L|378:110,1,130.5,8|0,0:0|0:0,0:0:0:0:
352,107,170089,1,8,0:0:0:0:
494,18,170246,6,0,P|454:48|488:122,1,130.5,12|0,0:1|0:0,0:0:0:0:
489,125,170562,2,0,P|503:173|470:210,1,87,0|0,0:0|0:0,0:0:0:0:
398,249,170878,2,0,L|292:240,1,87,0|0,0:0|0:0,0:0:0:0:
33,159,171194,6,0,B|56:181|56:181|14:328,1,174,8|0,0:0|0:0,0:0:0:0:
14,145,171668,2,0,P|36:79|134:81,1,174,8|8,0:0|0:0,0:0:0:0:
354,212,172141,6,0,P|376:174|367:134,1,87,8|0,0:1|0:0,0:0:0:0:
300,76,172457,2,0,L|207:89,1,87,0|0,0:0|0:0,0:0:0:0:
366,133,172773,2,0,L|452:120,1,87,0|0,0:0|0:0,0:0:0:0:
300,320,173089,6,0,P|277:259|189:260,1,130.5,8|0,0:0|0:0,0:0:0:0:
218,244,173404,1,0,0:0:0:0:
116,192,173562,2,0,L|79:280,1,87,8|0,0:0|0:0,0:0:0:0:
49,351,173878,1,8,0:0:0:0:
135,182,174036,6,0,L|107:43,1,130.5,8|0,0:1|0:0,0:0:0:0:
109,54,174352,2,0,B|152:37|152:37|200:53,1,87,0|0,0:0|0:0,0:0:0:0:
249,150,174668,2,0,B|287:162|287:162|330:145,1,87,0|0,0:0|0:0,0:0:0:0:
484,37,174983,6,0,B|501:118|501:118|451:196,1,163.125,8|0,0:0|0:0,0:0:0:0:
459,186,175299,6,0,B|441:104|441:104|491:26,1,163.125,8|0,0:0|0:0,0:0:0:0:
484,37,175615,6,0,B|501:118|501:118|458:185,1,163.125,8|0,0:0|0:0,0:0:0:0:
482,24,175931,5,8,0:0:0:0:
347,254,176878,6,0,P|318:198|256:192,1,130.5,8|8,0:0|0:0,0:0:0:0:
256,192,177510,1,8,0:0:0:0:
194,258,177825,2,0,P|155:262|134:254,2,52.1999984069825,8|0|0,0:1|0:0|0:0,0:0:0:0:
373,223,178773,6,0,B|504:260|504:260|471:281,1,174,8|8,0:0|0:0,0:0:0:0:
351,214,179720,2,0,P|351:174|371:152,1,69.6,8|0,0:1|0:0,0:0:0:0:
487,58,180668,6,0,B|456:50|456:50|397:66|397:66|358:58,1,130.5,10|8,0:0|0:0,0:0:0:0:
360,58,181299,1,8,0:0:0:0:
266,33,181615,2,0,L|197:44,1,69.6,8|0,0:1|0:0,0:0:0:0:
57,72,182562,6,0,P|17:126|90:204,1,174,10|8,0:0|0:0,0:0:0:0:
153,227,183510,1,8,0:1:0:0:
153,227,183825,2,0,P|185:223|204:221,1,43.5,0|0,0:0|0:0,0:0:0:0:
342,191,184457,6,0,P|374:233|334:304,1,130.5,10|8,0:0|0:0,0:0:0:0:
345,298,185089,1,8,0:0:0:0:
265,335,185404,2,0,B|232:324|232:324|194:330,1,69.6,8|0,0:1|0:0,0:0:0:0:
74,251,186352,6,0,P|30:254|-4:219,2,87,8|0|8,0:0|0:0|0:0,0:0:0:0:
141,185,187299,2,0,B|164:185|183:174|183:174|199:190|223:197,1,87,8|0,0:1|0:0,0:0:0:0:
317,252,188246,6,0,L|422:229,1,87,10|0,0:0|0:0,0:0:0:0:
401,233,188720,1,8,0:0:0:0:
401,233,188878,2,0,P|412:198|387:144,1,87,8|8,0:0|0:1,0:0:0:0:
147,108,190141,6,0,L|246:116,2,87,10|8|8,0:0|0:0|0:0,0:0:0:0:
69,139,191089,1,8,0:1:0:0:
69,139,191404,2,0,P|61:164|64:188,1,43.5,0|0,0:0|0:0,0:0:0:0:
313,128,192036,6,0,P|332:190|306:242,2,121.799996282959,8|8|8,0:1|0:0|0:0,0:0:0:0:
145,63,192983,2,0,L|282:48,1,121.799996282959,8|8,0:0|0:0,0:0:0:0:
390,32,193615,1,8,0:0:0:0:
432,280,193931,6,0,B|357:264|357:264|288:220|288:220|204:198,1,243.599992565918,8|8,0:0|0:0,0:0:0:0:
140,350,194878,2,0,L|284:320,1,121.799996282959,8|8,0:0|0:0,0:0:0:0:
432,280,195510,1,8,0:0:0:0:
232,102,195825,6,0,P|256:153|333:170,1,121.799996282959,8|8,0:0|0:0,0:0:0:0:
408,140,196457,1,8,0:0:0:0:
229,88,196773,2,0,L|104:118,1,121.799996282959,8|8,0:0|0:0,0:0:0:0:
41,237,197404,1,8,0:0:0:0:
357,344,197720,2,0,B|388:292|388:292|373:227,1,121.799996282959,8|8,0:0|0:0,0:0:0:0:
325,7,198352,1,8,0:0:0:0:
146,216,198668,6,0,L|221:202,1,65.2500024890901,8|0,0:0|0:0,0:0:0:0:
331,275,198983,2,0,L|282:217,1,65.2500024890901,8|0,0:0|0:0,0:0:0:0:
290,84,199299,2,0,L|264:156,1,65.2500024890901,8|0,0:1|0:0,0:0:0:0:
197,338,199615,6,0,B|153:331|153:331|125:345|125:345|72:338,1,110.925002115727,12|0,0:1|0:0,0:0:0:0:
67,334,199931,2,0,P|52:296|65:258,1,73.9500014104843,8|0,0:0|0:0,0:0:0:0:
146,216,200246,2,0,P|161:178|148:140,1,73.9500014104843,8|0,0:0|0:0,0:0:0:0:
43,46,200562,6,0,L|184:56,1,110.925002115727,8|0,0:0|0:0,0:0:0:0:
171,53,200878,2,0,L|250:39,1,73.9500014104843,8|0,0:0|0:0,0:0:0:0:
328,68,201194,2,0,L|407:54,1,73.9500014104843,8|0,0:0|0:0,0:0:0:0:
256,208,201510,6,0,P|273:254|342:270,1,104.4,8|0,0:0|0:0,0:0:0:0:
342,263,201825,2,0,P|378:249|418:256,1,69.6,8|0,0:0|0:0,0:0:0:0:
457,171,202141,2,0,P|492:186|515:219,1,69.6,8|0,0:1|0:0,0:0:0:0:
252,187,202457,6,0,B|210:196|210:196|181:221|181:221|136:231,1,117.449996415711,8|0,0:0|0:0,0:0:0:0:
268,185,202773,2,0,P|283:139|257:103,1,78.2999976104737,8|0,0:1|0:0,0:0:0:0:
185,15,203089,2,0,P|172:51|187:85,1,78.2999976104737,8|0,0:1|0:0,0:0:0:0:
322,277,203404,6,0,B|365:261|365:261|457:281,1,130.5,8|0,0:1|0:0,0:0:0:0:
306,297,203720,2,0,P|269:274|263:233,1,87,8|0,0:1|0:0,0:0:0:0:
187,85,204036,2,0,P|180:127|144:149,1,87,8|0,0:1|0:0,0:0:0:0:
342,137,204352,6,0,P|399:114|464:171,1,143.550004380798,8|0,0:1|0:0,0:0:0:0:
323,145,204668,2,0,L|302:49,1,95.7000029205323,8|0,0:1|0:0,0:0:0:0:
439,252,204983,2,0,L|459:158,1,95.7000029205323,8|0,0:1|0:0,0:0:0:0:
212,337,205299,6,0,B|151:286|151:286|55:301,1,156.599995220947,8|0,0:1|0:0,0:0:0:0:
233,343,205615,2,0,P|269:286|256:246,1,104.399996813965,8|0,0:1|0:0,0:0:0:0:
70,176,205931,2,0,P|36:137|41:86,1,104.399996813965,8|0,0:1|0:0,0:0:0:0:
253,350,206246,5,8,0:1:0:0:
256,192,206325,12,0,207115,0:0:0:0:
272,65,207194,6,0,B|315:67|332:112|318:130|348:164|402:156,1,156.599995220947,14|0,0:0|0:0,0:0:0:0:
261,70,207510,1,0,0:0:0:0:
478,13,207668,2,0,P|434:67|396:70,1,104.399996813965,8|0,0:0|0:0,0:0:0:0:
92,152,207983,1,8,0:0:0:0:
64,72,208141,6,0,B|116:59|116:59|169:106,1,104.399996813965,8|0,0:1|0:0,0:0:0:0:
285,265,208457,2,0,L|398:250,1,104.399996813965,2|0,0:0|0:0,0:0:0:0:
506,57,208773,2,0,L|402:70,1,104.399996813965,2|0,0:0|0:0,0:0:0:0:
160,283,209089,6,0,B|106:257|106:257|70:176|70:176|19:141,1,208.79999362793,10|0,0:0|0:0,0:0:0:0:
177,280,209562,1,8,0:0:0:0:
264,214,209720,1,0,0:0:0:0:
234,101,209878,1,8,0:0:0:0:
437,17,210036,6,0,B|405:66|405:66|445:217,1,208.79999362793,8|0,0:1|0:0,0:0:0:0:
354,350,210510,1,2,0:0:0:0:
258,312,210668,1,0,0:0:0:0:
375,358,210825,1,0,0:0:0:0:
222,186,210983,6,0,P|267:220|247:321,1,156.599995220947,10|0,0:0|0:0,0:0:0:0:
208,193,211299,1,0,0:0:0:0:
392,200,211457,2,0,P|332:195|303:227,1,104.399996813965,8|0,0:0|0:0,0:0:0:0:
47,352,211773,1,8,0:0:0:0:
11,260,211931,6,0,L|116:276,1,104.399996813965,8|0,0:1|0:0,0:0:0:0:
389,289,212246,2,0,P|412:231|390:198,1,104.399996813965,0|0,0:0|0:0,0:0:0:0:
370,28,212562,2,0,P|269:59|194:65,1,156.599995220947,2|0,0:0|0:0,0:0:0:0:
394,17,212878,6,0,B|426:28|434:51|434:51|387:213,1,208.79999362793,8|0,0:0|0:0,0:0:0:0:
93,78,213352,1,8,0:0:0:0:
26,143,213510,2,0,B|66:175|66:175|136:162,1,104.399996813965,8|0,0:0|0:0,0:0:0:0:
376,305,213825,6,0,P|399:229|498:206,1,156.599995220947,8|0,0:1|0:0,0:0:0:0:
371,323,214141,1,10,0:0:0:0:
240,264,214299,1,10,0:1:0:0:
146,96,214457,1,10,0:1:0:0:
15,155,214615,1,10,0:1:0:0:
248,357,214773,6,0,P|257:286|324:158,1,208.79999362793,14|0,0:0|0:0,0:0:0:0:
195,7,215246,2,0,P|234:51|243:100,1,104.399996813965,8|0,0:0|0:0,0:0:0:0:
84,318,215562,1,8,0:0:0:0:
16,252,215720,6,0,P|25:188|57:154,1,104.399996813965,8|0,0:1|0:0,0:0:0:0:
238,274,216036,2,0,P|305:293|358:281,1,104.399996813965,2|0,0:0|0:0,0:0:0:0:
380,100,216352,2,0,L|482:38,1,104.399996813965,2|0,0:0|0:0,0:0:0:0:
192,159,216668,6,0,B|145:142|145:142|102:40|102:40|57:22,1,208.79999362793,10|0,0:0|0:0,0:0:0:0:
216,177,217141,2,0,L|330:150,1,104.399996813965,8|0,0:0|0:0,0:0:0:0:
463,301,217457,1,8,0:0:0:0:
384,342,217615,6,0,P|371:292|401:239,1,104.399996813965,8|0,0:1|0:0,0:0:0:0:
307,2,217931,1,0,0:0:0:0:
259,86,218089,1,2,0:0:0:0:
277,262,218246,1,0,0:0:0:0:
223,365,218404,1,0,0:0:0:0:
70,293,218562,6,0,L|280:261,1,208.79999362793,10|0,0:0|0:0,0:0:0:0:
51,298,219036,2,0,P|23:254|66:153,1,156.599995220947,8|0,0:0|0:0,0:0:0:0:
53,161,219352,1,8,0:0:0:0:
22,28,219510,6,0,P|55:68|121:68,1,104.399996813965,8|0,0:1|0:0,0:0:0:0:
236,137,219825,2,0,L|350:120,1,104.399996813965,0|0,0:0|0:0,0:0:0:0:
408,2,220141,2,0,L|522:19,1,104.399996813965,0|0,0:0|0:0,0:0:0:0:
247,270,220457,6,0,B|201:205|201:205|237:134,1,156.599995220947,8|0,0:0|0:0,0:0:0:0:
269,280,220773,2,0,P|277:331|240:367,1,104.399996813965,8|0,0:1|0:0,0:0:0:0:
246,119,221089,2,0,L|414:139,1,156.599995220947,8|0,0:0|0:0,0:0:0:0:
235,136,221404,5,8,0:1:0:0:
166,83,221562,2,0,B|139:127|139:127|161:178,1,104.399996813965,8|0,0:1|0:0,0:0:0:0:
244,323,221878,1,8,0:1:0:0:
313,270,222036,2,0,B|340:314|340:314|318:365,1,104.399996813965,8|0,0:1|0:0,0:0:0:0:
191,73,222352,6,0,B|258:92|258:92|297:126|297:126|373:148,1,198.359997578613,14|0,0:0|0:0,0:0:0:0:
166,83,222825,2,0,L|66:105,1,99.1799987893067,8|0,0:0|0:0,0:0:0:0:
388,159,223141,1,8,0:0:0:0:
468,129,223299,6,0,P|482:78|449:42,1,99.1799987893067,8|0,0:1|0:0,0:0:0:0:
235,166,223615,1,2,0:0:0:0:
152,135,223773,1,2,0:0:0:0:
69,104,223931,1,0,0:0:0:0:
164,140,224089,1,0,0:0:0:0:
20,213,224246,6,0,P|71:132|171:145,1,198.359997578613,8|0,0:0|0:0,0:0:0:0:
6,224,224720,2,0,P|3:162|25:116,1,99.1799987893067,8|0,0:0|0:0,0:0:0:0:
263,288,225036,1,8,0:0:0:0:
310,191,225194,6,0,L|193:208,1,99.1799987893067,8|0,0:1|0:0,0:0:0:0:
138,47,225510,2,0,L|255:64,1,99.1799987893067,0|2,0:0|0:0,0:0:0:0:
321,198,225825,2,0,L|204:215,1,99.1799987893067,8|0,0:0|0:0,0:0:0:0:
36,340,226141,6,0,B|89:320|89:320|238:337,1,198.359997578613,8|0,0:0|0:0,0:0:0:0:
23,349,226615,2,0,P|-6:301|6:248,1,99.1799987893067,8|8,0:0|0:0,0:0:0:0:
168,152,226931,1,0,0:0:0:0:
230,213,227089,6,0,P|259:165|247:112,1,99.1799987893067,8|0,0:1|0:0,0:0:0:0:
61,87,227404,2,0,P|57:135|84:175,1,99.1799987893067,0|0,0:0|0:0,0:0:0:0:
230,213,227720,2,0,L|343:193,1,99.1799987893067,2|0,0:0|0:0,0:0:0:0:
512,371,228036,6,0,B|513:354|495:334|495:334|330:303,1,198.359997578613,8|8,0:0|0:0,0:0:0:0:
171,373,228510,1,8,0:0:0:0:
17,308,228668,1,8,0:0:0:0:
167,243,228825,1,0,0:0:0:0:
127,158,228983,6,0,P|129:226|155:245,1,99.1799987893067,12|0,0:1|0:0,0:0:0:0:
341,304,229299,1,8,0:1:0:0:
486,175,229457,1,8,0:1:0:0:
308,130,229615,1,8,0:1:0:0:
308,130,229931,6,0,B|254:137|217:93|240:60|202:22|151:25,1,198.359997578613,14|0,0:0|0:0,0:0:0:0:
330,134,230404,2,0,P|359:88|353:43,1,99.1799987893067,8|0,0:0|0:0,0:0:0:0:
106,242,230720,1,8,0:0:0:0:
65,164,230878,6,0,P|124:151|169:177,1,99.1799987893067,8|0,0:1|0:0,0:0:0:0:
269,316,231194,1,2,0:0:0:0:
405,344,231352,1,2,0:0:0:0:
501,254,231510,2,0,P|495:191|470:168,1,99.1799987893067,0|0,0:0|0:0,0:0:0:0:
512,11,231825,6,0,B|462:49|462:49|321:31,1,198.359997578613,10|0,0:0|0:0,0:0:0:0:
476,74,232299,2,0,B|489:123|489:123|467:177,1,99.1799987893067,8|0,0:0|0:0,0:0:0:0:
413,242,232615,1,8,0:0:0:0:
227,140,232773,6,0,L|129:157,1,99.1799987893067,8|0,0:1|0:0,0:0:0:0:
3,172,233089,2,0,L|66:248,1,99.1799987893067,0|0,0:0|0:0,0:0:0:0:
148,350,233404,2,0,L|182:256,1,99.1799987893067,10|0,0:0|0:0,0:0:0:0:
321,12,233720,6,0,B|345:69|345:69|340:149|340:149|379:224,1,198.359997578613,12|8,0:0|0:0,0:0:0:0:
463,259,234194,1,0,0:0:0:0:
352,212,234352,1,8,0:0:0:0:
367,89,234510,1,0,0:0:0:0:
166,0,234668,6,0,P|108:11|84:54,1,99.1799987893067,8|0,0:1|0:0,0:0:0:0:
0,108,234983,2,0,P|50:155|50:211,1,99.1799987893067,8|0,0:0|0:0,0:0:0:0:
108,346,235299,2,0,L|132:239,1,99.1799987893067,8|0,0:1|0:0,0:0:0:0:
360,93,235615,6,0,B|361:63|323:41|323:41|277:53|262:100|286:146,1,195.749994026184,14|0,0:0|0:0,0:0:0:0:
279,330,236562,6,0,B|216:312|206:269|206:269|211:313|158:350,1,195.749994026184,14|0,0:0|0:0,0:0:0:0:
160,348,237510,5,14,0:0:0:0:
256,192,237589,12,0,240352,0:0:0:0:
