osu file format v14

[General]
AudioFilename: audio.mp3
AudioLeadIn: 0
PreviewTime: 1615
Countdown: 0
SampleSet: Soft
StackLeniency: 0.7
Mode: 0
LetterboxInBreaks: 0
WidescreenStoryboard: 0

[Editor]
DistanceSpacing: 2.2
BeatDivisor: 4
GridSize: 4
TimelineZoom: 2.7

[Metadata]
Title:Line Without a Hook
TitleUnicode:Line Without a Hook
Artist:Ricky Montgomery
ArtistUnicode:Ricky Montgomery
Creator:Cheri
Version:Expert
Source:osu!
Tags:Hailie DJ_Lucky DJ Lucky English Rock fa featured artist mapper's guild mg
BeatmapID:2445615
BeatmapSetID:1172523

[Difficulty]
HPDrainRate:5
CircleSize:4.5
OverallDifficulty:8.5
ApproachRate:8.7
SliderMultiplier:1.6
SliderTickRate:1

[Events]
//Background and Video events
0,0,"Webp.net-resizeimage (1).png",0,0
//Break Periods
//Storyboard Layer 0 (Background)
//Storyboard Layer 1 (Fail)
//Storyboard Layer 2 (Pass)
//Storyboard Layer 3 (Foreground)
//Storyboard Layer 4 (Overlay)
//Storyboard Sound Samples

[TimingPoints]
2563,315.789473684211,3,2,0,50,1,0
32878,-83.3333333333333,3,2,0,50,0,0
36668,-66.6666666666667,3,2,0,90,0,0
37615,-100,3,2,0,70,0,0
40457,-83.3333333333333,3,2,0,90,0,0
44247,-66.6666666666667,3,2,0,70,0,0
45194,-100,3,2,0,70,0,0
48036,-133.333333333333,3,2,0,40,0,0
61299,-66.6666666666667,3,2,0,90,0,0
63194,-66.6666666666667,3,2,0,70,0,0
63668,-83.3333333333333,3,2,0,70,0,0
70773,-66.6666666666667,3,2,0,70,0,0
71720,-83.3333333333333,3,2,0,70,0,0
78352,-200,3,2,0,70,0,0
84036,-66.6666666666667,3,2,0,90,0,0
86878,-83.3333333333333,3,2,0,70,0,0
94457,-66.6666666666667,3,2,0,90,0,0
97299,-66.6666666666667,3,2,0,70,0,0
98247,-83.3333333333333,3,2,0,70,0,0
101089,-66.6666666666667,3,2,0,90,0,0
104878,-66.6666666666667,3,2,0,70,0,0
107089,-83.3333333333333,3,2,0,70,0,0
108668,-66.6666666666667,3,2,0,70,0,0
109141,-100,3,2,0,70,0,0
121931,-83.3333333333333,3,2,0,70,0,0
123826,-66.6666666666667,3,2,0,70,0,0
124299,-83.3333333333333,3,2,0,70,0,0
138984,-66.6666666666667,3,2,0,90,0,0
148457,-83.3333333333333,3,2,0,90,0,0
149405,-66.6666666666667,3,2,0,90,0,0
150352,-83.3333333333333,3,2,0,90,0,0
159826,-66.6666666666667,3,2,0,90,0,0
160773,-200,3,2,0,50,0,0
161720,-83.3333333333333,3,2,0,70,0,0
174984,-66.6666666666667,3,2,0,90,0,0
176878,-200,3,2,0,30,0,0
203405,-133.333333333333,3,2,0,50,0,0
204352,-100,3,2,0,70,0,0
205299,-79.9999999999999,3,2,0,80,0,0
207194,-66.6666666666667,3,2,0,90,0,1
208141,-76.9230769230769,3,2,0,90,0,1
214773,-66.6666666666667,3,2,0,90,0,1
215720,-76.9230769230769,3,2,0,90,0,1
220457,-66.6666666666667,3,2,0,90,0,1
224247,-76.9230769230769,3,2,0,50,0,1
226141,-66.6666666666667,3,2,0,90,0,1
229931,-66.6666666666667,3,2,0,90,0,1
230878,-76.9230769230769,3,2,0,90,0,1
235615,-66.6666666666667,3,2,0,90,0,1
237510,-66.6666666666667,3,2,0,90,0,0
237589,-66.6666666666667,3,2,0,20,0,0

[Colours]
Combo1 : 19,89,236
Combo2 : 244,51,255
Combo3 : 192,192,192
Combo4 : 221,0,111
SliderTrackOverride : 0,0,128

[HitObjects]
465,190,1615,5,0,3:0:0:0:
465,190,1773,1,0,3:0:0:0:
465,190,1931,1,0,3:0:0:0:
465,190,2089,1,0,3:0:0:0:
305,87,2247,1,0,1:0:0:0:
332,271,2405,1,0,1:0:0:0:
332,271,2563,6,0,L|320:181,1,80,4|0,0:0|0:0,0:0:0:0:
465,190,2878,2,0,P|480:127|517:11,1,160,0|0,3:0|0:0,0:0:0:0:
465,190,3352,1,0,3:0:0:0:
259,80,3510,6,0,P|219:81|163:77,1,80,0|0,1:0|0:0,0:0:0:0:
178,181,3826,2,0,P|218:181|284:186,1,80,2|0,0:0|0:0,0:0:0:0:
138,314,4141,2,0,P|99:312|39:317,1,80,0|0,3:0|0:0,0:0:0:0:
282,324,4457,2,0,B|325:329|359:347|344:386|401:388|460:382,1,160,4|0,0:3|0:0,0:0:0:0:
485,190,4931,2,0,P|484:114|494:28,1,160,0|0,3:0|0:0,0:0:0:0:
382,193,5405,2,0,L|388:279,1,80,0|0,1:0|0:0,0:0:0:0:
288,106,5720,6,0,L|195:99,1,80,0|0,3:0|0:0,0:0:0:0:
199,238,6036,2,0,L|291:236,1,80,0|0,3:0|0:0,0:0:0:0:
61,363,6352,2,0,P|48:302|23:207,1,160,4|0,0:3|0:0,0:0:0:0:
91,61,6826,2,0,L|113:155,1,80,0|0,3:3|0:0,0:0:0:0:
199,238,7141,1,0,0:0:0:0:
452,237,7299,2,0,P|437:176|320:168,1,160,0|0,1:0|0:0,0:0:0:0:
373,227,7773,2,0,P|362:276|293:230,1,160,2|0,0:0|0:0,0:0:0:0:
164,33,8247,2,0,L|164:209,1,160,4|0,3:0|0:0,0:0:0:0:
92,352,8720,2,0,B|131:351|163:313|163:313|196:355|264:348,1,160,0|0,3:0|0:0,0:0:0:0:
371,235,9194,2,0,L|263:236,1,80,0|0,1:0|0:0,0:0:0:0:
437,155,9510,5,0,3:0:0:0:
437,155,9668,1,0,3:0:0:0:
352,346,9826,1,0,3:0:0:0:
352,346,9984,1,0,3:0:0:0:
222,186,10141,2,0,P|195:132|84:138,1,160,4|0,0:3|3:0,0:0:0:0:
27,293,10615,2,0,P|54:346|146:352,1,160,2|0,0:0|3:0,0:0:0:0:
222,186,11089,6,0,L|290:108,1,80,0|0,1:0|0:0,0:0:0:0:
346,301,11405,2,0,L|285:250,1,80,0|0,3:0|0:0,0:0:0:0:
290,33,11720,2,0,L|380:98,1,80,0|0,3:0|0:0,0:0:0:0:
222,186,12036,2,0,P|154:162|52:194,1,160,4|0,0:3|0:0,0:0:0:0:
293,334,12510,2,0,L|472:336,1,160,0|0,3:0|0:0,0:0:0:0:
209,353,12984,5,0,1:0:0:0:
209,353,13141,1,0,0:0:0:0:
70,181,13299,1,0,3:0:0:0:
70,181,13457,1,0,0:0:0:0:
304,140,13615,1,0,3:0:0:0:
304,140,13773,1,0,0:0:0:0:
396,139,13931,2,0,P|383:89|347:61,2,80,4|0|0,0:3|0:0|0:0,0:0:0:0:
304,140,14405,1,0,3:3:0:0:
117,40,14563,1,0,0:0:0:0:
117,40,14720,1,0,0:0:0:0:
117,40,14878,6,0,P|111:96|112:158,1,80,0|0,1:0|0:0,0:0:0:0:
53,352,15194,2,0,P|54:299|53:248,1,80,2|0,0:0|0:0,0:0:0:0:
236,206,15510,2,0,P|281:206|332:206,1,80,0|0,0:0|0:0,0:0:0:0:
479,217,15826,6,0,P|476:168|369:123,1,160,4|0,3:0|0:0,0:0:0:0:
236,206,16299,1,0,3:0:0:0:
236,206,16457,2,0,P|254:163|312:132,1,80,0|0,0:0|0:0,0:0:0:0:
80,141,16773,2,0,P|113:180|121:212,1,80,0|0,1:0|0:0,0:0:0:0:
39,359,17089,2,0,P|37:314|54:274,1,80,0|0,3:0|3:0,0:0:0:0:
200,284,17405,1,0,1:0:0:0:
279,142,17563,1,0,1:0:0:0:
503,196,17720,6,0,P|419:195|370:104,2,160,4|0|0,0:0|3:0|0:0,0:0:0:0:
258,35,18510,1,0,3:0:0:0:
199,142,18668,2,0,L|299:142,1,80,0|0,1:0|0:0,0:0:0:0:
161,308,18984,2,0,L|74:307,1,80,2|0,0:0|0:0,0:0:0:0:
112,186,19299,1,0,3:0:0:0:
244,313,19457,1,0,0:0:0:0:
463,239,19615,6,0,P|466:179|478:48,1,160,4|0,0:3|0:0,0:0:0:0:
330,255,20089,2,0,P|357:327|289:384,1,160,0|0,3:0|0:0,0:0:0:0:
84,313,20563,2,0,L|247:312,1,160,0|0,1:0|0:0,0:0:0:0:
63,232,21036,2,0,B|36:180|36:180|74:79,1,160,0|0,0:0|0:0,0:0:0:0:
161,191,21510,5,4,0:3:0:0:
161,191,21668,1,0,0:0:0:0:
246,89,21826,1,0,0:0:0:0:
246,89,21984,1,0,3:3:0:0:
243,312,22141,1,0,0:0:0:0:
243,312,22299,1,0,0:0:0:0:
466,189,22457,6,0,P|406:183|359:178,1,80,0|0,1:0|0:0,0:0:0:0:
166,97,22773,2,0,P|224:91|262:86,1,80
138,327,23089,2,0,P|90:327|50:328,1,80,2|0,0:0|0:0,0:0:0:0:
243,312,23405,1,4,3:0:0:0:
243,312,23720,2,0,L|240:228,1,80,0|0,0:0|3:0,0:0:0:0:
391,100,24036,2,0,L|386:181,1,80,0|0,0:0|0:0,0:0:0:0:
480,320,24352,6,0,P|459:224|533:196,2,160,0|0|0,1:0|3:0|3:0,0:0:0:0:
386,179,25141,1,0,3:0:0:0:
313,120,25299,2,0,B|275:110|242:129|223:172|197:194|147:187,1,160,4|0,3:0|3:0,0:0:0:0:
110,248,25773,2,0,P|85:181|139:114,1,160,0|0,0:0|3:0,0:0:0:0:
110,248,26247,2,0,L|109:339,1,80,0|0,1:0|0:0,0:0:0:0:
233,117,26563,6,0,P|278:121|330:117,1,80,2|0,0:0|0:0,0:0:0:0:
441,215,26878,2,0,P|394:212|346:217,1,80,0|0,3:0|0:0,0:0:0:0:
124,114,27194,2,0,P|97:60|179:9,1,160,4|0,0:3|0:0,0:0:0:0:
101,204,27668,2,0,P|171:192|206:117,1,160,0|0,3:0|0:0,0:0:0:0:
478,56,28141,2,0,L|373:56,1,80,0|0,1:0|0:0,0:0:0:0:
479,192,28457,6,0,P|483:252|482:298,1,80,0|0,3:0|0:0,0:0:0:0:
330,131,28773,2,0,P|324:62|326:21,1,80,0|0,3:0|0:0,0:0:0:0:
76,33,29089,2,0,P|42:84|99:159,1,160,4|0,0:3|0:0,0:0:0:0:
286,193,29563,2,0,B|258:182|213:194|215:247|165:246|127:231,1,160,0|0,3:3|0:0,0:0:0:0:
379,199,30036,2,0,P|374:283|315:328,1,160,0|0,1:0|0:0,0:0:0:0:
460,126,30510,2,0,P|452:80|473:32,1,80,2|0,0:0|0:0,0:0:0:0:
379,199,30826,1,0,0:0:0:0:
226,60,30984,6,0,P|146:54|34:25,1,160,4|0,3:0|0:0,0:0:0:0:
54,332,31457,1,0,3:0:0:0:
90,270,31615,2,0,P|130:271|195:284,1,80,0|0,0:0|0:0,0:0:0:0:
458,193,31931,6,0,L|360:193,1,80,0|0,1:0|0:0,0:0:0:0:
169,277,32247,2,0,L|262:238,1,80,0|0,3:0|0:0,0:0:0:0:
169,33,32563,2,0,L|262:72,1,80,0|0,1:0|3:0,0:0:0:0:
458,193,32878,6,0,P|439:143|346:140,1,143.999995605469,4|0,1:0|0:0,0:0:0:0:
50,66,33194,2,0,P|95:20|169:33,1,143.999995605469,4|0,1:0|0:0,0:0:0:0:
117,266,33510,2,0,L|117:148,1,95.9999970703126,4|0,1:0|0:0,0:0:0:0:
242,246,33826,5,0,0:0:0:0:
242,246,34773,2,0,P|259:310|347:332,1,143.999995605469,4|0,1:0|0:0,0:0:0:0:
443,71,35089,2,0,P|384:22|303:43,1,143.999995605469,4|0,1:0|0:0,0:0:0:0:
331,238,35405,1,4,1:0:0:0:
443,71,35720,1,0,0:0:0:0:
331,238,36668,6,0,P|288:189|108:206,1,240.000009155274,4|0,0:0|3:0,0:0:0:0:
96,260,37141,1,0,0:0:0:0:
111,88,37299,2,0,P|149:90|222:40,1,120.000004577637,0|0,0:0|3:0,0:0:0:0:
484,202,37615,2,0,P|482:243|490:381,1,160,0|0,1:0|0:0,0:0:0:0:
419,153,38089,1,0,0:0:0:0:
419,153,38247,2,0,L|421:56,1,80,0|0,3:0|0:0,0:0:0:0:
321,255,38563,6,0,L|322:345,1,80,4|0,0:3|0:0,0:0:0:0:
178,257,38878,2,0,L|179:343,1,80,0|0,0:0|3:0,0:0:0:0:
103,98,39194,2,0,L|103:11,1,80,0|0,0:0|0:0,0:0:0:0:
323,104,39510,6,0,P|326:53|286:1,1,120,0|0,1:0|0:0,0:0:0:0:
103,98,39826,2,0,P|88:146|143:221,1,120,0|0,3:0|0:0,0:0:0:0:
397,139,40141,2,0,P|408:106|397:37,1,80,0|0,1:0|0:0,0:0:0:0:
428,268,40457,6,0,P|336:270|311:203,1,143.999995605469,4|0,1:0|0:0,0:0:0:0:
0,232,40773,2,0,P|63:185|129:219,1,143.999995605469,4|0,1:0|0:0,0:0:0:0:
257,348,41089,2,0,L|146:347,1,95.9999970703126,4|0,1:0|0:0,0:0:0:0:
455,329,42352,6,0,P|464:238|482:172,1,143.999995605469,4|0,1:0|0:0,0:0:0:0:
328,1,42668,2,0,P|352:71|361:159,1,143.999995605469,4|0,1:0|0:0,0:0:0:0:
455,329,42984,1,4,1:0:0:0:
58,258,44247,6,0,P|120:235|144:77,1,240.000009155274,4|0,0:0|3:0,0:0:0:0:
89,24,44720,1,0,0:0:0:0:
281,37,44878,2,0,P|339:47|417:15,1,120.000004577637,0|0,0:0|3:0,0:0:0:0:
480,258,45194,2,0,P|478:183|487:60,1,160,0|0,1:0|0:0,0:0:0:0:
392,313,45668,2,0,B|364:296|319:299|305:338|273:350|220:325,1,160,2|0,0:0|0:0,0:0:0:0:
42,329,46141,2,0,P|41:255|124:200,1,160,4|0,0:3|0:0,0:0:0:0:
316,189,46615,2,0,L|217:187,1,80,0|0,3:0|0:0,0:0:0:0:
351,80,46931,1,0,1:0:0:0:
512,161,47089,2,0,L|415:115,1,80,0|0,1:0|0:0,0:0:0:0:
355,277,47405,5,0,3:0:0:0:
355,277,47563,1,4,3:0:0:0:
242,96,47720,2,0,L|165:139,1,80,0|0,3:0|0:0,0:0:0:0:
107,196,48036,6,0,P|92:158|6:146,2,120.000004577637,2|0|0,0:0|0:0|0:0,0:0:0:0:
107,196,48984,2,0,L|194:197,1,60.0000022888184,2|0,0:0|0:0,0:0:0:0:
266,122,49299,2,0,L|187:121,1,60.0000022888184,0|0,0:0|0:0,0:0:0:0:
204,36,49615,2,0,L|288:36,1,60.0000022888184,0|0,0:0|0:0,0:0:0:0:
403,76,49931,2,0,P|403:151|404:216,1,120.000004577637,2|0,0:0|0:0,0:0:0:0:
451,293,50405,6,0,P|387:288|322:287,1,120.000004577637,0|0,0:0|0:0,0:0:0:0:
190,316,50878,2,0,L|190:189,1,120.000004577637,2|0,0:0|0:0,0:0:0:0:
190,196,51510,2,0,L|116:196,1,60.0000022888184,0|0,0:0|0:0,0:0:0:0:
349,56,51826,2,0,L|431:58,1,60.0000022888184,2|0,0:0|0:0,0:0:0:0:
408,57,52457,2,0,L|342:57,1,60.0000022888184,2|0,0:0|0:0,0:0:0:0:
348,57,53405,6,0,L|410:58,1,60.0000022888184,2|0,0:0|0:0,0:0:0:0:
174,78,53720,2,0,P|149:131|176:203,1,120.000004577637,2|0,0:0|0:0,0:0:0:0:
259,242,54194,1,0,0:0:0:0:
259,242,54352,2,0,P|265:197|256:159,1,60.0000022888184,0|0,0:0|0:0,0:0:0:0:
257,338,54668,2,0,L|400:342,1,120.000004577637,2|0,0:0|0:0,0:0:0:0:
448,196,55141,1,0,0:0:0:0:
448,196,55299,2,0,L|362:195,1,60.0000022888184,0|0,0:0|0:0,0:0:0:0:
257,338,55615,6,0,P|209:306|124:287,1,120.000004577637,2|0,0:0|0:0,0:0:0:0:
74,304,56089,1,0,0:0:0:0:
32,155,56247,2,0,P|34:202|34:235,1,60.0000022888184,0|0,0:0|0:0,0:0:0:0:
92,84,56563,2,0,L|169:84,1,60.0000022888184,2|0,0:0|0:0,0:0:0:0:
190,167,56878,2,0,L|112:168,1,60.0000022888184,0|0,0:0|0:0,0:0:0:0:
258,201,57194,2,0,P|266:163|254:125,1,60.0000022888184,0|0,0:0|0:0,0:0:0:0:
346,250,57510,6,0,P|363:204|355:111,1,120.000004577637,2|0,0:0|0:0,0:0:0:0:
423,22,57984,1,0,0:0:0:0:
423,22,58141,2,0,P|436:45|449:99,1,60.0000022888184,0|0,0:0|0:0,0:0:0:0:
362,133,58457,2,0,L|230:134,1,120.000004577637,0|0,0:0|0:0,0:0:0:0:
74,242,58931,2,0,P|64:176|99:123,1,120.000004577637,0|0,0:0|0:0,0:0:0:0:
74,242,59405,6,0,L|2:244,1,60.0000022888184,2|0,0:0|0:0,0:0:0:0:
14,243,60036,2,0,L|80:242,1,60.0000022888184,2|0,0:0|0:0,0:0:0:0:
432,359,61299,2,0,P|386:274|500:201,1,240.000009155274,4|0,1:0|0:0,0:0:0:0:
217,288,61773,1,0,0:0:0:0:
162,348,61931,2,0,B|114:324|114:324|48:354,1,120.000004577637,0|0,3:0|0:0,0:0:0:0:
363,182,62247,2,0,P|424:191|504:198,1,120.000004577637,0|0,1:0|0:0,0:0:0:0:
252,192,62563,1,4,3:0:0:0:
329,295,62720,1,0,1:0:0:0:
369,59,62878,1,0,1:0:0:0:
329,379,63194,6,0,P|388:363|358:221,1,240.000009155274,4|0,0:0|3:0,0:0:0:0:
206,190,63668,1,0,0:0:0:0:
206,190,63826,2,0,L|90:190,1,95.9999970703126,0|0,0:0|3:0,0:0:0:0:
329,55,64141,2,0,L|432:57,1,95.9999970703126,0|0,1:0|0:0,0:0:0:0:
229,31,64457,1,2,0:0:0:0:
206,190,64615,2,0,L|198:297,1,95.9999970703126,0|0,0:0|3:0,0:0:0:0:
473,187,64931,1,0,0:0:0:0:
449,279,65089,6,0,P|397:251|442:114,1,191.999994140625,4|0,0:3|0:0,0:0:0:0:
465,22,65563,2,0,B|411:22|388:32|365:76|330:99|255:83,1,191.999994140625,0|0,3:0|0:0,0:0:0:0:
37,169,66036,2,0,P|44:239|25:367,1,191.999994140625,0|0,1:0|3:0,0:0:0:0:
184,200,66510,2,0,L|184:96,1,95.9999970703126,0|0,0:0|3:0,0:0:0:0:
346,279,66826,1,0,0:0:0:0:
449,190,66984,6,0,L|247:190,1,191.999994140625,4|0,0:3|0:0,0:0:0:0:
51,7,67457,2,0,P|33:79|31:211,1,191.999994140625,0|0,3:3|0:0,0:0:0:0:
163,322,67931,2,0,P|177:227|270:191,1,191.999994140625,0|0,1:0|0:0,0:0:0:0:
461,128,68405,2,0,L|330:128,1,95.9999970703126,2|0,0:0|0:0,0:0:0:0:
256,189,68720,1,0,0:0:0:0:
163,322,68878,6,0,L|290:321,1,95.9999970703126,4|0,3:0|0:0,0:0:0:0:
256,189,69194,1,0,0:0:0:0:
26,21,69352,2,0,P|32:93|30:159,1,95.9999970703126,0|0,3:0|0:0,0:0:0:0:
306,26,69668,1,0,0:0:0:0:
376,95,69826,2,0,P|279:112|221:25,1,191.999994140625,0|0,1:0|3:0,0:0:0:0:
32,213,70299,1,0,1:0:0:0:
260,300,70457,1,0,1:0:0:0:
223,47,70615,1,0,1:0:0:0:
286,324,70773,6,0,P|333:280|495:349,1,240.000009155274,4|0,0:0|3:0,0:0:0:0:
310,82,71247,1,0,0:0:0:0:
223,47,71405,2,0,P|221:114|221:188,1,120.000004577637,0|0,0:0|3:0,0:0:0:0:
47,349,71720,2,0,L|46:220,1,95.9999970703126,0|0,1:0|0:0,0:0:0:0:
150,357,72036,1,0,3:0:0:0:
213,310,72194,2,0,P|284:305|409:340,1,191.999994140625,2|0,0:0|0:0,0:0:0:0:
466,48,72668,6,0,L|464:256,1,191.999994140625,4|0,0:3|0:0,0:0:0:0:
378,219,73141,2,0,B|370:156|330:143|330:143|386:122|393:65,1,191.999994140625,0|0,3:0|0:0,0:0:0:0:
181,57,73615,2,0,P|148:109|200:216,1,191.999994140625,0|0,1:0|3:0,0:0:0:0:
440,317,74089,2,0,L|328:317,1,95.9999970703126,0|0,0:0|3:0,0:0:0:0:
200,216,74405,1,0,0:0:0:0:
26,366,74563,6,0,P|33:241|19:175,1,191.999994140625,4|0,0:3|0:0,0:0:0:0:
210,127,75036,2,0,P|189:178|211:231,1,95.9999970703126,0|0,3:3|0:0,0:0:0:0:
283,175,75352,1,0,0:0:0:0:
222,27,75510,2,0,L|17:27,1,191.999994140625,0|0,1:0|0:0,0:0:0:0:
19,176,75984,1,0,3:0:0:0:
283,175,76141,6,0,P|319:215|325:276,1,95.9999970703126
421,35,76457,2,0,L|421:237,1,191.999994140625,4|0,3:0|0:0,0:0:0:0:
238,360,76931,2,0,L|345:360,1,95.9999970703126,0|0,3:0|0:0,0:0:0:0:
280,170,77247,1,0,0:0:0:0:
42,175,77405,6,0,P|70:251|72:372,1,191.999994140625,0|0,1:0|3:0,0:0:0:0:
112,107,77878,1,0,3:0:0:0:
112,107,78036,2,0,L|251:109,1,95.9999970703126,0|0,3:0|3:0,0:0:0:0:
447,94,78352,6,0,P|272:161|411:343,1,480,4|0,0:0|0:0,0:0:0:0:
477,356,84036,6,0,P|397:333|276:354,1,180.000006866455,0|0,1:0|0:0,0:0:0:0:
477,254,84352,6,0,P|379:231|265:263,1,180.000006866455,0|0,1:0|0:0,0:0:0:0:
479,152,84668,6,0,P|366:133|277:159,1,180.000006866455,0|0,1:0|0:0,0:0:0:0:
42,39,84984,5,8,1:3:0:0:
42,39,85141,1,8,1:3:0:0:
89,215,85299,1,8,1:3:0:0:
217,69,85457,1,8,1:3:0:0:
74,326,85615,1,8,1:3:0:0:
217,69,85931,6,0,P|307:70|463:6,1,240.000009155274,4|0,0:0|3:0,0:0:0:0:
254,156,86405,1,0,0:0:0:0:
367,333,86563,2,0,L|510:343,1,120.000004577637,0|0,0:0|3:0,0:0:0:0:
244,245,86878,6,0,B|209:233|137:266|173:319|85:327|52:318,1,191.999994140625,0|0,1:0|0:0,0:0:0:0:
76,180,87352,1,0,0:0:0:0:
244,245,87510,2,0,L|243:348,1,95.9999970703126,0|0,3:0|0:0,0:0:0:0:
481,191,87826,2,0,P|463:145|495:11,1,191.999994140625,4|0,0:3|0:0,0:0:0:0:
339,244,88299,1,0,3:0:0:0:
339,244,88457,2,0,L|217:245,1,95.9999970703126,0|0,0:0|0:0,0:0:0:0:
138,90,88773,2,0,L|244:91,1,95.9999970703126,0|0,1:0|0:0,0:0:0:0:
39,269,89089,6,0,P|39:329|36:383,1,95.9999970703126,0|0,3:0|0:0,0:0:0:0:
129,185,89405,2,0,P|133:126|140:76,1,95.9999970703126,0|0,3:0|0:0,0:0:0:0:
359,17,89720,2,0,P|245:31|236:103,1,191.999994140625,4|0,0:3|0:0,0:0:0:0:
377,320,90194,1,0,3:3:0:0:
322,232,90352,2,0,L|442:231,1,95.9999970703126
234,322,90668,2,0,L|138:322,1,95.9999970703126,0|0,1:0|0:0,0:0:0:0:
51,31,90984,6,0,P|49:82|42:159,1,95.9999970703126,2|0,0:0|0:0,0:0:0:0:
222,35,91299,2,0,P|218:101|215:156,1,95.9999970703126,0|0,0:0|0:0,0:0:0:0:
330,334,91615,2,0,P|333:247|425:234,1,191.999994140625,4|0,3:0|0:0,0:0:0:0:
491,17,92089,1,0,3:0:0:0:
497,123,92247,2,0,P|447:118|412:49,1,95.9999970703126,0|0,0:0|0:0,0:0:0:0:
222,35,92563,2,0,P|274:32|351:24,1,95.9999970703126,0|0,1:0|0:0,0:0:0:0:
326,246,92878,2,0,P|277:246|189:249,1,95.9999970703126,0|0,3:0|3:0,0:0:0:0:
40,135,93194,6,0,L|155:135,1,95.9999970703126,0|0,1:0|3:0,0:0:0:0:
499,324,93510,2,0,P|422:277|287:239,1,191.999994140625,4|0,0:0|0:0,0:0:0:0:
230,247,93984,1,0,0:0:0:0:
40,135,94141,2,0,L|40:260,1,95.9999970703126
342,5,94457,6,0,P|332:114|325:248,1,240.000009155274,4|0,0:0|0:0,0:0:0:0:
55,26,95405,6,0,P|66:128|74:4,1,480.000018310548,4|0,0:0|0:0,0:0:0:0:
55,26,96352,6,0,L|333:26,1,240.000009155274,4|0,0:0|0:0,0:0:0:0:
508,372,97299,6,0,P|526:295|401:190,1,240.000009155274,4|0,0:0|3:0,0:0:0:0:
98,348,97773,1,0,0:0:0:0:
120,255,97931,2,0,P|158:277|192:347,1,120.000004577637,0|0,0:0|3:0,0:0:0:0:
257,108,98247,2,0,L|257:320,1,191.999994140625,0|2,1:0|0:0,0:0:0:0:
341,77,98720,2,0,P|301:36|173:67,1,191.999994140625
443,36,99194,6,0,P|438:123|444:229,1,191.999994140625,4|0,0:3|0:0,0:0:0:0:
257,300,99668,1,0,3:0:0:0:
38,190,99826,2,0,L|168:190,1,95.9999970703126,0|0,0:0|0:0,0:0:0:0:
257,300,100141,2,0,B|293:234|293:234|257:98,1,191.999994140625,0|0,1:0|3:0,0:0:0:0:
400,341,100615,1,0,0:0:0:0:
482,99,100773,2,0,L|482:223,1,95.9999970703126,0|0,1:0|0:0,0:0:0:0:
147,315,101089,6,0,B|197:286|197:286|278:304,1,120.000004577637,4|0,1:0|0:0,0:0:0:0:
263,121,101405,2,0,B|217:155|217:155|125:129,1,120.000004577637,4|0,1:0|0:0,0:0:0:0:
400,341,101720,2,0,B|370:297|370:297|395:223,1,120.000004577637,4|0,1:0|0:0,0:0:0:0:
463,25,102036,2,0,B|493:69|493:69|468:143,1,120.000004577637,4|0,1:0|0:0,0:0:0:0:
145,187,102984,6,0,P|184:101|128:9,1,180.000006866455,4|0,1:0|0:0,0:0:0:0:
414,26,103299,2,0,P|378:75|394:192,1,180.000006866455,4|0,1:0|0:0,0:0:0:0:
201,256,103615,2,0,P|117:274|59:210,1,180.000006866455,4|0,1:0|0:0,0:0:0:0:
302,215,103931,2,0,P|370:267|452:239,1,180.000006866455,4|0,1:0|0:0,0:0:0:0:
497,316,104247,5,0,1:0:0:0:
481,114,104405,1,0,1:0:0:0:
302,215,104563,1,0,1:0:0:0:
490,87,104878,6,0,P|380:68|228:15,1,240.000009155274,4|0,0:0|3:0,0:0:0:0:
39,202,105352,1,0,0:0:0:0:
27,69,105510,2,0,L|120:156,1,120.000004577637,0|0,0:0|3:0,0:0:0:0:
258,28,105826,2,0,P|210:115|307:253,1,240.000009155274,0|0,1:0|0:0,0:0:0:0:
488,361,106299,2,0,P|492:289|347:193,1,240.000009155274,2|0,0:0|0:0,0:0:0:0:
53,337,106773,2,0,L|200:339,1,120.000004577637,4|0,0:3|0:0,0:0:0:0:
173,193,107089,2,0,L|53:192,1,95.9999970703126,0|0,3:0|3:0,0:0:0:0:
78,65,107405,2,0,L|187:64,1,95.9999970703126,0|0,3:0|0:0,0:0:0:0:
441,31,107720,6,0,P|424:125|505:197,1,191.999994140625,0|0,1:0|0:0,0:0:0:0:
484,191,108141,1,0,1:0:0:0:
484,191,108247,1,0,1:0:0:0:
484,191,108352,1,0,1:0:0:0:
43,333,108668,6,0,P|27:196|9:78,1,240.000009155274,4|0,0:0|3:0,0:0:0:0:
110,187,109141,1,0,0:0:0:0:
110,187,109299,2,0,L|213:188,1,80,0|0,0:0|3:0,0:0:0:0:
318,95,109615,2,0,L|219:96,1,80,0|0,1:0|0:0,0:0:0:0:
418,45,109931,2,0,L|421:153,1,80,2|0,0:0|0:0,0:0:0:0:
507,298,110247,2,0,L|507:193,1,80,0|0,3:0|0:0,0:0:0:0:
408,356,110563,6,0,L|245:357,1,160,4|0,0:3|0:0,0:0:0:0:
75,348,111036,2,0,P|44:298|106:235,1,160,0|0,3:0|0:0,0:0:0:0:
195,36,111510,2,0,L|195:231,1,160,0|0,1:0|3:0,0:0:0:0:
436,71,111984,1,0,0:0:0:0:
436,71,112141,2,0,L|320:72,1,80,0|0,3:0|0:0,0:0:0:0:
195,196,112457,2,0,P|150:168|216:125,1,160,4|0,0:3|0:0,0:0:0:0:
202,300,112931,1,0,3:3:0:0:
202,300,113089,2,0,L|101:307,1,80,0|0,0:0|0:0,0:0:0:0:
133,119,113405,2,0,L|243:124,1,80,0|0,1:0|0:0,0:0:0:0:
375,33,113720,2,0,L|274:27,1,80
489,116,114036,6,0,P|487:185|491:230,1,80,2|0,0:0|0:0,0:0:0:0:
350,329,114352,2,0,P|421:328|534:336,1,160,4|0,3:0|0:0,0:0:0:0:
489,116,114826,2,0,P|415:125|316:136,1,160,0|0,3:0|0:0,0:0:0:0:
110,218,115299,2,0,L|297:217,1,160,0|0,1:0|3:0,0:0:0:0:
30,148,115773,1,0,3:0:0:0:
110,218,115931,2,0,L|109:311,1,80,0|0,3:0|3:0,0:0:0:0:
119,52,116247,2,0,P|168:33|275:87,1,160,4|0,0:3|0:0,0:0:0:0:
489,116,116720,1,0,0:0:0:0:
489,116,116878,6,0,P|452:88|434:45,1,80,0|0,0:0|3:0,0:0:0:0:
473,261,117194,2,0,P|484:302|480:347,1,80,0|0,1:0|0:0,0:0:0:0:
327,194,117510,2,0,L|439:195,1,80,2|0,0:0|0:0,0:0:0:0:
253,315,117826,2,0,L|148:316,1,80,0|0,0:0|0:0,0:0:0:0:
22,195,118141,2,0,P|17:112|10:23,1,160,4|0,0:3|0:0,0:0:0:0:
121,239,118615,2,0,B|166:233|210:260|177:309|222:310|286:319,1,160,0|0,3:0|0:0,0:0:0:0:
483,319,119089,2,0,P|508:277|446:195,1,160,0|0,1:0|0:0,0:0:0:0:
396,0,119563,6,0,P|347:57|393:138,1,160,2|0,0:0|0:0,0:0:0:0:
249,306,120036,2,0,P|165:314|60:323,1,160,4|0,0:3|0:0,0:0:0:0:
217,107,120510,2,0,P|286:117|377:128,1,160,0|0,3:3|0:0,0:0:0:0:
78,65,120984,2,0,L|47:173,1,80,0|0,1:0|0:0,0:0:0:0:
217,107,121299,2,0,L|238:29,1,80,0|2,0:0|0:0,0:0:0:0:
375,127,121615,1,0,0:0:0:0:
303,79,121773,1,0,0:0:0:0:
259,340,121931,6,0,P|293:307|390:327,1,143.999995605469,4|0,3:0|0:0,0:0:0:0:
281,206,122247,2,0,P|235:181|146:223,1,143.999995605469,0|0,3:0|0:0,0:0:0:0:
303,79,122563,2,0,P|361:45|446:82,1,143.999995605469,0|0,3:0|0:0,0:0:0:0:
75,125,122878,2,0,L|69:280,1,143.999995605469,4|0,1:0|0:0,0:0:0:0:
168,32,123194,1,0,3:0:0:0:
303,79,123352,1,0,3:0:0:0:
69,268,123510,1,0,1:0:0:0:
303,79,123826,6,0,P|348:121|452:22,1,240.000009155274,4|0,0:0|0:0,0:0:0:0:
90,31,124299,1,0,0:0:0:0:
168,32,124457,2,0,L|166:139,1,95.9999970703126,0|0,0:0|3:0,0:0:0:0:
54,289,124773,2,0,P|54:242|48:172,1,95.9999970703126,0|0,1:0|0:0,0:0:0:0:
191,302,125089,1,0,0:0:0:0:
245,35,125247,2,0,L|366:25,1,95.9999970703126,2|0,0:0|0:0,0:0:0:0:
399,119,125563,1,0,0:0:0:0:
498,185,125720,6,0,P|519:132|460:18,1,191.999994140625,4|0,0:3|0:0,0:0:0:0:
452,264,126194,2,0,P|387:222|403:114,1,191.999994140625,0|0,3:0|0:0,0:0:0:0:
115,36,126668,2,0,L|328:33,1,191.999994140625,0|0,1:0|0:0,0:0:0:0:
39,111,127141,2,0,P|37:187|29:242,1,95.9999970703126,0|0,0:0|3:0,0:0:0:0:
115,36,127457,1,0,0:0:0:0:
303,194,127615,6,0,P|220:180|211:73,1,191.999994140625,4|0,0:3|0:0,0:0:0:0:
423,160,128089,2,0,P|424:221|384:275,1,95.9999970703126,0|0,3:3|0:0,0:0:0:0:
202,85,128405,1,0,0:0:0:0:
21,187,128563,2,0,L|227:189,1,191.999994140625,0|0,1:0|0:0,0:0:0:0:
408,251,129036,2,0,B|361:238|324:246|304:283|249:283|206:253,1,191.999994140625,2|0,0:0|0:0,0:0:0:0:
501,254,129510,6,0,L|509:371,1,95.9999970703126,4|0,3:0|0:0,0:0:0:0:
399,155,129826,2,0,L|410:273,1,95.9999970703126,0|0,3:0|0:0,0:0:0:0:
209,150,130141,2,0,L|199:41,1,95.9999970703126
121,334,130457,6,0,P|80:337|-2:342,1,95.9999970703126,0|0,1:0|0:0,0:0:0:0:
72,114,130773,1,0,1:0:0:0:
72,114,130931,1,0,1:0:0:0:
137,253,131089,1,0,3:0:0:0:
200,54,131247,1,0,3:0:0:0:
444,58,131405,6,0,P|377:56|312:57,1,95.9999970703126,4|0,0:0|0:0,0:0:0:0:
156,150,131720,2,0,P|212:148|288:146,1,95.9999970703126,0|0,3:0|0:0,0:0:0:0:
446,282,132036,2,0,P|371:282|314:283,1,95.9999970703126,0|0,0:0|3:0,0:0:0:0:
156,150,132352,6,0,L|154:264,1,95.9999970703126,0|0,1:0|0:0,0:0:0:0:
260,52,132668,1,0,0:0:0:0:
59,262,132826,2,0,P|118:251|171:243,1,95.9999970703126,2|0,0:0|0:0,0:0:0:0:
156,150,133141,1,0,0:0:0:0:
375,296,133299,2,0,B|321:284|284:304|305:349|242:375|191:359,1,191.999994140625,4|0,0:3|0:0,0:0:0:0:
471,284,133773,2,0,L|493:71,1,191.999994140625,0|0,3:0|0:0,0:0:0:0:
185,44,134247,6,0,P|218:85|334:32,1,191.999994140625,0|0,1:0|0:0,0:0:0:0:
109,194,134720,1,0,0:0:0:0:
14,102,134878,2,0,L|18:212,1,95.9999970703126,0|0,3:0|0:0,0:0:0:0:
105,351,135194,2,0,P|169:308|263:357,1,191.999994140625,4|0,0:3|0:0,0:0:0:0:
262,96,135668,1,0,3:3:0:0:
476,193,135826,2,0,L|488:310,1,95.9999970703126,0|0,0:0|0:0,0:0:0:0:
262,96,136141,6,0,L|261:-4,1,95.9999970703126,0|0,1:0|0:0,0:0:0:0:
133,167,136457,2,0,L|133:286,1,95.9999970703126
357,3,136773,6,0,P|295:3|222:-4,1,95.9999970703126,0|0,1:0|0:0,0:0:0:0:
38,280,137089,2,0,L|138:262,1,95.9999970703126,4|0,3:0|0:0,0:0:0:0:
370,334,137405,2,0,L|255:343,1,95.9999970703126,0|0,1:0|0:0,0:0:0:0:
413,159,137720,2,0,P|413:103|413:29,1,95.9999970703126
511,263,138036,2,0,P|512:315|513:366,1,95.9999970703126,0|0,1:0|0:0,0:0:0:0:
413,63,138352,1,0,1:0:0:0:
274,341,138510,1,0,1:0:0:0:
168,52,138668,1,0,1:0:0:0:
168,52,138984,6,0,P|112:82|148:179,1,180.000006866455,4|0,1:0|0:0,0:0:0:0:
335,159,139299,2,0,P|368:215|287:286,1,180.000006866455,0|0,1:0|0:0,0:0:0:0:
278,92,139615,2,0,P|353:81|427:179,1,180.000006866455,4|0,1:0|0:0,0:0:0:0:
234,345,139931,2,0,P|218:264|299:211,1,180.000006866455,4|0,1:0|0:0,0:0:0:0:
423,148,140247,2,0,L|439:341,1,180.000006866455,0|0,3:0|0:0,0:0:0:0:
278,92,140563,2,0,L|291:233,1,120.000004577637,0|0,3:0|0:0,0:0:0:0:
171,384,140878,6,0,P|122:311|-21:333,1,240.000009155274,4|0,1:0|0:0,0:0:0:0:
146,240,141352,1,0,0:0:0:0:
12,43,141510,2,0,L|15:177,1,120.000004577637,0|0,3:0|0:0,0:0:0:0:
371,69,141826,2,0,P|295:149|203:88,1,240.000009155274,4|0,1:0|0:0,0:0:0:0:
287,46,142299,1,0,0:0:0:0:
486,199,142457,2,0,L|488:318,1,120.000004577637,0|0,1:0|0:0,0:0:0:0:
371,69,142773,6,0,P|376:179|317:203,1,180.000006866455,4|0,1:0|0:0,0:0:0:0:
121,285,143089,2,0,P|140:224|274:208,1,180.000006866455,0|0,3:0|0:0,0:0:0:0:
371,69,143405,2,0,L|241:65,1,120.000004577637,0|0,3:0|0:0,0:0:0:0:
121,285,143720,2,0,L|266:280,1,120.000004577637,0|0,1:0|0:0,0:0:0:0:
488,348,144036,1,4,3:0:0:0:
488,348,144194,1,0,0:0:0:0:
425,235,144352,2,0,L|359:366,1,120.000004577637,2|0,0:0|0:0,0:0:0:0:
371,69,144668,2,0,L|295:197,1,120.000004577637,4|0,1:0|0:0,0:0:0:0:
6,343,144984,6,0,P|7:260|101:210,1,180.000006866455,2|0,0:0|0:0,0:0:0:0:
311,171,145299,2,0,B|254:164|233:196|206:255|153:234,1,180.000006866455,2|0,0:0|0:0,0:0:0:0:
441,132,145615,2,0,L|455:7,1,120.000004577637,4|0,1:0|0:0,0:0:0:0:
486,264,145931,2,0,L|486:391,1,120.000004577637,0|0,3:0|0:0,0:0:0:0:
192,173,146247,2,0,L|319:171,1,120.000004577637,0|0,3:0|0:0,0:0:0:0:
290,354,146563,6,0,P|278:321|98:343,1,240.000009155274,4|0,1:0|0:0,0:0:0:0:
12,117,147036,2,0,P|17:232|17:356,1,240.000009155274,0|0,3:0|0:0,0:0:0:0:
119,43,147510,2,0,B|172:79|172:79|354:43,1,240.000009155274,4|0,1:0|0:0,0:0:0:0:
477,186,147984,1,0,3:0:0:0:
477,186,148141,2,0,P|484:110|497:50,1,120.000004577637,0|0,3:0|0:0,0:0:0:0:
512,296,148457,6,0,P|454:312|397:190,1,191.999994140625,4|0,1:0|0:0,0:0:0:0:
91,314,148931,2,0,L|212:316,1,95.9999970703126,0|0,0:0|0:0,0:0:0:0:
37,244,149247,1,0,0:0:0:0:
260,43,149405,2,0,L|10:53,1,240.000009155274,4|0,0:0|0:0,0:0:0:0:
353,43,149878,2,0,P|304:144|193:130,1,240.000009155274,2|0,0:0|0:0,0:0:0:0:
44,355,150352,6,0,P|38:268|19:127,1,191.999994140625,4|0,1:0|0:0,0:0:0:0:
146,338,150826,2,0,L|252:334,1,95.9999970703126,0|0,0:0|0:0,0:0:0:0:
483,229,151141,1,0,0:0:0:0:
367,194,151299,2,0,P|352:233|435:350,1,191.999994140625,4|0,1:0|0:0,0:0:0:0:
483,229,151773,2,0,P|480:156|373:79,1,191.999994140625,0|0,3:0|0:0,0:0:0:0:
65,140,152247,2,0,L|54:263,1,95.9999970703126,4|0,1:0|0:0,0:0:0:0:
256,58,152563,2,0,L|245:186,1,95.9999970703126,0|0,1:0|0:0,0:0:0:0:
497,10,152878,2,0,L|487:128,1,95.9999970703126,0|0,1:0|0:0,0:0:0:0:
485,383,153194,6,0,P|499:301|522:200,1,143.999995605469,0|0,1:0|0:0,0:0:0:0:
405,362,153510,1,0,1:0:0:0:
416,121,153668,1,0,1:0:0:0:
203,247,153826,1,0,1:0:0:0:
405,362,153984,1,0,1:0:0:0:
58,256,154141,6,0,P|75:187|31:130,1,143.999995605469,4|0,1:0|0:0,0:0:0:0:
202,0,154457,2,0,P|164:66|207:131,1,143.999995605469,0|0,3:0|0:0,0:0:0:0:
416,124,154773,2,0,L|262:124,1,143.999995605469,0|0,3:0|0:0,0:0:0:0:
495,179,155089,6,0,P|511:101|414:35,1,191.999994140625,4|0,1:0|0:0,0:0:0:0:
154,199,155563,1,0,0:0:0:0:
154,199,155720,2,0,L|295:200,1,95.9999970703126,0|0,3:0|0:0,0:0:0:0:
228,331,156036,2,0,L|117:333,1,95.9999970703126,4|0,1:0|0:0,0:0:0:0:
336,141,156352,2,0,L|347:256,1,95.9999970703126,0|0,3:0|0:0,0:0:0:0:
463,2,156668,2,0,L|472:114,1,95.9999970703126,0|0,3:0|0:0,0:0:0:0:
492,367,156984,6,0,P|454:330|454:196,1,191.999994140625,4|0,1:0|0:0,0:0:0:0:
336,141,157457,1,0,0:0:0:0:
100,72,157615,2,0,L|218:72,1,95.9999970703126,0|0,3:0|0:0,0:0:0:0:
226,300,157931,2,0,L|19:301,1,191.999994140625,4|0,1:0|0:0,0:0:0:0:
268,226,158405,2,0,P|324:297|283:378,1,191.999994140625,0|0,3:0|0:0,0:0:0:0:
425,144,158878,2,0,P|414:97|431:35,1,95.9999970703126,4|0,1:0|0:0,0:0:0:0:
495,216,159194,2,0,P|510:269|490:331,1,95.9999970703126,0|0,3:0|0:0,0:0:0:0:
343,36,159510,2,0,L|209:17,1,95.9999970703126,0|0,3:0|0:0,0:0:0:0:
54,288,159826,6,0,P|115:263|264:210,1,180.000006866455,4|0,1:0|0:0,0:0:0:0:
465,90,160141,2,0,P|371:111|267:140,1,180.000006866455,4|0,1:0|0:0,0:0:0:0:
107,376,160457,2,0,P|166:343|250:305,1,120.000004577637,4|0,1:0|0:0,0:0:0:0:
465,90,160773,6,0,P|395:100|454:41,1,200,4|0,0:0|0:0,0:0:0:0:
488,358,161720,6,0,P|488:291|503:141,1,191.999994140625,4|0,1:0|0:0,0:0:0:0:
404,201,162194,2,0,L|402:305,1,95.9999970703126,0|0,3:0|0:0,0:0:0:0:
233,84,162510,1,0,3:0:0:0:
130,120,162668,2,0,P|171:171|305:176,1,191.999994140625,4|0,1:2|0:0,0:0:0:0:
53,361,163141,1,0,0:0:0:0:
26,262,163299,2,0,L|134:262,1,95.9999970703126,0|0,3:0|0:0,0:0:0:0:
390,345,163615,6,0,P|334:277|288:175,1,191.999994140625,4|0,3:0|0:0,0:0:0:0:
392,213,164089,2,0,P|371:168|352:94,1,95.9999970703126,0|0,3:0|0:0,0:0:0:0:
88,55,164405,1,0,0:0:0:0:
25,151,164563,2,0,B|66:137|109:136|129:178|133:214|208:195,1,191.999994140625,4|0,1:2|0:0,0:0:0:0:
88,55,165036,1,0,3:0:0:0:
199,196,165194,1,4,3:0:0:0:
199,196,165352,1,0,3:0:0:0:
488,64,165510,6,0,P|397:60|275:30,1,191.999994140625,4|0,3:0|0:0,0:0:0:0:
397,177,165984,2,0,P|334:170|271:147,1,95.9999970703126,0|0,3:0|0:0,0:0:0:0:
99,339,166299,1,0,0:0:0:0:
12,338,166457,2,0,L|0:140,1,191.999994140625,4|0,1:2|0:0,0:0:0:0:
99,339,166931,1,0,3:0:0:0:
106,69,167089,1,4,3:0:0:0:
106,69,167247,1,0,3:0:0:0:
302,160,167405,2,0,L|195:149,1,95.9999970703126,4|0,3:0|0:0,0:0:0:0:
206,150,167878,2,0,L|412:135,1,191.999994140625,0|0,3:0|0:0,0:0:0:0:
492,369,168352,6,0,P|490:302|505:197,1,143.999995605469,4|0,1:2|0:0,0:0:0:0:
358,365,168668,1,0,1:0:0:0:
397,136,168826,1,0,1:0:0:0:
111,245,168984,1,0,1:0:0:0:
48,370,169299,6,0,P|39:306|-3:170,1,191.999994140625,4|0,1:0|0:0,0:0:0:0:
111,245,169773,2,0,P|98:184|72:114,1,95.9999970703126,0|0,3:0|0:0,0:0:0:0:
375,57,170089,1,0,0:0:0:0:
505,165,170247,2,0,L|306:130,1,191.999994140625,4|0,1:2|0:0,0:0:0:0:
375,57,170720,1,0,3:0:0:0:
486,276,170878,1,4,3:0:0:0:
486,276,171036,1,0,3:0:0:0:
243,68,171194,6,0,P|286:110|328:139,1,95.9999970703126,4|0,3:0|0:0,0:0:0:0:
314,131,171668,2,0,P|271:96|207:68,1,95.9999970703126,0|0,3:0|0:0,0:0:0:0:
39,244,171984,1,0,0:0:0:0:
87,319,172141,2,0,L|296:319,1,191.999994140625,4|0,1:2|0:0,0:0:0:0:
411,334,172615,1,0,3:0:0:0:
314,131,172773,1,4,3:0:0:0:
314,131,172931,1,0,3:0:0:0:
484,23,173089,6,0,P|468:93|464:218,1,191.999994140625,4|0,3:0|0:0,0:0:0:0:
314,131,173563,2,0,P|308:189|314:264,1,95.9999970703126,0|0,3:0|0:0,0:0:0:0:
107,52,173878,1,0,0:0:0:0:
89,301,174036,2,0,P|144:313|169:194,1,191.999994140625,4|0,1:2|0:0,0:0:0:0:
33,359,174510,1,0,3:0:0:0:
96,154,174668,1,4,3:0:0:0:
96,154,174826,1,0,3:0:0:0:
315,266,174984,6,0,P|204:259|183:191,1,180.000006866455,4|0,0:0|0:0,0:0:0:0:
410,306,175299,2,0,P|405:237|310:189,1,180.000006866455,4|0,0:0|0:0,0:0:0:0:
96,154,175615,2,0,P|149:97|258:134,1,180.000006866455,4|0,0:0|0:0,0:0:0:0:
314,188,175931,5,2,0:0:0:0:
319,193,176878,2,0,L|319:103,1,80,2|0,0:0|0:0,0:0:0:0:
216,241,177510,1,0,0:0:0:0:
216,241,177826,2,0,P|162:244|128:254,2,80,0|0|0,1:0|0:0|0:0,0:0:0:0:
316,323,178773,2,0,P|337:332|409:328,1,80,2|0,0:0|0:0,0:0:0:0:
458,274,179405,1,0,0:0:0:0:
458,274,179720,2,0,P|464:226|471:184,1,80,0|0,1:0|0:0,0:0:0:0:
392,120,180352,1,0,0:0:0:0:
392,120,180668,2,0,L|303:114,1,80,2|0,0:0|0:0,0:0:0:0:
233,45,181299,1,0,0:0:0:0:
39,122,181615,2,0,P|38:187|34:214,1,80,0|0,1:0|0:0,0:0:0:0:
73,304,182247,1,0,0:0:0:0:
73,304,182563,2,0,P|116:309|163:318,1,80,2|0,0:0|0:0,0:0:0:0:
249,302,183194,1,0,0:0:0:0:
249,302,183510,2,0,L|250:206,1,80,0|0,1:0|0:0,0:0:0:0:
343,262,184141,1,0,0:0:0:0:
437,230,184457,2,0,P|420:200|379:174,1,80,2|0,0:0|0:0,0:0:0:0:
343,262,185089,1,0,0:0:0:0:
257,155,185405,2,0,L|169:155,1,80,0|0,1:0|0:0,0:0:0:0:
149,162,186036,1,0,0:0:0:0:
129,183,186352,2,0,L|130:275,1,80,2|0,0:0|0:0,0:0:0:0:
203,327,186984,1,0,0:0:0:0:
203,327,187299,2,0,L|293:326,1,80,0|0,1:0|0:0,0:0:0:0:
364,365,187931,1,0,0:0:0:0:
486,232,188563,2,0,P|489:176|484:146,1,80,2|0,0:0|0:0,0:0:0:0:
318,36,189194,2,0,L|226:36,1,80,0|0,1:0|0:0,0:0:0:0:
240,114,189826,2,0,L|297:113,1,40,2|0,0:0|0:0,0:0:0:0:
178,176,190141,2,0,P|150:143|148:102,2,80,2|0|0,0:0|0:0|0:0,0:0:0:0:
58,338,191089,2,0,L|59:259,1,80,0|0,1:0|0:0,0:0:0:0:
167,358,191720,1,0,0:0:0:0:
176,177,192036,5,0,1:0:0:0:
176,177,192352,1,0,3:0:0:0:
176,177,192668,1,0,3:0:0:0:
176,177,192984,1,0,3:0:0:0:
176,177,193299,1,0,3:0:0:0:
176,177,193615,1,0,3:0:0:0:
176,177,193931,1,0,3:0:0:0:
176,177,194247,1,0,3:0:0:0:
176,177,194563,1,0,3:0:0:0:
176,177,194878,1,0,3:0:0:0:
176,177,195194,1,0,3:0:0:0:
176,177,195510,1,0,3:0:0:0:
176,177,195826,1,0,3:0:0:0:
176,177,196141,1,0,3:0:0:0:
176,177,196457,1,0,3:0:0:0:
176,177,196773,1,0,3:0:0:0:
176,177,197089,1,0,3:0:0:0:
176,177,197405,1,0,3:0:0:0:
176,177,197720,1,0,3:0:0:0:
176,177,198036,1,0,3:0:0:0:
337,50,198352,1,0,3:0:0:0:
337,50,198668,2,0,L|259:34,2,80,2|0|2,0:0|0:0|0:0,0:0:0:0:
470,98,199615,6,0,P|452:149|449:186,1,80,0|0,1:0|0:0,0:0:0:0:
458,266,200247,1,0,0:0:0:0:
304,354,200563,2,0,P|254:351|217:354,1,80,2|0,0:0|0:0,0:0:0:0:
153,281,201194,2,0,L|102:279,1,40,0|0,0:0|0:0,0:0:0:0:
40,197,201510,5,4,3:0:0:0:
238,92,201826,1,4,3:0:0:0:
325,208,202141,6,0,L|326:144,1,60,0|0,1:0|0:0,0:0:0:0:
411,218,202457,2,0,L|410:283,1,60,0|0,1:0|0:0,0:0:0:0:
238,151,202773,2,0,L|237:81,1,60,0|0,1:0|0:0,0:0:0:0:
490,282,203089,2,0,L|492:342,1,60,0|0,1:0|0:0,0:0:0:0:
332,345,203405,6,0,L|226:347,1,90.0000034332277,0|0,1:0|0:0,0:0:0:0:
238,151,203720,2,0,L|347:154,1,90.0000034332277,0|0,1:0|0:0,0:0:0:0:
101,348,204036,2,0,L|96:257,1,90.0000034332277,0|0,1:0|0:0,0:0:0:0:
241,31,204352,2,0,P|237:117|238:155,1,120,0|0,1:0|0:0,0:0:0:0:
332,345,204668,2,0,P|332:287|332:217,1,120,0|0,1:0|0:0,0:0:0:0:
453,15,204984,2,0,P|449:74|449:166,1,120,0|0,1:0|0:0,0:0:0:0:
332,345,205299,6,0,P|269:344|170:345,1,150,0|0,1:0|0:0,0:0:0:0:
74,224,205615,2,0,P|140:224|230:221,1,150,0|0,1:0|0:0,0:0:0:0:
448,134,205931,2,0,P|380:132|273:133,1,150,0|0,1:0|0:0,0:0:0:0:
39,349,206247,5,0,1:0:0:0:
39,349,207194,6,0,P|32:236|22:148,1,180.000006866455,4|0,1:0|0:0,0:0:0:0:
184,7,207510,2,0,P|190:92|197:199,1,180.000006866455,0|0,3:0|0:0,0:0:0:0:
371,339,207826,2,0,L|358:198,1,120.000004577637,0|0,3:0|3:0,0:0:0:0:
423,15,208141,2,0,L|538:9,1,103.999995239258,0|0,1:0|0:0,0:0:0:0:
463,211,208457,2,0,P|414:213|337:223,1,103.999995239258,2|0,0:0|0:0,0:0:0:0:
184,357,208773,2,0,P|229:347|291:341,1,103.999995239258,0|0,3:0|0:0,0:0:0:0:
47,239,209089,6,0,P|68:189|207:179,1,207.999990478516,4|0,0:3|0:0,0:0:0:0:
493,133,209563,2,0,P|460:86|312:93,1,207.999990478516,0|0,3:0|0:0,0:0:0:0:
47,239,210036,2,0,L|48:119,1,103.999995239258,0|0,1:0|0:0,0:0:0:0:
100,328,210352,1,0,3:0:0:0:
100,328,210510,1,0,0:0:0:0:
130,85,210668,2,0,P|185:77|241:66,1,103.999995239258,0|0,3:0|0:0,0:0:0:0:
493,133,210984,6,0,P|493:214|498:346,1,207.999990478516,4|0,0:3|0:0,0:0:0:0:
347,270,211457,1,0,3:3:0:0:
279,344,211615,2,0,B|229:329|229:329|166:351,1,103.999995239258,0|0,0:0|0:0,0:0:0:0:
305,110,211931,2,0,B|351:130|351:130|428:100,1,103.999995239258,0|0,1:0|0:0,0:0:0:0:
234,46,212247,2,0,P|213:98|238:168,1,103.999995239258
59,368,212563,2,0,P|53:296|35:187,1,155.999992858887,2|0,0:0|0:0,0:0:0:0:
234,46,212878,6,0,P|295:42|469:27,1,207.999990478516,4|0,3:0|0:0,0:0:0:0:
235,344,213352,1,0,3:0:0:0:
242,252,213510,2,0,P|291:277|333:343,1,103.999995239258,0|0,0:0|0:0,0:0:0:0:
441,29,213826,2,0,L|439:151,1,103.999995239258,0|0,1:0|0:0,0:0:0:0:
477,357,214141,1,0,1:0:0:0:
439,132,214299,1,0,1:0:0:0:
242,252,214457,1,0,1:0:0:0:
477,357,214615,1,0,1:0:0:0:
180,327,214773,6,0,P|148:259|274:153,1,240.000009155274,4|0,0:0|3:0,0:0:0:0:
445,137,215247,1,0,0:0:0:0:
140,0,215405,2,0,L|108:125,1,120.000004577637,0|0,0:0|3:0,0:0:0:0:
445,137,215720,6,0,P|436:89|425:26,1,103.999995239258,0|0,1:0|0:0,0:0:0:0:
371,261,216036,2,0,P|383:317|395:372,1,103.999995239258,2|0,0:0|0:0,0:0:0:0:
141,179,216352,2,0,P|208:172|275:159,1,103.999995239258,0|0,3:0|0:0,0:0:0:0:
26,267,216668,2,0,P|13:203|99:90,1,207.999990478516,4|0,0:3|0:0,0:0:0:0:
361,160,217141,2,0,P|336:84|188:31,1,207.999990478516,0|0,3:0|0:0,0:0:0:0:
494,259,217615,2,0,L|492:376,1,103.999995239258,0|0,1:0|0:0,0:0:0:0:
361,160,217931,1,0,3:0:0:0:
227,27,218089,2,0,P|242:116|250:258,1,207.999990478516,2|0,0:0|0:0,0:0:0:0:
22,345,218563,6,0,B|57:322|117:325|131:363|171:365|232:359,1,207.999990478516,4|0,0:3|0:0,0:0:0:0:
249,233,219036,1,0,3:3:0:0:
249,233,219194,2,0,P|293:264|309:328,1,103.999995239258,0|0,0:0|0:0,0:0:0:0:
288,127,219510,2,0,P|235:119|118:221,1,207.999990478516,0|0,1:0|0:0,0:0:0:0:
66,53,219984,1,2,0:0:0:0:
66,53,220141,2,0,L|190:53,1,103.999995239258
490,136,220457,6,0,P|376:121|379:26,1,180.000006866455,4|0,3:0|0:0,0:0:0:0:
36,110,220773,2,0,P|71:48|192:81,1,180.000006866455,0|0,1:0|0:0,0:0:0:0:
122,280,221089,2,0,L|126:151,1,120.000004577637,0|0,3:0|0:0,0:0:0:0:
211,364,221405,5,0,1:0:0:0:
248,51,221563,2,0,L|255:193,1,120.000004577637,0|0,1:0|1:0,0:0:0:0:
463,77,221878,1,0,1:0:0:0:
169,52,222036,1,0,1:0:0:0:
359,191,222194,1,0,0:0:0:0:
211,364,222352,6,0,P|271:317|418:372,1,240.000009155274,4|0,1:0|3:0,0:0:0:0:
159,198,222826,1,0,0:0:0:0:
159,198,222984,2,0,L|111:321,1,120.000004577637,0|0,3:0|3:0,0:0:0:0:
55,119,223299,6,0,P|54:61|43:-5,1,120.000004577637,0|0,1:0|0:0,0:0:0:0:
159,198,223615,1,0,0:0:0:0:
232,116,223773,2,0,L|485:123,1,240.000009155274,2|0,0:0|0:0,0:0:0:0:
485,362,224247,2,0,P|480:273|368:248,1,207.999990478516,4|0,0:3|0:0,0:0:0:0:
254,326,224720,2,0,L|389:328,1,103.999995239258,0|0,3:0|0:0,0:0:0:0:
138,324,225036,1,0,0:0:0:0:
138,324,225194,2,0,L|144:109,1,207.999990478516,0|0,1:0|3:0,0:0:0:0:
289,8,225668,2,0,P|283:68|308:115,1,103.999995239258,0|0,0:0|3:0,0:0:0:0:
496,65,225984,1,0,0:0:0:0:
373,299,226141,6,0,P|227:298|134:325,1,240.000009155274,4|0,0:3|0:0,0:0:0:0:
68,132,226615,1,0,3:3:0:0:
68,132,226773,2,0,P|93:200|71:250,1,120.000004577637,0|0,0:0|0:0,0:0:0:0:
182,3,227089,2,0,P|210:82|197:237,1,240.000009155274,0|0,1:0|0:0,0:0:0:0:
418,38,227563,1,2,0:0:0:0:
497,135,227720,2,0,L|353:135,1,120.000004577637,0|0,0:0|0:0,0:0:0:0:
77,241,228036,2,0,P|154:304|304:307,1,240.000009155274,4|0,3:0|0:0,0:0:0:0:
377,135,228510,1,0,3:0:0:0:
77,241,228668,2,0,L|77:368,1,120.000004577637,0|0,0:0|0:0,0:0:0:0:
377,135,228984,6,0,L|378:284,1,120.000004577637,0|0,1:0|0:0,0:0:0:0:
486,110,229299,1,0,1:0:0:0:
382,356,229457,1,0,1:0:0:0:
270,106,229615,1,0,1:0:0:0:
270,106,229773,1,0,0:0:0:0:
382,356,229931,6,0,P|264:337|87:349,1,240.000009155274,4|0,0:0|3:0,0:0:0:0:
38,131,230405,1,0,0:0:0:0:
190,29,230563,2,0,L|152:153,1,120.000004577637,0|0,0:0|3:0,0:0:0:0:
487,111,230878,6,0,P|456:77|365:77,1,103.999995239258,0|0,1:0|0:0,0:0:0:0:
190,29,231194,1,2,0:0:0:0:
154,143,231352,2,0,P|198:179|303:89,1,207.999990478516,0|0,0:0|0:0,0:0:0:0:
45,347,231826,2,0,L|42:136,1,207.999990478516,4|0,0:3|0:0,0:0:0:0:
137,343,232299,2,0,B|203:349|224:300|224:300|235:350|324:343,1,207.999990478516,0|0,3:0|0:0,0:0:0:0:
455,122,232773,2,0,P|415:111|338:237,1,207.999990478516,0|0,1:0|3:0,0:0:0:0:
451,239,233247,1,0,0:0:0:0:
254,28,233405,1,0,3:0:0:0:
254,28,233563,1,0,0:0:0:0:
22,259,233720,6,0,P|85:203|229:199,1,207.999990478516,4|0,0:0|0:0,0:0:0:0:
197,300,234194,1,0,3:3:0:0:
144,96,234352,2,0,L|25:97,1,103.999995239258,0|0,0:0|0:0,0:0:0:0:
197,300,234668,2,0,L|329:306,1,103.999995239258,0|0,1:0|0:0,0:0:0:0:
494,280,234984,2,0,L|493:411,1,103.999995239258,0|2,0:0|0:0,0:0:0:0:
410,109,235299,6,0,P|409:48|396:-8,1,103.999995239258,0|0,1:0|0:0,0:0:0:0:
40,96,235615,2,0,P|107:76|175:226,1,240.000009155274,4|0,1:0|0:0,0:0:0:0:
288,175,236563,2,0,P|262:274|125:270,1,240.000009155274,4|0,1:0|0:0,0:0:0:0:
374,57,237510,5,4,0:0:0:0:
256,192,237589,12,0,245089,0:0:0:0:
