osu file format v14

[General]
AudioFilename: audio.mp3
AudioLeadIn: 0
PreviewTime: 38877
Countdown: 0
SampleSet: Soft
StackLeniency: 0.5
Mode: 0
LetterboxInBreaks: 0
EpilepsyWarning: 1
WidescreenStoryboard: 1

[Editor]
Bookmarks: 7917,23277,38637,53997,69357,84717,107757,115437,130797,146157,161517,176877,180717
DistanceSpacing: 1
BeatDivisor: 4
GridSize: 4
TimelineZoom: 1.9

[Metadata]
Title:Dont Know How
TitleUnicode:Dont Know How
Artist:Ricky Montgomery
ArtistUnicode:Ricky Montgomery
Creator:Hantrik
Version:Shmiklak's Hard
Source:osu!
Tags:shmiklak marvollo m_a_r_v_o_l_l_o mimari daycore english alternative rock indie fa featured artist mappers' guild mg male vocalist don't the honeysticks
BeatmapID:2723405
BeatmapSetID:1298909

[Difficulty]
HPDrainRate:5
CircleSize:4
OverallDifficulty:6.5
ApproachRate:7.5
SliderMultiplier:1.5
SliderTickRate:1

[Events]
//Background and Video events
0,0,"BG.jpg",0,0
//Break Periods
//Storyboard Layer 0 (Background)
//Storyboard Layer 1 (Fail)
//Storyboard Layer 2 (Pass)
//Storyboard Layer 3 (Foreground)
//Storyboard Layer 4 (Overlay)
//Storyboard Sound Samples

[TimingPoints]
237,480,4,2,2,60,1,0
7917,-111.111111111111,4,2,2,60,0,0
9117,-111.111111111111,4,2,8,60,0,0
9237,-111.111111111111,4,2,5,60,0,0
9357,-111.111111111111,4,2,2,60,0,0
12957,-111.111111111111,4,2,8,60,0,0
13077,-111.111111111111,4,2,5,60,0,0
13197,-111.111111111111,4,2,2,60,0,0
16797,-111.111111111111,4,2,8,60,0,0
16917,-111.111111111111,4,2,5,60,0,0
17037,-111.111111111111,4,2,2,60,0,0
20637,-111.111111111111,4,2,8,60,0,0
20757,-111.111111111111,4,2,5,60,0,0
20877,-111.111111111111,4,2,2,60,0,0
20997,-111.111111111111,4,2,2,60,0,0
21117,-111.111111111111,4,2,2,60,0,0
23277,-100,4,2,2,75,0,0
24477,-100,4,2,8,75,0,0
24597,-100,4,2,7,75,0,0
24717,-100,4,2,9,75,0,0
24837,-100,4,2,5,75,0,0
24957,-100,4,2,4,75,0,0
25077,-100,4,2,3,75,0,0
25197,-100,4,2,2,75,0,0
28317,-100,4,2,8,75,0,0
28437,-100,4,2,7,75,0,0
28557,-100,4,2,9,75,0,0
28677,-100,4,2,5,75,0,0
28797,-100,4,2,4,75,0,0
28917,-100,4,2,3,75,0,0
29037,-100,4,2,2,75,0,0
30957,-100,4,2,2,70,0,0
32157,-100,4,2,8,70,0,0
32277,-100,4,2,7,70,0,0
32397,-100,4,2,9,70,0,0
32517,-100,4,2,5,70,0,0
32637,-100,4,2,4,70,0,0
32757,-100,4,2,3,70,0,0
32877,-100,4,2,2,70,0,0
35157,-100,4,2,2,5,0,0
35277,-100,4,2,2,70,0,0
35877,-100,4,2,2,70,0,0
35997,-100,4,2,8,70,0,0
36117,-100,4,2,7,70,0,0
36237,-100,4,2,9,70,0,0
36357,-100,4,2,5,70,0,0
36477,-100,4,2,4,70,0,0
36597,-100,4,2,3,70,0,0
36717,-100,4,2,2,75,0,0
37557,-100,4,2,2,5,0,0
37677,-100,4,2,1,80,0,0
38637,-90.9090909090909,4,2,1,85,0,1
39837,-90.9090909090909,4,2,8,85,0,1
39957,-90.9090909090909,4,2,7,85,0,1
40077,-90.9090909090909,4,2,6,85,0,1
40197,-90.9090909090909,4,2,5,85,0,1
40317,-90.9090909090909,4,2,4,85,0,1
40437,-90.9090909090909,4,2,3,85,0,1
40557,-90.9090909090909,4,2,1,85,0,1
43677,-90.9090909090909,4,2,8,85,0,1
43797,-90.9090909090909,4,2,7,85,0,1
43917,-90.9090909090909,4,2,6,85,0,1
44037,-90.9090909090909,4,2,5,85,0,1
44157,-90.9090909090909,4,2,4,85,0,1
44277,-90.9090909090909,4,2,3,85,0,1
44397,-90.9090909090909,4,2,1,85,0,1
47517,-90.9090909090909,4,2,8,85,0,1
47637,-90.9090909090909,4,2,7,85,0,1
47757,-90.9090909090909,4,2,6,85,0,1
47877,-90.9090909090909,4,2,5,85,0,1
47997,-90.9090909090909,4,2,4,85,0,1
48117,-90.9090909090909,4,2,3,85,0,1
48237,-90.9090909090909,4,2,1,85,0,1
51357,-90.9090909090909,4,2,8,85,0,1
51477,-90.9090909090909,4,2,7,85,0,1
51597,-90.9090909090909,4,2,6,85,0,1
51717,-90.9090909090909,4,2,5,85,0,1
51837,-90.9090909090909,4,2,4,85,0,1
51957,-90.9090909090909,4,2,3,85,0,1
52077,-90.9090909090909,4,2,1,85,0,1
52917,-90.9090909090909,4,2,1,5,0,1
53037,-90.9090909090909,4,2,1,85,0,1
55197,-90.9090909090909,4,2,8,85,0,1
55317,-90.9090909090909,4,2,7,85,0,1
55437,-90.9090909090909,4,2,6,85,0,1
55557,-90.9090909090909,4,2,5,85,0,1
55677,-90.9090909090909,4,2,4,85,0,1
55797,-90.9090909090909,4,2,3,85,0,1
55917,-90.9090909090909,4,2,1,85,0,1
59037,-90.9090909090909,4,2,8,85,0,1
59157,-90.9090909090909,4,2,7,85,0,1
59277,-90.9090909090909,4,2,6,85,0,1
59397,-90.9090909090909,4,2,5,85,0,1
59517,-90.9090909090909,4,2,4,85,0,1
59637,-90.9090909090909,4,2,3,85,0,1
59757,-90.9090909090909,4,2,1,85,0,1
62877,-90.9090909090909,4,2,8,85,0,1
62997,-90.9090909090909,4,2,7,85,0,1
63117,-90.9090909090909,4,2,6,85,0,1
63237,-90.9090909090909,4,2,5,85,0,1
63357,-90.9090909090909,4,2,4,85,0,1
63477,-90.9090909090909,4,2,3,85,0,1
63597,-90.9090909090909,4,2,1,85,0,1
66717,-90.9090909090909,4,2,8,85,0,1
66837,-90.9090909090909,4,2,7,85,0,1
66957,-90.9090909090909,4,2,6,85,0,1
67077,-90.9090909090909,4,2,5,85,0,1
67197,-90.9090909090909,4,2,4,85,0,1
67317,-90.9090909090909,4,2,3,85,0,1
67437,-90.9090909090909,4,2,1,85,0,1
68277,-90.9090909090909,4,2,1,5,0,1
68397,-90.9090909090909,4,2,1,85,0,1
69357,-95.2380952380951,4,2,1,85,0,0
70557,-95.2380952380951,4,2,8,85,0,0
70677,-95.2380952380951,4,2,7,85,0,0
70797,-95.2380952380951,4,2,6,85,0,0
70917,-95.2380952380951,4,2,5,85,0,0
71037,-95.2380952380951,4,2,4,85,0,0
71157,-95.2380952380951,4,2,3,85,0,0
71277,-95.2380952380951,4,2,1,85,0,0
74397,-95.2380952380951,4,2,8,85,0,0
74517,-95.2380952380951,4,2,7,85,0,0
74637,-95.2380952380951,4,2,6,85,0,0
74757,-95.2380952380951,4,2,5,85,0,0
74877,-95.2380952380951,4,2,4,85,0,0
74997,-95.2380952380951,4,2,3,85,0,0
75117,-95.2380952380951,4,2,1,85,0,0
78237,-95.2380952380951,4,2,8,85,0,0
78357,-95.2380952380951,4,2,7,85,0,0
78477,-95.2380952380951,4,2,6,85,0,0
78597,-95.2380952380951,4,2,5,85,0,0
78717,-95.2380952380951,4,2,4,85,0,0
78837,-95.2380952380951,4,2,3,85,0,0
78957,-95.2380952380951,4,2,1,85,0,0
82077,-95.2380952380951,4,2,8,85,0,0
82197,-95.2380952380951,4,2,7,85,0,0
82317,-95.2380952380951,4,2,6,85,0,0
82437,-95.2380952380951,4,2,5,85,0,0
82557,-95.2380952380951,4,2,4,85,0,0
82677,-95.2380952380951,4,2,3,85,0,0
82797,-95.2380952380951,4,2,1,85,0,0
84717,-100,4,2,1,75,0,0
85917,-100,4,2,8,75,0,0
86037,-100,4,2,7,75,0,0
86157,-100,4,2,6,75,0,0
86277,-100,4,2,5,75,0,0
86397,-100,4,2,4,75,0,0
86517,-100,4,2,3,75,0,0
86637,-100,4,2,1,75,0,0
89757,-100,4,2,8,75,0,0
89877,-100,4,2,7,75,0,0
89997,-100,4,2,6,75,0,0
90117,-100,4,2,5,75,0,0
90237,-100,4,2,4,75,0,0
90357,-100,4,2,3,75,0,0
90477,-100,4,2,1,75,0,0
93597,-100,4,2,8,75,0,0
93717,-100,4,2,7,75,0,0
93837,-100,4,2,6,75,0,0
93957,-100,4,2,5,75,0,0
94077,-100,4,2,4,75,0,0
94197,-100,4,2,3,75,0,0
94317,-100,4,2,1,75,0,0
97437,-100,4,2,8,75,0,0
97557,-100,4,2,7,75,0,0
97677,-100,4,2,6,75,0,0
97797,-100,4,2,5,75,0,0
97917,-100,4,2,4,75,0,0
98037,-100,4,2,3,75,0,0
98157,-100,4,2,1,75,0,0
101277,-100,4,2,8,75,0,0
101397,-100,4,2,7,75,0,0
101517,-100,4,2,6,75,0,0
101637,-100,4,2,5,75,0,0
101757,-100,4,2,4,75,0,0
101877,-100,4,2,3,75,0,0
101997,-100,4,2,1,75,0,0
105117,-100,4,2,8,75,0,0
105237,-100,4,2,7,75,0,0
105357,-100,4,2,6,75,0,0
105477,-100,4,2,5,75,0,0
105597,-100,4,2,4,75,0,0
105717,-100,4,2,3,75,0,0
105837,-100,4,2,1,75,0,0
107757,-100,4,2,1,70,0,0
108957,-100,4,2,8,70,0,0
109077,-100,4,2,7,70,0,0
109197,-100,4,2,6,70,0,0
109317,-100,4,2,5,70,0,0
109437,-100,4,2,4,70,0,0
109557,-100,4,2,3,70,0,0
109677,-100,4,2,1,70,0,0
112797,-100,4,2,8,70,0,0
112917,-100,4,2,7,70,0,0
113037,-100,4,2,6,70,0,0
113157,-100,4,2,5,70,0,0
113277,-100,4,2,4,70,0,0
113397,-100,4,2,3,70,0,0
113517,-100,4,2,1,70,0,0
114357,-100,4,2,1,5,0,0
114477,-100,4,2,1,70,0,0
115437,-90.9090909090909,4,2,1,85,0,1
116637,-90.9090909090909,4,2,8,85,0,1
116757,-90.9090909090909,4,2,7,85,0,1
116877,-90.9090909090909,4,2,6,85,0,1
116997,-90.9090909090909,4,2,5,85,0,1
117117,-90.9090909090909,4,2,4,85,0,1
117237,-90.9090909090909,4,2,3,85,0,1
117357,-90.9090909090909,4,2,1,85,0,1
120477,-90.9090909090909,4,2,8,85,0,1
120597,-90.9090909090909,4,2,7,85,0,1
120717,-90.9090909090909,4,2,6,85,0,1
120837,-90.9090909090909,4,2,5,85,0,1
120957,-90.9090909090909,4,2,4,85,0,1
121077,-90.9090909090909,4,2,3,85,0,1
121197,-90.9090909090909,4,2,1,85,0,1
124317,-90.9090909090909,4,2,8,85,0,1
124437,-90.9090909090909,4,2,7,85,0,1
124557,-90.9090909090909,4,2,6,85,0,1
124677,-90.9090909090909,4,2,5,85,0,1
124797,-90.9090909090909,4,2,4,85,0,1
124917,-90.9090909090909,4,2,3,85,0,1
125037,-90.9090909090909,4,2,1,85,0,1
128157,-90.9090909090909,4,2,8,85,0,1
128277,-90.9090909090909,4,2,7,85,0,1
128397,-90.9090909090909,4,2,6,85,0,1
128517,-90.9090909090909,4,2,5,85,0,1
128637,-90.9090909090909,4,2,4,85,0,1
128757,-90.9090909090909,4,2,3,85,0,1
128877,-90.9090909090909,4,2,1,85,0,1
131997,-90.9090909090909,4,2,8,85,0,1
132117,-90.9090909090909,4,2,7,85,0,1
132237,-90.9090909090909,4,2,6,85,0,1
132357,-90.9090909090909,4,2,5,85,0,1
132477,-90.9090909090909,4,2,4,85,0,1
132597,-90.9090909090909,4,2,3,85,0,1
132717,-90.9090909090909,4,2,1,85,0,1
135837,-90.9090909090909,4,2,8,85,0,1
135957,-90.9090909090909,4,2,7,85,0,1
136077,-90.9090909090909,4,2,6,85,0,1
136197,-90.9090909090909,4,2,5,85,0,1
136317,-90.9090909090909,4,2,4,85,0,1
136437,-90.9090909090909,4,2,3,85,0,1
136557,-90.9090909090909,4,2,1,85,0,1
139677,-90.9090909090909,4,2,8,85,0,1
139797,-90.9090909090909,4,2,7,85,0,1
139917,-90.9090909090909,4,2,6,85,0,1
140037,-90.9090909090909,4,2,5,85,0,1
140157,-90.9090909090909,4,2,4,85,0,1
140277,-90.9090909090909,4,2,3,85,0,1
140397,-90.9090909090909,4,2,1,85,0,1
143517,-90.9090909090909,4,2,8,85,0,1
143637,-90.9090909090909,4,2,7,85,0,1
143757,-90.9090909090909,4,2,6,85,0,1
143877,-90.9090909090909,4,2,5,85,0,1
143997,-90.9090909090909,4,2,4,85,0,1
144117,-90.9090909090909,4,2,3,85,0,1
144237,-90.9090909090909,4,2,1,85,0,1
146157,-95.2380952380951,4,2,1,85,0,0
147357,-95.2380952380951,4,2,8,85,0,0
147477,-95.2380952380951,4,2,7,85,0,0
147597,-95.2380952380951,4,2,6,85,0,0
147717,-95.2380952380951,4,2,5,85,0,0
147837,-95.2380952380951,4,2,4,85,0,0
147957,-95.2380952380951,4,2,3,85,0,0
148077,-95.2380952380951,4,2,1,85,0,0
151197,-95.2380952380951,4,2,8,85,0,0
151317,-95.2380952380951,4,2,7,85,0,0
151437,-95.2380952380951,4,2,6,85,0,0
151557,-95.2380952380951,4,2,5,85,0,0
151677,-95.2380952380951,4,2,4,85,0,0
151797,-95.2380952380951,4,2,3,85,0,0
151917,-95.2380952380951,4,2,1,85,0,0
155037,-95.2380952380951,4,2,8,85,0,0
155157,-95.2380952380951,4,2,7,85,0,0
155277,-95.2380952380951,4,2,6,85,0,0
155397,-95.2380952380951,4,2,5,85,0,0
155517,-95.2380952380951,4,2,4,85,0,0
155637,-95.2380952380951,4,2,3,85,0,0
155757,-95.2380952380951,4,2,1,85,0,0
158877,-95.2380952380951,4,2,8,85,0,0
158997,-95.2380952380951,4,2,7,85,0,0
159117,-95.2380952380951,4,2,6,85,0,0
159237,-95.2380952380951,4,2,5,85,0,0
159357,-95.2380952380951,4,2,4,85,0,0
159477,-95.2380952380951,4,2,3,85,0,0
159597,-95.2380952380951,4,2,1,85,0,0
161517,-90.9090909090909,4,2,1,85,0,0
162357,-90.9090909090909,4,2,1,5,0,0
162477,-90.9090909090909,4,2,1,85,0,0
162717,-90.9090909090909,4,2,8,85,0,0
162837,-90.9090909090909,4,2,7,85,0,0
162957,-90.9090909090909,4,2,6,85,0,0
163077,-90.9090909090909,4,2,5,85,0,0
163197,-90.9090909090909,4,2,4,85,0,0
163317,-90.9090909090909,4,2,3,85,0,0
163437,-90.9090909090909,4,2,1,85,0,0
164277,-90.9090909090909,4,2,1,5,0,0
164397,-90.9090909090909,4,2,1,85,0,0
166197,-90.9090909090909,4,2,1,5,0,0
166317,-90.9090909090909,4,2,1,85,0,0
166557,-90.9090909090909,4,2,8,85,0,0
166677,-90.9090909090909,4,2,7,85,0,0
166797,-90.9090909090909,4,2,6,85,0,0
166917,-90.9090909090909,4,2,5,85,0,0
167037,-90.9090909090909,4,2,4,85,0,0
167157,-90.9090909090909,4,2,3,85,0,0
167277,-90.9090909090909,4,2,1,85,0,0
168117,-90.9090909090909,4,2,1,5,0,0
168237,-90.9090909090909,4,2,1,85,0,0
170037,-90.9090909090909,4,2,1,5,0,0
170157,-90.9090909090909,4,2,1,85,0,0
170397,-90.9090909090909,4,2,8,85,0,0
170517,-90.9090909090909,4,2,7,85,0,0
170637,-90.9090909090909,4,2,6,85,0,0
170757,-90.9090909090909,4,2,5,85,0,0
170877,-90.9090909090909,4,2,4,85,0,0
170997,-90.9090909090909,4,2,3,85,0,0
171117,-90.9090909090909,4,2,1,85,0,0
171957,-90.9090909090909,4,2,1,5,0,0
172077,-90.9090909090909,4,2,1,85,0,0
173877,-90.9090909090909,4,2,1,5,0,0
173997,-90.9090909090909,4,2,1,85,0,0
174237,-90.9090909090909,4,2,8,85,0,0
174357,-90.9090909090909,4,2,7,85,0,0
174477,-90.9090909090909,4,2,6,85,0,0
174597,-90.9090909090909,4,2,5,85,0,0
174717,-90.9090909090909,4,2,4,85,0,0
174837,-90.9090909090909,4,2,3,85,0,0
174957,-90.9090909090909,4,2,1,85,0,0
175797,-90.9090909090909,4,2,1,5,0,0
175917,-90.9090909090909,4,2,1,85,0,0
180717,-90.9090909090909,4,2,1,5,0,0

[Colours]
Combo1 : 212,212,212
Combo2 : 255,119,119
Combo3 : 114,197,252
Combo4 : 224,142,238
Combo5 : 136,136,136

[HitObjects]
445,336,7917,53,2,0:1:0:0:
406,272,8157,2,0,P|374:257|344:247,2,67.4999979400635,2|2|2,0:0|0:0|0:0,0:0:0:0:
466,226,8877,2,0,P|451:194|441:164,1,67.4999979400635,2|2,0:0|3:2,0:0:0:0:
445,154,9237,1,0,3:2:0:0:
450,145,9357,2,0,L|454:70,1,67.4999979400635,2|2,3:2|0:0,0:0:0:0:
387,44,9837,5,2,0:0:0:0:
318,71,10077,2,0,P|289:67|240:57,1,67.4999979400635,2|2,0:0|0:0,0:0:0:0:
185,94,10557,1,2,0:0:0:0:
185,94,11037,2,0,P|205:144|207:173,2,67.4999979400635,2|2|2,0:0|0:0|0:0,0:0:0:0:
122,54,11757,53,0,0:0:0:0:
70,107,11997,2,0,L|-14:116,2,67.4999979400635,2|2|2,0:0|0:0|0:0,0:0:0:0:
128,167,12717,2,0,P|128:222|116:255,1,67.4999979400635,2|2,0:0|3:2,0:0:0:0:
120,240,13077,1,0,3:2:0:0:
115,247,13197,2,0,L|122:323,1,67.4999979400635,2|2,3:2|0:0,0:0:0:0:
191,339,13677,5,2,0:0:0:0:
243,285,13917,2,0,P|262:267|307:245,1,67.4999979400635,2|0,0:0|0:0,0:0:0:0:
372,246,14397,1,2,0:0:0:0:
372,246,14877,2,0,L|462:249,2,67.4999979400635,2|2|2,0:0|0:0|0:0,0:0:0:0:
326,186,15597,53,0,0:0:0:0:
283,125,15837,2,0,P|274:87|274:51,2,67.4999979400635,2|2|2,0:0|0:0|0:0,0:0:0:0:
326,186,16557,1,2,0:0:0:0:
398,156,16797,1,2,3:2:0:0:
398,156,16917,1,0,3:2:0:0:
398,156,17037,2,0,L|468:146,1,67.4999979400635,2|2,3:2|0:0,0:0:0:0:
503,83,17517,5,2,0:0:0:0:
503,83,17757,1,2,0:0:0:0:
451,279,18237,53,2,0:0:0:0:
451,279,18477,1,2,0:0:0:0:
451,279,18717,1,2,0:0:0:0:
256,217,19197,6,0,L|263:137,1,67.4999979400635,2|0,0:0|0:0,0:0:0:0:
261,149,19917,1,2,0:1:0:0:
63,105,20637,53,0,3:0:0:0:
65,114,20757,1,0,3:0:0:0:
66,124,20877,2,0,L|74:169,2,33.7499989700318,0|0|0,3:0|0:0|0:0,0:0:0:0:
109,42,21357,6,0,P|146:33|238:62,1,134.999995880127,2|0,0:1|0:0,0:0:0:0:
289,112,22077,2,0,P|322:93|418:97,2,134.999995880127,2|2|8,0:1|0:3|0:3,0:0:0:0:
190,210,23277,22,0,L|199:292,1,75,4|2,3:2|0:0,0:0:0:0:
234,349,23757,2,0,P|271:353|317:335,1,75,10|2,0:0|0:0,0:0:0:0:
372,306,24237,1,0,3:0:0:0:
440,337,24477,1,2,3:2:0:0:
489,281,24717,2,0,L|474:197,1,75,10|2,3:2|3:2,0:0:0:0:
475,207,25077,1,0,3:0:0:0:
475,207,25197,38,0,L|484:50,1,150,2|8,3:2|0:0,0:0:0:0:
419,19,25917,2,0,P|378:47|325:43,1,75,2|0,0:0|3:0,0:0:0:0:
280,32,26397,1,2,0:0:0:0:
207,51,26637,1,10,0:0:0:0:
280,32,26877,1,2,0:0:0:0:
207,51,27117,22,0,L|112:41,1,75,0|2,3:2|0:0,0:0:0:0:
14,116,27597,2,0,L|109:106,1,75,10|2,0:0|0:0,0:0:0:0:
146,155,28077,1,0,3:0:0:0:
111,221,28317,1,2,3:2:0:0:
156,281,28557,2,0,P|201:293|237:315,1,75,10|2,3:2|3:2,0:0:0:0:
231,316,28917,1,0,3:0:0:0:
236,325,29037,22,0,B|316:345|291:289|381:305,1,150,2|8,3:2|0:0,0:0:0:0:
512,300,29757,2,0,P|473:282|438:250,1,75,2|0,0:0|3:0,0:0:0:0:
392,218,30237,1,2,0:0:0:0:
329,257,30477,1,10,0:0:0:0:
392,218,30717,1,2,0:0:0:0:
329,257,30957,38,0,P|284:259|245:249,2,75,0|2|10,3:2|0:0|0:0,0:0:0:0:
392,218,31677,1,2,0:0:0:0:
350,155,31917,2,0,L|354:71,1,75,0|2,3:0|3:2,0:0:0:0:
427,57,32397,2,0,L|430:131,1,75,10|2,3:2|3:2,0:0:0:0:
430,131,32757,1,0,3:0:0:0:
430,131,32877,37,2,3:2:0:0:
425,214,33117,2,0,P|436:249|461:296,1,75,2|8,0:0|0:0,0:0:0:0:
417,349,33597,1,2,0:0:0:0:
367,292,33837,2,0,P|333:275|297:264,2,75,2|2|8,3:2|0:0|0:0,0:0:0:0:
417,349,34557,1,2,0:0:0:0:
350,382,34797,22,0,L|207:361,1,112.5,4|0,3:0|0:0,0:0:0:0:
231,356,35277,2,0,L|151:365,1,75,10|0,0:1|0:0,0:0:0:0:
97,317,35757,1,0,3:0:0:0:
98,304,35877,1,0,0:0:0:0:
99,292,35997,1,0,3:0:0:0:
100,280,36117,1,0,3:0:0:0:
102,267,36237,2,0,P|96:240|68:194,1,75,8|0,3:2|3:0,0:0:0:0:
12,104,36717,22,0,B|168:127|92:21|281:51,1,262.5,2|0,3:2|0:0,0:0:0:0:
275,48,37677,37,8,0:2:0:0:
286,45,37797,1,8,0:2:0:0:
297,42,37917,1,0,3:0:0:0:
388,28,38157,37,8,0:2:0:0:
399,31,38277,1,8,0:2:0:0:
410,34,38397,1,0,3:0:0:0:
495,133,38637,6,0,P|421:181|433:226,1,123.75000377655,4|0,3:2|0:0,0:0:0:0:
430,214,39117,2,0,L|438:305,1,82.5000025177003,10|0,0:2|0:0,0:0:0:0:
292,312,39597,1,2,3:2:0:0:
325,208,39837,1,2,3:2:0:0:
328,195,39957,1,0,3:2:0:0:
330,182,40077,1,8,3:2:0:0:
332,169,40197,1,0,3:2:0:0:
334,156,40317,37,2,3:2:0:0:
276,86,40557,2,0,L|270:-8,2,82.5000025177003,2|2|8,3:2|0:2|0:0,0:0:0:0:
241,170,41277,2,0,B|145:190|182:120|87:140,1,165.000005035401,2|2,0:2|3:2,0:0:0:0:
114,236,41997,1,10,0:2:0:0:
39,301,42237,2,0,L|32:209,1,82.5000025177003,2|0,0:0|3:2,0:0:0:0:
4,91,42717,21,2,0:0:0:0:
88,57,42957,2,0,P|119:77|173:82,1,82.5000025177003,10|0,0:2|0:0,0:0:0:0:
306,65,43437,1,2,3:2:0:0:
398,124,43677,1,2,3:2:0:0:
410,121,43797,1,0,3:2:0:0:
422,119,43917,1,8,3:2:0:0:
434,116,44037,1,0,3:2:0:0:
447,113,44157,53,2,3:2:0:0:
465,201,44397,2,0,L|476:283,2,82.5000025177003,2|2|8,3:2|0:2|0:0,0:0:0:0:
447,113,45117,2,0,P|369:123|273:93,1,165.000005035401,2|2,0:2|3:2,0:0:0:0:
215,44,45837,1,10,0:2:0:0:
176,127,46077,2,0,P|192:172|199:218,1,82.5000025177003,2|0,0:0|3:2,0:0:0:0:
184,337,46557,5,2,0:0:0:0:
274,350,46797,2,0,P|314:337|367:341,1,82.5000025177003,10|0,0:2|0:0,0:0:0:0:
502,366,47277,1,2,3:2:0:0:
470,265,47517,1,2,3:2:0:0:
466,248,47637,1,0,3:2:0:0:
462,232,47757,1,8,3:2:0:0:
458,216,47877,1,0,3:2:0:0:
454,200,47997,37,2,3:2:0:0:
424,114,48237,2,0,L|511:128,2,82.5000025177003,2|2|8,3:2|0:2|0:0,0:0:0:0:
361,48,48957,2,0,B|265:28|302:98|207:78,1,165.000005035401,2|2,0:2|3:2,0:0:0:0:
124,38,49677,2,0,P|64:42|42:61,1,82.5000025177003,10|2,0:2|0:0,0:0:0:0:
0,160,50157,21,2,3:2:0:0:
124,38,50637,1,8,0:2:0:0:
186,104,50877,2,0,L|202:207,2,82.5000025177003,2|2|2,0:2|3:2|3:2,0:0:0:0:
216,18,51597,1,8,3:2:0:0:
331,334,52077,54,0,B|231:359|260:235|346:227|341:358|422:368|477:296,1,288.750008811951,2|0,3:2|0:0,0:0:0:0:
458,301,53037,5,8,0:2:0:0:
455,290,53157,1,8,0:0:0:0:
452,279,53277,1,0,3:0:0:0:
406,196,53517,37,8,0:0:0:0:
409,185,53637,1,8,0:0:0:0:
412,174,53757,1,0,3:0:0:0:
360,38,53997,22,0,B|286:63|286:63|227:32,1,123.75000377655,4|0,3:2|0:0,0:0:0:0:
235,34,54477,2,0,L|243:125,1,82.5000025177003,10|0,0:2|0:0,0:0:0:0:
298,255,54957,1,2,3:2:0:0:
194,228,55197,1,2,3:2:0:0:
181,225,55317,1,0,3:2:0:0:
169,222,55437,1,8,3:2:0:0:
157,219,55557,1,0,3:2:0:0:
145,215,55677,37,2,3:2:0:0:
93,139,55917,2,0,L|87:45,2,82.5000025177003,2|2|8,3:2|0:2|0:0,0:0:0:0:
34,208,56637,2,0,B|130:228|93:158|188:178,1,165.000005035401,2|2,0:2|3:2,0:0:0:0:
267,223,57357,1,10,0:2:0:0:
338,167,57597,2,0,P|323:129|331:75,1,82.5000025177003,2|0,0:0|3:2,0:0:0:0:
432,8,58077,21,2,0:0:0:0:
461,93,58317,2,0,L|455:177,1,82.5000025177003,10|0,0:2|0:0,0:0:0:0:
443,321,58797,1,2,3:2:0:0:
349,372,59037,1,2,3:2:0:0:
347,359,59157,1,0,3:2:0:0:
345,347,59277,1,8,3:2:0:0:
343,335,59397,1,0,3:2:0:0:
341,322,59517,53,2,3:2:0:0:
271,263,59757,2,0,L|189:274,2,82.5000025177003,2|2|8,3:2|0:2|0:0,0:0:0:0:
338,202,60477,2,0,P|328:124|358:28,1,165.000005035401,2|2,0:2|3:2,0:0:0:0:
440,31,61197,1,10,0:2:0:0:
490,106,61437,2,0,P|506:151|513:197,1,82.5000025177003,2|0,0:0|3:2,0:0:0:0:
422,281,61917,5,2,0:0:0:0:
339,319,62157,2,0,L|250:309,1,82.5000025177003,10|0,0:2|0:0,0:0:0:0:
183,177,62637,1,2,3:2:0:0:
249,97,62877,1,2,3:2:0:0:
246,80,62997,1,0,3:2:0:0:
244,64,63117,1,8,3:2:0:0:
242,47,63237,1,0,3:2:0:0:
240,30,63357,53,2,3:2:0:0:
154,59,63597,2,0,L|64:47,2,82.5000025177003,2|2|8,3:2|0:2|0:0,0:0:0:0:
185,144,64317,2,0,B|281:164|244:94|339:114,1,165.000005035401,2|2,0:2|3:2,0:0:0:0:
411,169,65037,2,0,L|423:261,1,82.5000025177003,10|2,0:2|0:0,0:0:0:0:
348,358,65517,5,2,3:2:0:0:
242,210,65997,1,8,0:2:0:0:
168,262,66237,2,0,L|70:264,2,82.5000025177003,2|2|2,0:2|3:2|3:2,0:0:0:0:
242,210,66957,1,8,3:2:0:0:
375,332,67437,38,0,B|398:271|357:178|357:178|419:261|483:249,1,288.750008811951,2|0,3:2|0:0,0:0:0:0:
472,247,68397,21,8,0:2:0:0:
469,233,68517,1,8,0:0:0:0:
466,220,68637,1,0,3:0:0:0:
425,97,68877,37,8,0:0:0:0:
422,111,68997,1,8,0:0:0:0:
420,124,69117,1,0,3:0:0:0:
318,195,69357,53,4,3:2:0:0:
284,266,69597,2,0,L|305:362,2,78.7499975967408,0|10|2,0:0|0:2|0:2,0:0:0:0:
228,209,70317,2,0,P|251:152|226:57,1,157.499995193482,0|8,3:0|3:2,0:0:0:0:
162,30,71037,1,2,3:2:0:0:
162,30,71277,53,0,3:0:0:0:
99,77,71517,2,0,L|14:68,2,78.7499975967408,0|10|2,0:0|0:2|0:2,0:0:0:0:
146,140,72237,1,0,3:0:0:0:
198,198,72477,2,0,L|283:189,1,78.7499975967408,6|8,0:3|0:0,0:0:0:0:
347,224,72957,1,2,0:0:0:0:
347,224,73197,5,0,3:0:0:0:
407,173,73437,2,0,P|396:135|390:70,1,78.7499975967408,0|10,0:0|0:2,0:0:0:0:
425,25,73917,1,2,0:2:0:0:
489,69,74157,2,0,P|477:237|477:247,1,157.499995193482,0|8,3:0|3:2,0:0:0:0:
496,302,74877,1,2,3:2:0:0:
496,302,75117,53,0,3:0:0:0:
431,347,75357,2,0,P|385:335|346:337,1,78.7499975967408,0|10,0:0|0:2,0:0:0:0:
278,358,75837,1,2,0:2:0:0:
213,313,76077,2,0,B|181:239|181:239|222:153,1,157.499995193482,0|8,3:0|0:0,0:0:0:0:
214,169,77037,5,0,3:2:0:0:
248,98,77277,2,0,L|227:2,2,78.7499975967408,0|10|2,0:0|0:2|0:2,0:0:0:0:
320,132,77997,2,0,P|348:173|352:283,1,157.499995193482,0|8,3:0|3:2,0:0:0:0:
376,360,78717,1,2,3:2:0:0:
376,360,78957,53,0,3:0:0:0:
434,309,79197,2,0,L|519:318,2,78.7499975967408,0|10|2,0:0|0:2|0:2,0:0:0:0:
385,246,79917,1,0,3:0:0:0:
341,180,80157,2,0,L|256:189,1,78.7499975967408,6|8,0:3|0:0,0:0:0:0:
196,155,80637,1,2,0:0:0:0:
196,155,80877,5,0,3:0:0:0:
125,191,81117,2,0,P|136:229|142:294,1,78.7499975967408,0|10,0:0|0:2,0:0:0:0:
107,339,81597,1,2,0:2:0:0:
43,295,81837,2,0,P|55:127|55:117,1,157.499995193482,0|8,3:0|3:2,0:0:0:0:
36,62,82557,1,2,3:2:0:0:
36,62,82797,53,0,0:0:0:0:
101,17,83037,2,0,P|147:29|186:27,1,78.7499975967408,0|8,0:0|0:0,0:0:0:0:
254,6,83517,1,2,0:3:0:0:
319,51,83757,2,0,B|351:125|351:125|310:211,1,157.499995193482
67,351,84717,6,0,L|76:269,1,75,0|0,3:0|0:0,0:0:0:0:
125,221,85197,2,0,P|162:225|208:207,1,75,8|2,0:2|0:2,0:0:0:0:
220,142,85677,1,2,3:2:0:0:
174,82,85917,1,2,3:2:0:0:
232,34,86157,2,0,L|316:19,1,75,10|2,3:2|3:2,0:0:0:0:
306,20,86517,1,0,3:2:0:0:
306,20,86637,6,0,L|463:29,1,150,2|8,3:2|0:2,0:0:0:0:
503,86,87357,2,0,P|467:112|409:110,1,75,2|0,0:2|3:0,0:0:0:0:
363,106,87837,1,2,0:2:0:0:
388,176,88077,1,10,0:2:0:0:
437,116,88317,1,2,0:2:0:0:
363,106,88557,54,0,P|318:111|290:123,1,75,0|2,3:0|0:2,0:0:0:0:
265,193,89037,2,0,L|275:288,1,75,10|2,0:2|0:2,0:0:0:0:
251,339,89517,1,2,3:2:0:0:
179,317,89757,1,2,3:2:0:0:
106,297,89997,2,0,P|94:252|72:216,1,75,10|2,3:2|3:2,0:0:0:0:
71,222,90357,1,0,3:2:0:0:
62,217,90477,6,0,B|42:137|98:162|82:72,1,150,2|8,3:2|0:2,0:0:0:0:
131,16,91197,2,0,P|170:34|205:66,1,75,2|0,0:0|3:0,0:0:0:0:
223,126,91677,1,2,0:2:0:0:
148,117,91917,1,10,0:2:0:0:
194,54,92157,1,2,0:2:0:0:
223,126,92397,54,0,P|225:171|215:210,2,75,0|2|10,3:0|0:2|0:2,0:0:0:0:
194,54,93117,1,2,0:2:0:0:
263,26,93357,2,0,L|346:34,1,75,2|2,3:2|3:2,0:0:0:0:
392,84,93837,2,0,L|466:81,1,75,10|2,3:2|3:2,0:0:0:0:
466,81,94197,1,0,3:2:0:0:
466,81,94317,5,2,3:2:0:0:
448,164,94557,2,0,P|459:199|484:246,1,75,2|8,0:2|0:2,0:0:0:0:
512,303,95037,1,2,0:2:0:0:
447,341,95277,2,0,P|413:324|377:313,2,75,2|2|8,3:2|0:2|0:2,0:0:0:0:
512,303,95997,1,2,0:0:0:0:
464,244,96237,54,0,L|443:101,1,112.5,0|0,3:0|0:0,0:0:0:0:
438,125,96717,2,0,L|447:45,1,75,10|0,0:1|0:0,0:0:0:0:
381,13,97197,1,0,3:0:0:0:
368,12,97317,1,0,0:0:0:0:
356,11,97437,1,0,3:2:0:0:
344,10,97557,1,0,3:2:0:0:
331,8,97677,2,0,P|304:14|258:42,1,75,8|0,3:2|3:2,0:0:0:0:
223,101,98157,6,0,L|80:122,1,112.5,2|0,3:1|0:0,0:0:0:0:
104,127,98637,2,0,L|24:118,1,75,8|2,0:2|0:1,0:0:0:0:
0,184,99117,1,0,3:0:0:0:
0,197,99237,1,0,0:0:0:0:
0,209,99357,1,6,0:3:0:0:
0,221,99477,1,0,0:0:0:0:
0,234,99597,2,0,P|6:261|34:307,1,75,8|2,0:2|0:3,0:0:0:0:
92,342,100077,54,0,L|167:325,1,75,0|2,3:0|0:2,0:0:0:0:
232,292,100557,2,0,P|269:294|307:309,1,75,10|2,0:2|0:2,0:0:0:0:
364,353,101037,1,2,3:2:0:0:
435,329,101277,1,2,3:2:0:0:
405,259,101517,2,0,P|395:224|392:175,1,75,10|2,3:2|3:2,0:0:0:0:
396,175,101877,1,0,3:2:0:0:
399,164,101997,6,0,P|401:88|330:88,1,150,2|8,3:2|0:2,0:0:0:0:
283,128,102717,2,0,L|200:124,1,75,2|0,0:2|3:0,0:0:0:0:
143,161,103197,1,2,0:2:0:0:
208,124,103437,1,10,0:2:0:0:
143,161,103677,1,2,0:2:0:0:
208,124,103917,54,0,P|204:86|202:34,2,75,0|2|10,3:0|0:2|0:2,0:0:0:0:
252,185,104637,1,2,0:2:0:0:
323,163,104877,2,0,P|378:165|416:187,1,75,2|2,3:2|3:2,0:0:0:0:
445,228,105357,2,0,P|437:282|452:323,1,75,10|2,3:2|3:2,0:0:0:0:
406,367,105837,5,2,3:2:0:0:
340,331,106077,2,0,L|348:246,1,75,2|8,0:2|0:2,0:0:0:0:
308,192,106557,2,0,L|302:100,1,75,2|0,0:2|3:0,0:0:0:0:
259,56,107037,1,2,0:2:0:0:
196,97,107277,1,10,0:2:0:0:
133,56,107517,2,0,P|95:83|54:86,1,75,2|0,0:2|3:0,0:0:0:0:
20,145,107997,53,0,0:0:0:0:
20,145,108237,2,0,P|19:189|14:222,1,75,8|0,0:2|0:0,0:0:0:0:
59,279,108717,1,0,3:0:0:0:
128,307,108957,1,0,3:0:0:0:
137,313,109077,1,0,3:0:0:0:
146,319,109197,2,0,L|150:378,2,37.5,8|0|0,3:2|3:0|3:0,0:0:0:0:
205,273,109677,5,0,3:0:0:0:
160,212,109917,2,0,P|153:176|159:122,1,75,0|8,0:0|0:2,0:0:0:0:
211,88,110397,1,0,0:0:0:0:
273,138,110637,1,0,3:0:0:0:
273,138,110877,2,0,L|360:119,1,75,6|8,0:3|0:2,0:0:0:0:
486,69,111597,54,0,P|469:132|465:212,1,112.5,0|0,3:0|0:0,0:0:0:0:
462,190,112077,2,0,L|471:270,1,75,8|0,0:2|0:0,0:0:0:0:
422,322,112557,1,0,3:0:0:0:
409,321,112677,1,0,0:0:0:0:
397,320,112797,1,0,3:2:0:0:
385,319,112917,1,0,3:2:0:0:
372,317,113037,2,0,L|298:307,1,75,8|0,3:2|3:2,0:0:0:0:
159,230,113517,6,0,B|81:283|35:161|-76:241|0:340|46:282,1,262.5,2|0,3:2|0:0,0:0:0:0:
39,298,114477,53,8,0:0:0:0:
36,308,114597,1,8,0:0:0:0:
33,320,114717,1,0,3:0:0:0:
123,360,114957,5,8,0:0:0:0:
120,349,115077,1,8,0:0:0:0:
117,338,115197,1,0,3:0:0:0:
255,247,115437,22,0,B|329:232|329:232|370:256,1,123.75000377655,4|0,3:2|0:0,0:0:0:0:
380,264,115917,2,0,L|372:173,1,82.5000025177003,10|0,0:2|0:0,0:0:0:0:
356,37,116397,1,2,3:2:0:0:
271,95,116637,1,2,3:2:0:0:
258,93,116757,1,0,3:2:0:0:
246,91,116877,1,8,3:2:0:0:
234,90,116997,1,0,3:2:0:0:
221,87,117117,53,2,3:2:0:0:
133,109,117357,2,0,L|127:15,2,82.5000025177003,2|2|8,3:2|0:2|0:0,0:0:0:0:
107,196,118077,2,0,B|202:217|171:149|267:167,1,165.000005035401,2|2,0:2|3:2,0:0:0:0:
346,200,118797,1,10,0:2:0:0:
424,154,119037,2,0,L|442:242,1,82.5000025177003,2|0,0:0|3:2,0:0:0:0:
467,363,119517,5,2,0:0:0:0:
376,354,119757,2,0,B|341:328|341:328|291:329,1,82.5000025177003,10|0,0:2|0:0,0:0:0:0:
165,376,120237,1,2,3:2:0:0:
189,268,120477,1,2,3:2:0:0:
185,256,120597,1,0,3:2:0:0:
182,244,120717,1,8,3:2:0:0:
178,232,120837,1,0,3:2:0:0:
175,220,120957,37,2,3:2:0:0:
97,172,121197,2,0,L|86:90,2,82.5000025177003,2|2|8,3:2|0:2|0:0,0:0:0:0:
42,254,121917,2,0,B|118:259|118:259|123:255|123:255|207:262,1,165.000005035401,2|2,0:2|3:2,0:0:0:0:
268,327,122637,1,10,0:2:0:0:
332,260,122877,2,0,P|316:215|309:169,1,82.5000025177003,2|0,0:0|3:2,0:0:0:0:
351,55,123357,21,2,0:0:0:0:
430,98,123597,2,0,P|422:138|407:177,1,82.5000025177003,10|0,0:2|0:0,0:0:0:0:
298,276,124077,1,2,3:2:0:0:
379,357,124317,1,2,3:2:0:0:
394,352,124437,1,0,3:2:0:0:
410,348,124557,1,8,3:2:0:0:
426,344,124677,1,0,3:2:0:0:
442,340,124797,53,2,3:2:0:0:
479,257,125037,2,0,P|471:221|465:170,2,82.5000025177003,2|2|8,3:2|0:2|0:0,0:0:0:0:
442,340,125757,2,0,B|346:360|383:290|288:310,1,165.000005035401,2|2,0:2|3:2,0:0:0:0:
211,359,126477,2,0,P|166:338|130:332,1,82.5000025177003,10|2,0:2|0:0,0:0:0:0:
47,232,126957,5,2,3:2:0:0:
211,155,127437,1,8,0:2:0:0:
211,155,127677,2,0,L|195:52,2,82.5000025177003,2|2|2,0:2|3:2|3:2,0:0:0:0:
272,218,128397,1,8,3:2:0:0:
272,218,128877,37,2,3:2:0:0:
332,274,129117,1,2,0:2:0:0:
430,273,129357,1,10,0:2:0:0:
485,171,129597,1,2,0:2:0:0:
406,64,129837,21,8,0:2:0:0:
395,67,129957,1,8,0:0:0:0:
384,70,130077,1,0,3:0:0:0:
301,116,130317,37,8,0:0:0:0:
290,113,130437,1,8,0:0:0:0:
279,110,130557,1,0,3:0:0:0:
126,172,130797,22,0,P|174:246|219:234,1,123.75000377655,4|0,3:2|0:0,0:0:0:0:
207,237,131277,2,0,L|298:229,1,82.5000025177003,10|0,0:2|0:0,0:0:0:0:
391,343,131757,1,2,3:2:0:0:
282,368,131997,1,2,3:2:0:0:
269,365,132117,1,0,3:2:0:0:
257,362,132237,1,8,3:2:0:0:
245,359,132357,1,0,3:2:0:0:
234,354,132477,53,2,3:2:0:0:
174,285,132717,2,0,L|180:191,2,82.5000025177003,2|2|8,3:2|0:2|0:0,0:0:0:0:
109,348,133437,2,0,B|206:360|169:294|270:310,1,165.000005035401,2|2,0:2|3:2,0:0:0:0:
345,348,134157,1,10,0:2:0:0:
428,311,134397,2,0,L|421:215,1,82.5000025177003,2|0,0:0|3:2,0:0:0:0:
411,95,134877,5,2,0:0:0:0:
324,123,135117,2,0,L|239:98,1,82.5000025177003,10|0,0:2|0:0,0:0:0:0:
125,200,135597,1,2,3:2:0:0:
220,261,135837,1,2,3:2:0:0:
231,257,135957,1,0,3:2:0:0:
243,253,136077,1,8,3:2:0:0:
255,250,136197,1,0,3:2:0:0:
266,245,136317,37,2,3:2:0:0:
349,281,136557,2,0,L|434:256,2,82.5000025177003,2|2|8,3:2|0:2|0:0,0:0:0:0:
307,362,137277,2,0,P|227:334|134:350,1,165.000005035401,2|2,0:2|3:2,0:0:0:0:
65,379,137997,1,10,0:2:0:0:
11,306,138237,2,0,P|21:263|23:218,1,82.5000025177003,2|0,0:0|3:2,0:0:0:0:
4,93,138717,21,2,0:0:0:0:
81,44,138957,2,0,P|121:57|174:53,1,82.5000025177003,10|0,0:2|0:0,0:0:0:0:
306,31,139437,1,2,3:2:0:0:
269,122,139677,1,2,3:2:0:0:
272,138,139797,1,0,3:2:0:0:
276,154,139917,1,8,3:2:0:0:
280,170,140037,1,0,3:2:0:0:
284,186,140157,53,2,3:2:0:0:
210,239,140397,2,0,L|123:225,2,82.5000025177003,2|2|8,3:2|0:2|0:0,0:0:0:0:
263,312,141117,2,0,B|359:332|322:262|417:282,1,165.000005035401,2|2,0:2|3:2,0:0:0:0:
502,250,141837,2,0,L|495:164,1,82.5000025177003,10|2,0:2|0:0,0:0:0:0:
469,37,142317,5,2,3:2:0:0:
291,52,142797,1,8,0:2:0:0:
291,52,143037,2,0,L|188:68,2,82.5000025177003,2|2|2,0:2|3:2|3:2,0:0:0:0:
344,126,143757,1,8,3:2:0:0:
344,126,144237,37,2,3:2:0:0:
321,205,144477,1,2,0:2:0:0:
233,250,144717,1,10,0:2:0:0:
120,224,144957,1,2,0:2:0:0:
145,80,145197,21,8,0:2:0:0:
155,76,145317,1,8,0:0:0:0:
166,72,145437,1,0,3:0:0:0:
69,132,145677,37,8,0:0:0:0:
59,128,145797,1,8,0:0:0:0:
48,124,145917,1,0,3:0:0:0:
158,190,146157,5,4,3:2:0:0:
221,143,146397,2,0,L|200:47,2,78.7499975967408,0|10|2,0:0|0:2|0:2,0:0:0:0:
297,170,147117,2,0,P|346:105|423:108,1,157.499995193482,0|8,3:0|3:2,0:0:0:0:
470,169,147837,1,2,3:2:0:0:
470,169,148077,53,0,3:0:0:0:
440,242,148317,2,0,L|449:327,2,78.7499975967408,0|10|2,0:0|0:2|0:2,0:0:0:0:
369,209,149037,1,0,3:0:0:0:
303,252,149277,2,0,L|218:243,1,78.7499975967408,6|8,0:3|0:0,0:0:0:0:
154,274,149757,1,2,0:3:0:0:
154,274,149997,5,0,3:2:0:0:
102,214,150237,2,0,P|113:176|119:111,1,78.7499975967408,0|10,0:0|0:2,0:0:0:0:
94,62,150717,1,2,0:2:0:0:
19,88,150957,2,0,P|31:256|31:266,1,157.499995193482,0|8,3:0|3:2,0:0:0:0:
13,324,151677,1,2,3:2:0:0:
13,324,151917,53,0,3:0:0:0:
87,348,152157,2,0,P|126:332|172:338,1,78.7499975967408,0|10,0:0|0:2,0:0:0:0:
229,377,152637,1,2,0:2:0:0:
286,323,152877,2,0,B|360:291|360:291|446:332,1,157.499995193482,0|8,3:0|0:0,0:0:0:0:
342,192,153837,5,0,3:2:0:0:
389,129,154077,2,0,L|485:150,2,78.7499975967408,0|10|2,0:0|0:2|0:2,0:0:0:0:
340,66,154797,2,0,P|287:105|187:80,1,157.499995193482,0|8,3:0|3:2,0:0:0:0:
144,42,155517,1,2,3:2:0:0:
144,42,155757,53,0,3:0:0:0:
85,94,155997,2,0,L|0:85,2,78.7499975967408,0|10|2,0:0|0:2|0:2,0:0:0:0:
118,165,156717,1,0,3:0:0:0:
154,234,156957,2,0,L|239:225,1,78.7499975967408,6|8,0:3|0:0,0:0:0:0:
310,214,157437,1,2,0:3:0:0:
310,214,157677,5,0,3:2:0:0:
349,282,157917,2,0,P|338:320|332:385,1,78.7499975967408,0|10,0:0|0:2,0:0:0:0:
408,380,158397,1,2,0:2:0:0:
460,321,158637,2,0,P|448:153|448:143,1,157.499995193482,0|8,3:0|3:2,0:0:0:0:
473,91,159357,1,2,3:2:0:0:
473,91,159597,53,0,3:0:0:0:
410,43,159837,2,0,P|364:55|325:53,1,78.7499975967408,0|10,0:0|0:2,0:0:0:0:
258,29,160317,1,2,0:2:0:0:
187,64,160557,2,0,B|113:32|113:32|29:75,1,157.499995193482,0|8,3:0|0:0,0:0:0:0:
132,277,161517,5,4,3:2:0:0:
132,277,161997,2,0,L|266:267,1,123.75000377655,10|0,0:2|0:0,0:0:0:0:
266,261,162477,2,0,L|449:288,1,165.000005035401,2|8,3:2|3:2,0:0:0:0:
477,207,163197,1,2,3:2:0:0:
445,123,163437,53,0,3:0:0:0:
445,123,163917,2,0,P|385:91|311:113,1,123.75000377655,10|0,0:2|0:0,0:0:0:0:
322,107,164397,2,0,P|248:74|154:94,1,165.000005035401,2|10,3:2|0:0,0:0:0:0:
116,161,165117,1,2,0:3:0:0:
32,182,165357,5,0,3:2:0:0:
19,271,165597,1,0,0:0:0:0:
73,343,165837,2,0,L|208:316,1,123.75000377655,10|0,0:2|0:0,0:0:0:0:
205,314,166317,2,0,P|164:275|174:141,1,165.000005035401,2|8,3:2|3:2,0:0:0:0:
202,93,167037,1,2,3:2:0:0:
271,34,167277,53,0,3:0:0:0:
361,34,167517,1,0,0:0:0:0:
416,105,167757,2,0,L|407:239,1,123.75000377655,10|0,0:2|0:0,0:0:0:0:
399,237,168237,2,0,P|364:181|269:195,1,165.000005035401,2|10,3:2|0:0,0:0:0:0:
238,273,168957,1,2,0:3:0:0:
168,331,169197,5,0,3:2:0:0:
168,331,169677,2,0,L|158:197,1,123.75000377655,10|0,0:2|0:0,0:0:0:0:
152,197,170157,2,0,L|179:14,1,165.000005035401,2|8,3:2|3:2,0:0:0:0:
261,0,170877,1,2,3:2:0:0:
328,60,171117,53,0,3:0:0:0:
406,223,171597,2,0,P|346:191|272:213,1,123.75000377655,10|0,0:2|0:0,0:0:0:0:
283,207,172077,2,0,P|209:174|126:208,1,165.000005035401,2|10,3:2|0:0,0:0:0:0:
74,269,172797,1,2,0:3:0:0:
9,204,173037,5,0,3:2:0:0:
13,113,173277,1,0,0:0:0:0:
87,60,173517,2,0,L|222:87,1,123.75000377655,10|0,0:2|0:0,0:0:0:0:
219,89,173997,2,0,P|266:70|393:68,1,165.000005035401,2|8,3:2|3:2,0:0:0:0:
456,111,174717,1,2,3:2:0:0:
398,181,174957,53,0,3:0:0:0:
460,247,175197,1,0,0:0:0:0:
399,314,175437,2,0,L|265:305,1,123.75000377655,10|0,0:0|0:0,0:0:0:0:
267,293,175917,5,8,0:0:0:0:
265,281,176037,1,8,0:0:0:0:
261,270,176157,1,0,3:0:0:0:
184,196,176397,53,8,0:0:0:0:
182,208,176517,1,8,0:0:0:0:
180,221,176637,1,0,3:0:0:0:
98,285,176877,5,2,0:0:0:0:
256,192,176997,12,0,180717,0:0:0:0:
