osu file format v14

[General]
AudioFilename: audio.mp3
AudioLeadIn: 0
PreviewTime: 38877
Countdown: 0
SampleSet: Soft
StackLeniency: 0.7
Mode: 0
LetterboxInBreaks: 0
EpilepsyWarning: 1
WidescreenStoryboard: 1

[Editor]
Bookmarks: 7917,23277,38637,69357,84717,107757,115437,146157,180717
DistanceSpacing: 1.5
BeatDivisor: 4
GridSize: 4
TimelineZoom: 1

[Metadata]
Title:Dont Know How
TitleUnicode:Dont Know How
Artist:Ricky Montgomery
ArtistUnicode:Ricky Montgomery
Creator:Hantrik
Version:Heartbreaker
Source:osu!
Tags:shmiklak marvollo m_a_r_v_o_l_l_o mimari daycore english alternative rock indie fa featured artist mappers' guild mg male vocalist don't the honeysticks
BeatmapID:2694105
BeatmapSetID:1298909

[Difficulty]
HPDrainRate:5.2
CircleSize:4.2
OverallDifficulty:8
ApproachRate:9
SliderMultiplier:1.8
SliderTickRate:1

[Events]
//Background and Video events
0,0,"BG.jpg",0,0
//Break Periods
//Storyboard Layer 0 (Background)
//Storyboard Layer 1 (Fail)
//Storyboard Layer 2 (Pass)
//Storyboard Layer 3 (Foreground)
//Storyboard Layer 4 (Overlay)
//Storyboard Sound Samples

[TimingPoints]
237,480,4,2,2,60,1,0
8157,-142.857142857143,4,2,2,60,0,0
9117,-142.857142857143,4,2,8,60,0,0
9237,-142.857142857143,4,2,5,60,0,0
9357,-142.857142857143,4,2,2,60,0,0
12957,-142.857142857143,4,2,8,60,0,0
13077,-142.857142857143,4,2,5,60,0,0
13197,-142.857142857143,4,2,2,60,0,0
16797,-142.857142857143,4,2,8,60,0,0
16917,-142.857142857143,4,2,5,60,0,0
17037,-142.857142857143,4,2,2,60,0,0
20637,-142.857142857143,4,2,8,60,0,0
20757,-142.857142857143,4,2,5,60,0,0
20877,-142.857142857143,4,2,2,60,0,0
23277,-125,4,2,2,75,0,0
24477,-125,4,2,8,75,0,0
24597,-125,4,2,7,75,0,0
24717,-125,4,2,9,75,0,0
24837,-125,4,2,5,75,0,0
24957,-125,4,2,4,75,0,0
25077,-125,4,2,3,75,0,0
25197,-125,4,2,2,75,0,0
28317,-125,4,2,8,75,0,0
28437,-125,4,2,7,75,0,0
28557,-125,4,2,9,75,0,0
28677,-125,4,2,5,75,0,0
28797,-125,4,2,4,75,0,0
28917,-125,4,2,3,75,0,0
29037,-125,4,2,2,75,0,0
30957,-142.857142857143,4,2,2,70,0,0
32157,-142.857142857143,4,2,8,70,0,0
32277,-142.857142857143,4,2,7,70,0,0
32397,-142.857142857143,4,2,9,70,0,0
32517,-142.857142857143,4,2,5,70,0,0
32637,-142.857142857143,4,2,4,70,0,0
32757,-142.857142857143,4,2,3,70,0,0
32877,-142.857142857143,4,2,2,70,0,0
35997,-142.857142857143,4,2,8,70,0,0
36117,-142.857142857143,4,2,7,70,0,0
36237,-142.857142857143,4,2,9,70,0,0
36357,-142.857142857143,4,2,5,70,0,0
36477,-142.857142857143,4,2,4,70,0,0
36597,-142.857142857143,4,2,3,70,0,0
36717,-111.111111111111,4,2,2,75,0,0
37677,-111.111111111111,4,2,1,80,0,0
38637,-90.9090909090909,4,2,1,85,0,1
39837,-90.9090909090909,4,2,8,85,0,1
39957,-90.9090909090909,4,2,7,85,0,1
40077,-90.9090909090909,4,2,6,85,0,1
40197,-90.9090909090909,4,2,5,85,0,1
40317,-90.9090909090909,4,2,4,85,0,1
40437,-90.9090909090909,4,2,3,85,0,1
40557,-90.9090909090909,4,2,1,85,0,1
43677,-90.9090909090909,4,2,8,85,0,1
43797,-90.9090909090909,4,2,7,85,0,1
43917,-90.9090909090909,4,2,6,85,0,1
44037,-90.9090909090909,4,2,5,85,0,1
44157,-90.9090909090909,4,2,4,85,0,1
44277,-90.9090909090909,4,2,3,85,0,1
44397,-90.9090909090909,4,2,1,85,0,1
47517,-90.9090909090909,4,2,8,85,0,1
47637,-90.9090909090909,4,2,7,85,0,1
47757,-90.9090909090909,4,2,6,85,0,1
47877,-90.9090909090909,4,2,5,85,0,1
47997,-90.9090909090909,4,2,4,85,0,1
48117,-90.9090909090909,4,2,3,85,0,1
48237,-90.9090909090909,4,2,1,85,0,1
50157,-100,4,2,1,85,0,1
51357,-100,4,2,8,85,0,1
51477,-100,4,2,7,85,0,1
51597,-100,4,2,6,85,0,1
51717,-100,4,2,5,85,0,1
51837,-100,4,2,4,85,0,1
51957,-100,4,2,3,85,0,1
52077,-100,4,2,1,85,0,1
53997,-90.9090909090909,4,2,1,85,0,1
55197,-90.9090909090909,4,2,8,85,0,1
55317,-90.9090909090909,4,2,7,85,0,1
55437,-90.9090909090909,4,2,6,85,0,1
55557,-90.9090909090909,4,2,5,85,0,1
55677,-90.9090909090909,4,2,4,85,0,1
55797,-90.9090909090909,4,2,3,85,0,1
55917,-90.9090909090909,4,2,1,85,0,1
59037,-90.9090909090909,4,2,8,85,0,1
59157,-90.9090909090909,4,2,7,85,0,1
59277,-90.9090909090909,4,2,6,85,0,1
59397,-90.9090909090909,4,2,5,85,0,1
59517,-90.9090909090909,4,2,4,85,0,1
59637,-90.9090909090909,4,2,3,85,0,1
59757,-90.9090909090909,4,2,1,85,0,1
62877,-90.9090909090909,4,2,8,85,0,1
62997,-90.9090909090909,4,2,7,85,0,1
63117,-90.9090909090909,4,2,6,85,0,1
63237,-90.9090909090909,4,2,5,85,0,1
63357,-90.9090909090909,4,2,4,85,0,1
63477,-90.9090909090909,4,2,3,85,0,1
63597,-90.9090909090909,4,2,1,85,0,1
65517,-100,4,2,1,85,0,1
66717,-100,4,2,8,85,0,1
66837,-100,4,2,7,85,0,1
66957,-100,4,2,6,85,0,1
67077,-100,4,2,5,85,0,1
67197,-100,4,2,4,85,0,1
67317,-100,4,2,3,85,0,1
67437,-100,4,2,1,85,0,1
69357,-100,4,2,1,85,0,0
70557,-100,4,2,8,85,0,0
70677,-100,4,2,7,85,0,0
70797,-100,4,2,6,85,0,0
70917,-100,4,2,5,85,0,0
71037,-100,4,2,4,85,0,0
71157,-100,4,2,3,85,0,0
71277,-100,4,2,1,85,0,0
74397,-100,4,2,8,85,0,0
74517,-100,4,2,7,85,0,0
74637,-100,4,2,6,85,0,0
74757,-100,4,2,5,85,0,0
74877,-100,4,2,4,85,0,0
74997,-100,4,2,3,85,0,0
75117,-100,4,2,1,85,0,0
78237,-100,4,2,8,85,0,0
78357,-100,4,2,7,85,0,0
78477,-100,4,2,6,85,0,0
78597,-100,4,2,5,85,0,0
78717,-100,4,2,4,85,0,0
78837,-100,4,2,3,85,0,0
78957,-100,4,2,1,85,0,0
82077,-100,4,2,8,85,0,0
82197,-100,4,2,7,85,0,0
82317,-100,4,2,6,85,0,0
82437,-100,4,2,5,85,0,0
82557,-100,4,2,4,85,0,0
82677,-100,4,2,3,85,0,0
82797,-100,4,2,1,85,0,0
83757,-125,4,2,1,85,0,0
84717,-125,4,2,1,75,0,0
85917,-125,4,2,8,75,0,0
86037,-125,4,2,7,75,0,0
86157,-125,4,2,6,75,0,0
86277,-125,4,2,5,75,0,0
86397,-125,4,2,4,75,0,0
86517,-125,4,2,3,75,0,0
86637,-125,4,2,1,75,0,0
89757,-125,4,2,8,75,0,0
89877,-125,4,2,7,75,0,0
89997,-125,4,2,6,75,0,0
90117,-125,4,2,5,75,0,0
90237,-125,4,2,4,75,0,0
90357,-125,4,2,3,75,0,0
90477,-125,4,2,1,75,0,0
93597,-125,4,2,8,75,0,0
93717,-125,4,2,7,75,0,0
93837,-125,4,2,6,75,0,0
93957,-125,4,2,5,75,0,0
94077,-125,4,2,4,75,0,0
94197,-125,4,2,3,75,0,0
94317,-125,4,2,1,75,0,0
97437,-125,4,2,8,75,0,0
97557,-125,4,2,7,75,0,0
97677,-125,4,2,6,75,0,0
97797,-125,4,2,5,75,0,0
97917,-125,4,2,4,75,0,0
98037,-125,4,2,3,75,0,0
98157,-125,4,2,1,75,0,0
101277,-125,4,2,8,75,0,0
101397,-125,4,2,7,75,0,0
101517,-125,4,2,6,75,0,0
101637,-125,4,2,5,75,0,0
101757,-125,4,2,4,75,0,0
101877,-125,4,2,3,75,0,0
101997,-125,4,2,1,75,0,0
105117,-125,4,2,8,75,0,0
105237,-125,4,2,7,75,0,0
105357,-125,4,2,6,75,0,0
105477,-125,4,2,5,75,0,0
105597,-125,4,2,4,75,0,0
105717,-125,4,2,3,75,0,0
105837,-125,4,2,1,75,0,0
107757,-142.857142857143,4,2,1,70,0,0
108957,-142.857142857143,4,2,8,70,0,0
109077,-142.857142857143,4,2,7,70,0,0
109197,-142.857142857143,4,2,6,70,0,0
109317,-142.857142857143,4,2,5,70,0,0
109437,-142.857142857143,4,2,4,70,0,0
109557,-142.857142857143,4,2,3,70,0,0
109677,-142.857142857143,4,2,1,70,0,0
112797,-142.857142857143,4,2,8,70,0,0
112917,-142.857142857143,4,2,7,70,0,0
113037,-142.857142857143,4,2,6,70,0,0
113157,-142.857142857143,4,2,5,70,0,0
113277,-142.857142857143,4,2,4,70,0,0
113397,-142.857142857143,4,2,3,70,0,0
113517,-111.111111111111,4,2,1,70,0,0
115437,-90.9090909090908,4,2,1,85,0,1
116637,-90.9090909090908,4,2,8,85,0,1
116757,-90.9090909090908,4,2,7,85,0,1
116877,-90.9090909090908,4,2,6,85,0,1
116997,-90.9090909090908,4,2,5,85,0,1
117117,-90.9090909090908,4,2,4,85,0,1
117237,-90.9090909090908,4,2,3,85,0,1
117357,-90.9090909090908,4,2,1,85,0,1
120477,-90.9090909090908,4,2,8,85,0,1
120597,-90.9090909090908,4,2,7,85,0,1
120717,-90.9090909090908,4,2,6,85,0,1
120837,-90.9090909090908,4,2,5,85,0,1
120957,-90.9090909090908,4,2,4,85,0,1
121077,-90.9090909090908,4,2,3,85,0,1
121197,-90.9090909090908,4,2,1,85,0,1
124317,-90.9090909090908,4,2,8,85,0,1
124437,-90.9090909090908,4,2,7,85,0,1
124557,-90.9090909090908,4,2,6,85,0,1
124677,-90.9090909090908,4,2,5,85,0,1
124797,-90.9090909090908,4,2,4,85,0,1
124917,-90.9090909090908,4,2,3,85,0,1
125037,-90.9090909090908,4,2,1,85,0,1
126957,-100,4,2,1,85,0,1
128157,-100,4,2,8,85,0,1
128277,-100,4,2,7,85,0,1
128397,-100,4,2,6,85,0,1
128517,-100,4,2,5,85,0,1
128637,-100,4,2,4,85,0,1
128757,-100,4,2,3,85,0,1
128877,-100,4,2,1,85,0,1
130797,-90.9090909090909,4,2,1,85,0,1
131997,-90.9090909090909,4,2,8,85,0,1
132117,-90.9090909090909,4,2,7,85,0,1
132237,-90.9090909090909,4,2,6,85,0,1
132357,-90.9090909090909,4,2,5,85,0,1
132477,-90.9090909090909,4,2,4,85,0,1
132597,-90.9090909090909,4,2,3,85,0,1
132717,-90.9090909090909,4,2,1,85,0,1
135837,-90.9090909090909,4,2,8,85,0,1
135957,-90.9090909090909,4,2,7,85,0,1
136077,-90.9090909090909,4,2,6,85,0,1
136197,-90.9090909090909,4,2,5,85,0,1
136317,-90.9090909090909,4,2,4,85,0,1
136437,-90.9090909090909,4,2,3,85,0,1
136557,-90.9090909090909,4,2,1,85,0,1
139677,-90.9090909090909,4,2,8,85,0,1
139797,-90.9090909090909,4,2,7,85,0,1
139917,-90.9090909090909,4,2,6,85,0,1
140037,-90.9090909090909,4,2,5,85,0,1
140157,-90.9090909090909,4,2,4,85,0,1
140277,-90.9090909090909,4,2,3,85,0,1
140397,-90.9090909090909,4,2,1,85,0,1
142317,-100,4,2,1,85,0,1
143517,-100,4,2,8,85,0,1
143637,-100,4,2,7,85,0,1
143757,-100,4,2,6,85,0,1
143877,-100,4,2,5,85,0,1
143997,-100,4,2,4,85,0,1
144117,-100,4,2,3,85,0,1
144237,-100,4,2,1,85,0,1
146157,-99.9999999999999,4,2,1,85,0,0
147357,-99.9999999999999,4,2,8,85,0,0
147477,-99.9999999999999,4,2,7,85,0,0
147597,-99.9999999999999,4,2,6,85,0,0
147717,-99.9999999999999,4,2,5,85,0,0
147837,-99.9999999999999,4,2,4,85,0,0
147957,-99.9999999999999,4,2,3,85,0,0
148077,-99.9999999999999,4,2,1,85,0,0
151197,-99.9999999999999,4,2,8,85,0,0
151317,-99.9999999999999,4,2,7,85,0,0
151437,-99.9999999999999,4,2,6,85,0,0
151557,-99.9999999999999,4,2,5,85,0,0
151677,-99.9999999999999,4,2,4,85,0,0
151797,-99.9999999999999,4,2,3,85,0,0
151917,-99.9999999999999,4,2,1,85,0,0
155037,-99.9999999999999,4,2,8,85,0,0
155157,-99.9999999999999,4,2,7,85,0,0
155277,-99.9999999999999,4,2,6,85,0,0
155397,-99.9999999999999,4,2,5,85,0,0
155517,-99.9999999999999,4,2,4,85,0,0
155637,-99.9999999999999,4,2,3,85,0,0
155757,-99.9999999999999,4,2,1,85,0,0
158877,-99.9999999999999,4,2,8,85,0,0
158997,-99.9999999999999,4,2,7,85,0,0
159117,-99.9999999999999,4,2,6,85,0,0
159237,-99.9999999999999,4,2,5,85,0,0
159357,-99.9999999999999,4,2,4,85,0,0
159477,-99.9999999999999,4,2,3,85,0,0
159597,-99.9999999999999,4,2,1,85,0,0
161517,-99.9999999999999,4,2,1,85,0,0
162717,-99.9999999999999,4,2,8,85,0,0
162837,-99.9999999999999,4,2,7,85,0,0
162957,-99.9999999999999,4,2,6,85,0,0
163077,-99.9999999999999,4,2,5,85,0,0
163197,-99.9999999999999,4,2,4,85,0,0
163317,-99.9999999999999,4,2,3,85,0,0
163437,-99.9999999999999,4,2,1,85,0,0
166557,-99.9999999999999,4,2,8,85,0,0
166677,-99.9999999999999,4,2,7,85,0,0
166797,-99.9999999999999,4,2,6,85,0,0
166917,-99.9999999999999,4,2,5,85,0,0
167037,-99.9999999999999,4,2,4,85,0,0
167157,-99.9999999999999,4,2,3,85,0,0
167277,-99.9999999999999,4,2,1,85,0,0
170397,-99.9999999999999,4,2,8,85,0,0
170517,-99.9999999999999,4,2,7,85,0,0
170637,-99.9999999999999,4,2,6,85,0,0
170757,-99.9999999999999,4,2,5,85,0,0
170877,-99.9999999999999,4,2,4,85,0,0
170997,-99.9999999999999,4,2,3,85,0,0
171117,-99.9999999999999,4,2,1,85,0,0
174237,-99.9999999999999,4,2,8,85,0,0
174357,-99.9999999999999,4,2,7,85,0,0
174477,-99.9999999999999,4,2,6,85,0,0
174597,-99.9999999999999,4,2,5,85,0,0
174717,-99.9999999999999,4,2,4,85,0,0
174837,-99.9999999999999,4,2,3,85,0,0
174957,-99.9999999999999,4,2,1,85,0,0
180717,-99.9999999999999,4,2,1,5,0,0

[Colours]
Combo1 : 212,212,212
Combo2 : 255,119,119
Combo3 : 114,197,252
Combo4 : 224,142,238
Combo5 : 136,136,136

[HitObjects]
463,103,8157,53,2,0:0:0:0:
378,55,8397,2,0,L|366:129,1,62.9999980773926,2|2,0:0|0:0,0:0:0:0:
400,210,8877,1,2,0:0:0:0:
235,121,9117,1,2,3:2:0:0:
255,97,9237,1,0,3:2:0:0:
286,99,9357,2,0,P|322:108|339:141,1,62.9999980773926,2|2,3:2|0:0,0:0:0:0:
324,230,9837,5,2,0:0:0:0:
231,276,10077,2,0,L|157:253,1,62.9999980773926,2|2,0:0|0:0,0:0:0:0:
77,286,10557,1,2,0:0:0:0:
77,286,11037,53,2,0:0:0:0:
16,238,11277,1,2,0:0:0:0:
14,160,11517,1,2,0:0:0:0:
75,110,11757,1,0,0:0:0:0:
90,188,11997,5,2,0:0:0:0:
14,160,12237,2,0,L|0:80,1,62.9999980773926,2|2,0:0|0:0,0:0:0:0:
68,22,12717,1,2,0:0:0:0:
145,83,12957,1,2,3:2:0:0:
174,73,13077,1,0,3:2:0:0:
210,60,13197,2,0,P|235:90|233:120,1,62.9999980773926,2|2,3:2|0:0,0:0:0:0:
166,171,13677,53,2,0:0:0:0:
108,242,13917,2,0,L|126:313,1,62.9999980773926,2|0,0:0|0:0,0:0:0:0:
208,344,14397,1,2,0:0:0:0:
208,344,14877,5,2,0:0:0:0:
220,265,15117,1,2,0:0:0:0:
288,225,15357,1,2,0:0:0:0:
362,254,15597,1,0,0:0:0:0:
299,312,15837,53,2,0:0:0:0:
288,225,16077,2,0,P|261:205|220:216,1,62.9999980773926,2|2,0:0|0:0,0:0:0:0:
154,286,16557,1,2,0:0:0:0:
63,235,16797,1,2,3:2:0:0:
53,204,16917,1,0,3:2:0:0:
44,173,17037,2,0,L|24:96,1,62.9999980773926,2|2,3:2|0:0,0:0:0:0:
86,29,17517,5,2,0:0:0:0:
162,92,17757,2,0,L|146:152,1,62.9999980773926,2|0,0:0|0:0,0:0:0:0:
207,245,18237,1,2,0:0:0:0:
270,160,18477,1,2,0:0:0:0:
285,155,18597,1,0,0:0:0:0:
300,150,18717,1,2,0:0:0:0:
315,145,18837,1,0,0:0:0:0:
330,140,18957,1,0,0:0:0:0:
299,269,19197,1,2,0:0:0:0:
427,219,19437,54,0,B|437:276|437:276|434:286|434:286|447:349,2,125.999996154785,0|2|0,0:0|0:1|0:0,0:0:0:0:
339,161,20637,1,0,3:0:0:0:
334,176,20757,1,0,3:0:0:0:
330,191,20877,1,0,3:0:0:0:
422,114,21117,1,0,0:0:0:0:
331,43,21357,6,0,P|288:41|245:113,1,125.999996154785,2|0,0:1|0:0,0:0:0:0:
166,25,22077,1,2,0:1:0:0:
121,115,22317,1,0,0:0:0:0:
105,110,22437,1,0,0:0:0:0:
90,106,22557,1,2,0:3:0:0:
187,182,22797,1,0,0:0:0:0:
87,238,23037,1,8,0:3:0:0:
169,351,23277,21,4,3:2:0:0:
81,256,23517,1,2,0:0:0:0:
177,171,23757,2,0,P|213:158|259:177,1,72,10|2,0:0|0:0,0:0:0:0:
351,260,24237,1,0,3:0:0:0:
458,183,24477,2,0,L|469:130,1,36,2|0,3:2|3:0,0:0:0:0:
388,41,24717,1,10,3:2:0:0:
370,37,24837,1,0,3:0:0:0:
352,34,24957,1,2,3:2:0:0:
335,30,25077,1,0,3:0:0:0:
317,27,25197,38,0,L|301:107,1,72,2|2,3:2|0:0,0:0:0:0:
120,30,25677,1,8,0:0:0:0:
209,98,25917,2,0,L|221:181,1,72,2|0,0:0|3:0,0:0:0:0:
131,264,26397,1,2,0:0:0:0:
32,179,26637,1,10,0:0:0:0:
29,196,26757,1,0,0:0:0:0:
26,214,26877,1,2,0:0:0:0:
24,232,26997,1,0,0:0:0:0:
21,250,27117,21,0,3:2:0:0:
149,165,27357,1,2,0:0:0:0:
18,82,27597,2,0,P|39:54|87:55,1,72,10|2,0:0|0:0,0:0:0:0:
124,159,28077,1,0,3:0:0:0:
196,6,28317,2,0,L|205:55,1,36,2|0,3:2|3:0,0:0:0:0:
287,115,28557,1,10,3:2:0:0:
299,102,28677,1,0,3:0:0:0:
316,95,28797,1,2,3:2:0:0:
333,95,28917,1,0,3:0:0:0:
351,101,29037,22,0,P|389:126|429:118,1,72,2|2,3:2|0:0,0:0:0:0:
499,58,29517,1,8,0:0:0:0:
511,200,29757,2,0,P|475:201|447:223,1,72,2|0,0:0|3:0,0:0:0:0:
405,344,30237,1,2,0:0:0:0:
298,259,30477,1,10,0:0:0:0:
280,255,30597,1,0,0:0:0:0:
262,251,30717,1,2,0:0:0:0:
245,248,30837,1,0,0:0:0:0:
227,244,30957,38,0,L|219:180,1,62.9999980773926,0|2,3:2|0:0,0:0:0:0:
135,126,31437,2,0,L|127:188,1,62.9999980773926,10|2,0:0|0:0,0:0:0:0:
219,89,31917,1,0,3:0:0:0:
295,142,32157,2,0,L|344:127,1,31.4999990386963,2|0,3:2|3:0,0:0:0:0:
413,66,32397,1,10,3:2:0:0:
427,72,32517,1,0,3:0:0:0:
438,83,32637,1,2,3:2:0:0:
444,97,32757,1,0,3:0:0:0:
445,113,32877,38,0,L|460:181,1,62.9999980773926,2|2,3:2|0:0,0:0:0:0:
408,259,33357,2,0,P|363:259|348:235,1,62.9999980773926,8|2,0:0|0:0,0:0:0:0:
327,159,33837,1,2,3:2:0:0:
327,159,34077,1,2,0:0:0:0:
253,226,34317,2,0,L|187:213,1,62.9999980773926,8|2,0:0|0:0,0:0:0:0:
48,101,34797,22,0,P|85:101|114:185,1,125.999996154785,4|10,3:0|0:1,0:0:0:0:
50,277,35517,1,0,0:0:0:0:
6,199,35757,1,0,3:0:0:0:
99,199,35997,2,0,L|153:212,1,31.4999990386963,0|0,3:0|3:0,0:0:0:0:
204,270,36237,1,8,3:2:0:0:
219,265,36357,1,0,3:0:0:0:
234,261,36477,1,0,3:0:0:0:
249,257,36597,1,0,3:0:0:0:
264,253,36717,22,0,B|281:214|281:214|258:178,1,80.9999975280763,2|0,3:2|0:0,0:0:0:0:
131,38,37197,2,0,B|114:76|114:76|137:114,1,80.9999975280763,8|2,0:0|0:0,0:0:0:0:
330,25,37677,37,8,0:2:0:0:
371,14,37797,1,8,0:2:0:0:
413,3,37917,1,0,3:0:0:0:
323,187,38157,37,8,0:2:0:0:
282,176,38277,1,8,0:2:0:0:
240,165,38397,1,0,3:0:0:0:
502,159,38637,6,0,P|450:188|464:242,1,99.0000030212403,4|0,3:2|0:0,0:0:0:0:
405,348,38997,1,0,0:0:0:0:
384,328,39117,2,0,L|255:293,1,99.0000030212403,10|0,0:2|0:0,0:0:0:0:
200,212,39477,1,0,0:0:0:0:
217,191,39597,2,0,L|276:177,1,49.5000015106202,2|0,3:2|0:0,0:0:0:0:
363,88,39837,2,0,L|304:74,1,49.5000015106202,2|0,3:2|3:2,0:0:0:0:
162,57,40077,1,8,3:2:0:0:
187,72,40197,1,0,3:2:0:0:
201,114,40317,1,2,3:2:0:0:
184,171,40437,1,0,3:2:0:0:
111,185,40557,54,0,L|47:172,1,49.5000015106202,2|0,3:2|0:0,0:0:0:0:
162,286,40797,2,0,L|226:273,1,49.5000015106202,2|0,0:2|0:0,0:0:0:0:
279,180,41037,2,0,L|379:199,1,99.0000030212403,8|2,0:0|0:2,0:0:0:0:
484,260,41397,1,0,0:0:0:0:
484,260,41517,1,0,3:0:0:0:
423,134,41757,1,2,3:2:0:0:
339,286,41997,2,0,L|328:214,1,49.5000015106202,10|0,0:2|0:0,0:0:0:0:
377,158,42237,2,0,L|388:86,1,49.5000015106202,2|0,0:0|0:0,0:0:0:0:
323,38,42477,5,0,3:2:0:0:
240,148,42717,1,2,0:0:0:0:
119,71,42957,2,0,P|53:75|45:128,1,99.0000030212403,10|0,0:2|0:0,0:0:0:0:
25,203,43317,1,0,0:0:0:0:
44,222,43437,2,0,L|55:279,1,49.5000015106202,2|0,3:2|0:0,0:0:0:0:
149,331,43677,2,0,L|158:282,1,49.5000015106202,2|0,3:2|3:2,0:0:0:0:
236,218,43917,1,8,3:2:0:0:
256,239,44037,1,0,3:2:0:0:
300,245,44157,1,2,3:2:0:0:
351,214,44277,1,0,3:2:0:0:
353,139,44397,38,0,P|346:105|355:85,1,49.5000015106202,2|0,3:2|0:0,0:0:0:0:
473,55,44637,2,0,P|478:78|471:102,1,49.5000015106202,2|0,0:2|0:0,0:0:0:0:
288,174,44877,2,0,P|268:116|278:66,1,99.0000030212403,8|2,0:0|0:2,0:0:0:0:
334,20,45237,1,0,0:0:0:0:
334,20,45357,1,0,3:0:0:0:
440,106,45597,1,2,3:2:0:0:
365,205,45837,2,0,L|379:272,1,49.5000015106202,10|0,0:2|0:0,0:0:0:0:
469,321,46077,2,0,L|479:272,1,49.5000015106202,2|0,0:0|0:0,0:0:0:0:
344,340,46317,22,0,B|300:365|300:365|246:330,1,99.0000030212403,0|2,3:2|0:0,0:0:0:0:
199,254,46677,1,0,0:0:0:0:
211,227,46797,2,0,L|186:118,1,99.0000030212403,10|0,0:2|0:0,0:0:0:0:
135,36,47157,1,0,0:0:0:0:
104,25,47277,2,0,P|77:27|56:58,1,49.5000015106202,2|0,3:2|0:0,0:0:0:0:
7,155,47517,2,0,P|25:170|49:171,1,49.5000015106202,2|0,3:2|3:2,0:0:0:0:
163,114,47757,1,8,3:2:0:0:
192,108,47877,1,0,3:2:0:0:
232,125,47997,1,2,3:2:0:0:
251,180,48117,1,0,3:2:0:0:
212,243,48237,54,0,L|148:226,1,49.5000015106202,2|0,3:2|0:0,0:0:0:0:
257,339,48477,2,0,L|321:322,1,49.5000015106202,2|0,0:2|0:0,0:0:0:0:
395,259,48717,2,0,B|417:223|417:223|394:164,1,99.0000030212403,8|2,0:0|0:2,0:0:0:0:
302,88,49077,1,0,0:0:0:0:
302,88,49197,1,0,3:0:0:0:
404,55,49437,1,2,3:2:0:0:
263,171,49677,2,0,L|196:156,1,49.5000015106202,10|0,0:2|0:0,0:0:0:0:
154,82,49917,2,0,L|105:92,1,49.5000015106202,2|0,0:0|0:0,0:0:0:0:
0,155,50157,5,2,3:2:0:0:
30,46,50397,1,2,0:2:0:0:
92,168,50637,2,0,P|110:212|84:265,1,90,8|2,0:2|0:2,0:0:0:0:
24,319,51117,1,2,3:2:0:0:
112,378,51357,1,2,3:2:0:0:
182,304,51597,1,8,3:2:0:0:
203,296,51717,1,0,3:2:0:0:
224,288,51837,1,0,3:2:0:0:
245,281,51957,1,0,3:2:0:0:
265,272,52077,37,2,3:2:0:0:
68,208,52317,1,2,0:2:0:0:
309,160,52557,21,10,0:2:0:0:
139,312,52797,1,2,0:2:0:0:
148,78,53037,53,8,0:2:0:0:
159,119,53157,1,8,0:0:0:0:
170,160,53277,1,0,3:0:0:0:
346,352,53517,5,8,0:0:0:0:
357,311,53637,1,8,0:0:0:0:
368,270,53757,1,0,3:0:0:0:
43,306,53997,38,0,P|80:260|125:282,1,99.0000030212403,4|0,3:2|0:0,0:0:0:0:
226,178,54357,1,0,0:0:0:0:
209,203,54477,2,0,L|225:305,1,99.0000030212403,10|0,0:2|0:0,0:0:0:0:
355,360,54837,1,0,0:0:0:0:
338,335,54957,2,0,L|347:277,1,49.5000015106202,2|0,3:2|0:0,0:0:0:0:
442,192,55197,2,0,L|451:250,1,49.5000015106202,2|0,3:2|3:2,0:0:0:0:
319,69,55437,1,8,3:2:0:0:
344,84,55557,1,0,3:2:0:0:
358,126,55677,1,2,3:2:0:0:
341,183,55797,1,0,3:2:0:0:
268,197,55917,22,0,L|204:184,1,49.5000015106202,2|0,3:2|0:0,0:0:0:0:
291,63,56157,2,0,L|355:50,1,49.5000015106202,2|0,0:2|0:0,0:0:0:0:
464,90,56397,2,0,B|434:125|434:125|459:182,1,99.0000030212403,8|2,0:0|0:2,0:0:0:0:
507,244,56757,1,0,0:0:0:0:
507,244,56877,1,0,3:0:0:0:
320,244,57117,1,2,3:2:0:0:
427,364,57357,2,0,L|434:307,1,49.5000015106202,10|0,0:2|0:0,0:0:0:0:
398,230,57597,2,0,L|391:180,1,49.5000015106202,2|0,0:0|0:0,0:0:0:0:
441,82,57837,53,0,3:2:0:0:
333,38,58077,1,2,0:0:0:0:
254,120,58317,2,0,L|133:96,1,99.0000030212403,10|0,0:2|0:0,0:0:0:0:
27,213,58677,1,0,0:0:0:0:
46,194,58797,2,0,L|57:137,1,49.5000015106202,2|0,3:2|0:0,0:0:0:0:
163,253,59037,2,0,L|152:196,1,49.5000015106202,2|0,3:2|3:2,0:0:0:0:
195,12,59277,1,8,3:2:0:0:
170,27,59397,1,0,3:2:0:0:
156,69,59517,1,2,3:2:0:0:
173,126,59637,1,0,3:2:0:0:
246,140,59757,6,0,P|273:131|305:141,1,49.5000015106202,2|0,3:2|0:0,0:0:0:0:
296,281,59997,2,0,P|271:284|248:276,1,49.5000015106202,2|0,0:2|0:0,0:0:0:0:
376,186,60237,2,0,P|417:221|417:272,1,99.0000030212403,8|2,0:0|0:2,0:0:0:0:
364,339,60597,1,0,0:0:0:0:
364,339,60717,1,0,3:0:0:0:
280,216,60957,1,2,3:2:0:0:
208,339,61197,2,0,L|134:317,1,49.5000015106202,10|0,0:2|0:0,0:0:0:0:
37,230,61437,2,0,L|111:208,1,49.5000015106202,2|0,0:0|0:0,0:0:0:0:
169,81,61677,38,0,B|142:121|142:121|167:165,1,99.0000030212403,0|2,3:2|0:0,0:0:0:0:
285,260,62037,1,0,0:0:0:0:
268,238,62157,2,0,L|283:127,1,99.0000030212403,10|0,0:2|0:0,0:0:0:0:
371,44,62517,1,0,0:0:0:0:
392,59,62637,2,0,L|405:113,1,49.5000015106202,2|0,3:2|0:0,0:0:0:0:
501,202,62877,2,0,L|512:153,1,49.5000015106202,2|0,3:2|3:2,0:0:0:0:
352,247,63117,1,8,3:2:0:0:
377,232,63237,1,0,3:2:0:0:
391,190,63357,1,2,3:2:0:0:
368,131,63477,1,0,3:2:0:0:
297,119,63597,22,0,L|233:132,1,49.5000015106202,2|0,3:2|0:0,0:0:0:0:
127,54,63837,2,0,L|191:67,1,49.5000015106202,2|0,0:2|0:0,0:0:0:0:
198,196,64077,2,0,L|100:176,1,99.0000030212403,8|2,0:0|0:2,0:0:0:0:
19,231,64437,1,0,0:0:0:0:
19,231,64557,1,0,3:0:0:0:
76,332,64797,1,2,3:2:0:0:
183,301,65037,2,0,L|247:281,1,49.5000015106202,10|0,0:2|0:0,0:0:0:0:
304,202,65277,2,0,L|351:216,1,49.5000015106202,2|0,0:0|0:0,0:0:0:0:
425,298,65517,53,2,3:2:0:0:
494,211,65757,1,2,0:2:0:0:
410,141,65997,2,0,L|394:43,1,90,8|2,0:2|0:2,0:0:0:0:
273,71,66477,1,2,3:2:0:0:
331,163,66717,1,2,3:2:0:0:
245,241,66957,5,8,3:2:0:0:
215,230,67077,1,0,3:2:0:0:
185,219,67197,1,0,3:2:0:0:
156,208,67317,1,0,3:2:0:0:
126,196,67437,37,2,3:2:0:0:
73,366,67677,1,2,0:2:0:0:
46,143,67917,21,10,0:2:0:0:
154,297,68157,1,2,0:2:0:0:
179,96,68397,53,8,0:2:0:0:
221,85,68517,1,8,0:0:0:0:
263,74,68637,1,0,3:0:0:0:
121,273,68877,5,8,0:0:0:0:
79,262,68997,1,8,0:0:0:0:
38,251,69117,1,0,3:0:0:0:
274,324,69357,22,0,B|293:279|293:279|271:238,1,90,4|0,3:2|0:0,0:0:0:0:
133,159,69837,2,0,L|152:294,1,135,10|0,0:2|0:0,0:0:0:0:
174,322,70317,1,0,3:0:0:0:
275,212,70557,1,2,3:2:0:0:
403,318,70797,1,8,3:2:0:0:
405,286,70917,1,0,3:0:0:0:
408,255,71037,1,2,3:2:0:0:
411,223,71157,1,0,3:0:0:0:
413,192,71277,54,0,L|307:162,1,90,0|0,3:0|0:0,0:0:0:0:
191,57,71757,2,0,P|246:46|250:126,1,135,10|0,0:2|0:0,0:0:0:0:
242,138,72237,1,0,3:0:0:0:
162,211,72477,1,6,0:3:0:0:
236,288,72717,1,8,0:0:0:0:
315,215,72957,1,2,0:0:0:0:
140,223,73197,6,0,B|115:261|115:261|137:319,1,90,0|0,3:0|0:0,0:0:0:0:
286,358,73677,2,0,L|432:316,1,135,10|0,0:2|0:0,0:0:0:0:
450,326,74157,1,0,3:0:0:0:
376,214,74397,1,2,3:2:0:0:
486,129,74637,1,8,3:2:0:0:
472,100,74757,1,0,3:2:0:0:
446,83,74877,1,2,3:2:0:0:
415,80,74997,1,0,3:2:0:0:
387,92,75117,54,0,P|358:132|382:179,1,90,0|0,3:0|0:0,0:0:0:0:
473,301,75597,2,0,B|502:235|502:235|469:173,1,135,10|0,0:2|0:0,0:0:0:0:
451,164,76077,1,0,3:0:0:0:
367,232,76317,1,6,0:3:0:0:
280,167,76557,1,8,0:0:0:0:
196,235,76797,1,2,0:2:0:0:
115,162,77037,6,0,L|98:67,1,90,0|0,3:2|0:0,0:0:0:0:
244,11,77517,2,0,B|290:45|290:45|266:128,1,135,10|0,0:2|0:0,0:0:0:0:
247,150,77997,1,0,3:0:0:0:
330,244,78237,1,2,3:2:0:0:
246,340,78477,1,8,3:2:0:0:
215,332,78597,1,0,3:2:0:0:
184,325,78717,1,2,3:2:0:0:
154,318,78837,1,0,3:2:0:0:
123,311,78957,54,0,P|101:254|131:216,1,90,0|0,3:0|0:0,0:0:0:0:
229,128,79437,2,0,P|172:159|118:96,1,135,10|0,0:2|0:0,0:0:0:0:
125,90,79917,1,0,3:0:0:0:
23,127,80157,1,6,0:3:0:0:
55,229,80397,1,8,0:0:0:0:
158,198,80637,1,2,0:0:0:0:
131,68,80877,6,0,L|41:45,1,90,0|0,3:0|0:0,0:0:0:0:
172,211,81357,2,0,L|327:162,1,135,10|0,0:2|0:0,0:0:0:0:
332,189,81837,1,0,3:0:0:0:
414,97,82077,1,2,3:2:0:0:
507,179,82317,1,8,3:2:0:0:
503,210,82437,1,0,3:2:0:0:
500,241,82557,1,2,3:2:0:0:
496,272,82677,1,0,3:2:0:0:
493,304,82797,54,0,B|454:330|454:330|407:302,1,90
361,209,83277,2,0,B|316:191|316:191|284:219,1,90,8|2,0:0|0:3,0:0:0:0:
223,299,83757,1,0,0:0:0:0:
287,368,83997,2,0,L|367:352,2,72,2|0|2,0:2|0:0|0:0,0:0:0:0:
198,293,84717,5,0,3:0:0:0:
103,374,84957,1,0,0:0:0:0:
13,292,85197,2,0,L|1:214,1,72,8|2,0:2|0:2,0:0:0:0:
77,133,85677,1,2,3:2:0:0:
168,208,85917,2,0,L|224:194,1,36,2|0,3:2|3:2,0:0:0:0:
266,56,86157,1,10,3:2:0:0:
244,59,86277,1,0,3:2:0:0:
227,72,86397,1,2,3:2:0:0:
218,91,86517,1,0,3:2:0:0:
218,112,86637,22,0,L|308:133,1,72,2|2,3:2|0:2,0:0:0:0:
395,171,87117,1,8,0:2:0:0:
439,68,87357,2,0,L|349:89,1,72,2|0,0:2|3:0,0:0:0:0:
299,168,87837,1,2,0:2:0:0:
396,261,88077,1,10,0:2:0:0:
399,244,88197,1,0,0:0:0:0:
402,226,88317,1,2,0:2:0:0:
404,208,88437,1,0,0:0:0:0:
407,190,88557,37,0,3:0:0:0:
300,264,88797,1,2,0:2:0:0:
383,363,89037,2,0,L|469:350,1,72,10|2,0:2|0:2,0:0:0:0:
507,245,89517,1,2,3:2:0:0:
426,160,89757,2,0,L|383:153,1,36,2|0,3:2|3:2,0:0:0:0:
323,63,89997,1,10,3:2:0:0:
303,70,90117,1,0,3:2:0:0:
288,86,90237,1,2,3:2:0:0:
281,106,90357,1,0,3:2:0:0:
284,127,90477,6,0,L|269:220,1,72,2|2,3:2|0:0,0:0:0:0:
98,143,90957,1,8,0:2:0:0:
169,70,91197,2,0,L|184:163,1,72,2|0,0:0|3:0,0:0:0:0:
103,263,91677,1,2,0:2:0:0:
2,145,91917,1,10,0:2:0:0:
17,130,92037,1,0,0:0:0:0:
37,122,92157,1,2,0:2:0:0:
59,121,92277,1,0,0:0:0:0:
79,129,92397,53,0,3:0:0:0:
5,247,92637,1,2,0:2:0:0:
118,337,92877,2,0,L|206:310,1,72,10|2,0:2|0:2,0:0:0:0:
285,257,93357,1,2,3:2:0:0:
218,175,93597,2,0,L|174:161,1,36,2|0,3:2|3:2,0:0:0:0:
27,94,93837,1,10,3:2:0:0:
43,107,93957,1,0,3:2:0:0:
54,126,94077,1,2,3:2:0:0:
57,147,94197,1,0,3:2:0:0:
53,168,94317,22,0,P|98:141|144:155,1,72,2|2,3:2|0:2,0:0:0:0:
212,215,94797,1,8,0:2:0:0:
293,121,95037,1,2,0:2:0:0:
399,194,95277,2,0,L|415:96,1,72,2|2,3:2|0:2,0:0:0:0:
299,39,95757,1,8,0:2:0:0:
278,33,95877,1,0,0:0:0:0:
257,38,95997,1,2,0:0:0:0:
240,51,96117,1,0,0:0:0:0:
231,70,96237,38,0,B|190:109|190:109|227:189,1,144,0|10,3:0|0:1,0:0:0:0:
314,251,96957,1,0,0:0:0:0:
240,349,97197,1,0,3:0:0:0:
142,293,97437,2,0,L|130:248,1,36,0|0,3:2|3:2,0:0:0:0:
148,145,97677,1,8,3:2:0:0:
126,141,97797,1,0,3:2:0:0:
105,137,97917,1,0,3:2:0:0:
84,133,98037,1,0,3:2:0:0:
62,130,98157,6,0,L|48:216,1,72,2|0,3:1|0:0,0:0:0:0:
235,95,98637,1,8,0:2:0:0:
144,48,98877,2,0,L|158:134,1,72,2|0,0:1|3:0,0:0:0:0:
279,203,99357,1,6,0:3:0:0:
311,129,99597,2,0,P|266:115|231:147,1,72,8|2,0:2|0:3,0:0:0:0:
169,203,100077,53,0,3:0:0:0:
144,304,100317,1,2,0:2:0:0:
241,357,100557,2,0,B|281:363|281:363|317:333,1,72,10|2,0:2|0:2,0:0:0:0:
341,239,101037,1,2,3:2:0:0:
456,260,101277,2,0,L|447:306,1,36,2|0,3:2|3:2,0:0:0:0:
324,222,101517,1,10,3:2:0:0:
320,200,101637,1,0,3:2:0:0:
317,179,101757,1,2,3:2:0:0:
314,157,101877,1,0,3:2:0:0:
310,136,101997,22,0,L|318:49,1,72,2|2,3:2|0:2,0:0:0:0:
169,165,102477,1,8,0:2:0:0:
123,90,102717,2,0,P|167:74|196:89,1,72,2|0,0:2|3:0,0:0:0:0:
260,189,103197,1,2,0:2:0:0:
182,283,103437,1,10,0:2:0:0:
160,278,103557,1,0,0:0:0:0:
139,273,103677,1,2,0:2:0:0:
118,268,103797,1,0,0:0:0:0:
97,264,103917,37,0,3:0:0:0:
20,153,104157,1,2,0:2:0:0:
111,56,104397,2,0,L|130:135,1,72,10|2,0:2|0:2,0:0:0:0:
236,185,104877,1,2,3:2:0:0:
295,82,105117,2,0,L|345:70,1,36,2|0,3:2|3:2,0:0:0:0:
445,130,105357,1,10,3:2:0:0:
458,147,105477,1,0,3:2:0:0:
463,167,105597,1,2,3:2:0:0:
459,188,105717,1,0,3:2:0:0:
448,206,105837,6,0,B|429:240|429:240|450:282,1,72,2|2,3:2|0:2,0:0:0:0:
369,336,106317,1,8,0:2:0:0:
322,173,106557,2,0,B|341:207|341:207|320:249,1,72,2|0,0:2|3:0,0:0:0:0:
230,301,107037,1,2,0:2:0:0:
138,218,107277,1,10,0:2:0:0:
116,213,107397,1,0,0:0:0:0:
95,208,107517,1,2,0:2:0:0:
74,203,107637,1,0,0:0:0:0:
53,196,107757,54,0,L|37:109,1,62.9999980773926,0|0,3:0|0:0,0:0:0:0:
143,75,108237,2,0,L|131:136,1,62.9999980773926,8|0,0:2|0:0,0:0:0:0:
176,210,108717,1,0,3:0:0:0:
238,152,108957,2,0,L|290:140,1,31.4999990386963,0|0,3:0|3:0,0:0:0:0:
341,205,109197,1,8,3:2:0:0:
359,209,109317,1,0,3:0:0:0:
377,214,109437,1,0,3:0:0:0:
395,219,109557,1,0,3:0:0:0:
414,223,109677,22,0,L|402:304,1,62.9999980773926,0|0,3:0|0:0,0:0:0:0:
324,333,110157,2,0,P|285:313|255:323,1,62.9999980773926,8|0,0:2|0:0,0:0:0:0:
187,368,110637,1,0,3:0:0:0:
187,368,110877,1,6,0:3:0:0:
105,306,111117,2,0,L|93:241,1,62.9999980773926,8|0,0:2|0:0,0:0:0:0:
21,153,111597,38,0,P|25:196|112:203,1,125.999996154785,0|8,3:0|0:2,0:0:0:0:
141,144,112317,1,0,0:0:0:0:
225,143,112557,1,0,3:0:0:0:
180,227,112797,2,0,L|189:277,1,31.4999990386963,0|0,3:2|3:2,0:0:0:0:
265,326,113037,1,8,3:2:0:0:
276,311,113157,1,0,3:2:0:0:
291,299,113277,1,0,3:2:0:0:
309,293,113397,1,0,3:2:0:0:
328,291,113517,6,0,B|335:261|335:261|323:240|323:240|327:214,1,80.9999975280763,2|0,3:2|0:0,0:0:0:0:
474,107,113997,2,0,B|478:133|478:133|466:154|466:154|473:184,1,80.9999975280763,8|2,0:2|3:2,0:0:0:0:
492,336,114477,53,8,0:0:0:0:
451,325,114597,1,8,0:0:0:0:
409,314,114717,1,0,3:0:0:0:
292,187,114957,21,8,0:0:0:0:
333,176,115077,1,8,0:0:0:0:
375,165,115197,1,0,3:0:0:0:
209,351,115437,6,0,B|185:303|185:303|212:262,1,99.0000030212403,4|0,3:2|0:0,0:0:0:0:
249,103,115797,1,0,0:0:0:0:
228,123,115917,2,0,L|99:158,1,99.0000030212403,10|0,0:2|0:0,0:0:0:0:
13,230,116277,1,0,0:0:0:0:
30,251,116397,2,0,L|89:265,1,49.5000015106202,2|0,3:2|0:0,0:0:0:0:
160,347,116637,2,0,L|111:358,1,49.5000015106202,2|0,3:2|3:2,0:0:0:0:
224,168,116877,1,8,3:2:0:0:
199,183,116997,1,0,3:2:0:0:
185,225,117117,1,2,3:2:0:0:
202,282,117237,1,0,3:2:0:0:
275,296,117357,54,0,P|284:264|277:239,1,49.5000015106202,2|0,3:2|0:0,0:0:0:0:
113,214,117597,2,0,P|110:238|119:261,1,49.5000015106202,2|0,0:2|0:0,0:0:0:0:
237,130,117837,2,0,L|352:102,1,99.0000030212403,8|2,0:0|0:2,0:0:0:0:
401,162,118197,1,0,0:0:0:0:
401,162,118317,1,0,3:0:0:0:
459,35,118557,1,2,3:2:0:0:
512,146,118797,2,0,L|499:207,1,49.5000015106202,10|0,0:2|0:0,0:0:0:0:
431,235,119037,2,0,L|444:296,1,49.5000015106202,2|0,0:0|0:0,0:0:0:0:
506,339,119277,5,0,3:2:0:0:
405,384,119517,1,2,0:0:0:0:
346,299,119757,2,0,P|297:284|254:317,1,99.0000030212403,10|0,0:2|0:0,0:0:0:0:
128,212,120117,1,0,0:0:0:0:
147,231,120237,2,0,L|158:288,1,49.5000015106202,2|0,3:2|0:0,0:0:0:0:
253,166,120477,2,0,L|242:223,1,49.5000015106202,2|0,3:2|3:2,0:0:0:0:
137,132,120717,1,8,3:2:0:0:
108,138,120837,1,0,3:2:0:0:
68,121,120957,1,2,3:2:0:0:
49,66,121077,1,0,3:2:0:0:
88,2,121197,38,0,L|152:19,1,49.5000015106202,2|0,3:2|0:0,0:0:0:0:
206,88,121437,2,0,L|270:71,1,49.5000015106202,2|0,0:2|0:0,0:0:0:0:
396,5,121677,2,0,P|350:43|371:98,1,99.0000030212403,8|2,0:0|0:2,0:0:0:0:
426,135,122037,1,0,0:0:0:0:
426,135,122157,1,0,3:0:0:0:
496,222,122397,1,2,3:2:0:0:
404,298,122637,2,0,L|343:279,1,49.5000015106202,10|0,0:2|0:0,0:0:0:0:
295,217,122877,2,0,L|247:231,1,49.5000015106202,2|0,0:0|0:0,0:0:0:0:
162,293,123117,22,0,B|137:247|137:247|157:203,1,99.0000030212403,0|2,3:2|0:0,0:0:0:0:
46,69,123477,1,0,0:0:0:0:
58,96,123597,2,0,L|33:205,1,99.0000030212403,10|0,0:2|0:0,0:0:0:0:
132,306,123957,1,0,0:0:0:0:
144,279,124077,2,0,L|129:215,1,49.5000015106202,2|0,3:2|0:0,0:0:0:0:
236,131,124317,2,0,L|224:179,1,49.5000015106202,2|0,3:2|3:2,0:0:0:0:
314,296,124557,1,8,3:2:0:0:
343,302,124677,1,0,3:2:0:0:
383,285,124797,1,2,3:2:0:0:
402,230,124917,1,0,3:2:0:0:
363,167,125037,54,0,P|333:167|303:191,1,49.5000015106202,2|0,3:2|0:0,0:0:0:0:
238,254,125277,2,0,P|208:254|178:230,1,49.5000015106202,2|0,0:2|0:0,0:0:0:0:
108,168,125517,2,0,L|91:52,1,99.0000030212403,8|2,0:0|0:2,0:0:0:0:
145,8,125877,1,0,0:0:0:0:
145,8,125997,1,0,3:0:0:0:
217,103,126237,1,2,3:2:0:0:
308,17,126477,2,0,L|365:1,1,49.5000015106202,10|0,0:2|0:0,0:0:0:0:
453,104,126717,2,0,L|405:90,1,49.5000015106202,2|0,0:0|0:0,0:0:0:0:
305,137,126957,5,2,3:2:0:0:
394,213,127197,1,2,0:2:0:0:
312,289,127437,2,0,B|270:314|270:314|231:289,1,90,8|2,0:2|0:2,0:0:0:0:
200,190,127917,1,2,3:2:0:0:
93,162,128157,1,2,3:2:0:0:
21,245,128397,1,8,3:2:0:0:
25,266,128517,1,0,3:2:0:0:
30,288,128637,1,0,3:2:0:0:
35,310,128757,1,0,3:2:0:0:
40,332,128877,37,2,3:2:0:0:
235,271,129117,1,2,0:2:0:0:
6,206,129357,21,10,0:2:0:0:
155,354,129597,1,2,0:2:0:0:
177,123,129837,53,8,0:2:0:0:
135,134,129957,1,8,0:0:0:0:
94,145,130077,1,0,3:0:0:0:
268,283,130317,5,8,0:0:0:0:
310,294,130437,1,8,0:0:0:0:
351,305,130557,1,0,3:0:0:0:
304,50,130797,38,0,P|255:77|264:129,1,99.0000030212403,4|0,3:2|0:0,0:0:0:0:
168,219,131157,1,0,0:0:0:0:
146,199,131277,2,0,B|98:176|98:176|56:207,1,99.0000030212403,10|0,0:2|0:0,0:0:0:0:
39,321,131637,1,0,0:0:0:0:
56,342,131757,2,0,L|115:356,1,49.5000015106202,2|0,3:2|0:0,0:0:0:0:
230,261,131997,2,0,L|181:272,1,49.5000015106202,2|0,3:2|3:2,0:0:0:0:
52,146,132237,1,8,3:2:0:0:
74,128,132357,1,0,3:2:0:0:
118,128,132477,1,2,3:2:0:0:
166,163,132597,1,0,3:2:0:0:
156,236,132717,22,0,P|145:261|152:298,1,49.5000015106202,2|0,3:2|0:0,0:0:0:0:
299,351,132957,2,0,P|299:326|288:304,1,49.5000015106202,2|0,0:2|0:0,0:0:0:0:
256,187,133197,2,0,B|290:156|290:156|347:180,1,99.0000030212403,8|2,0:0|0:2,0:0:0:0:
394,248,133557,1,0,0:0:0:0:
394,248,133677,1,0,3:0:0:0:
485,156,133917,1,2,3:2:0:0:
405,59,134157,2,0,L|339:74,1,49.5000015106202,10|0,0:2|0:0,0:0:0:0:
289,137,134397,2,0,L|240:126,1,49.5000015106202,2|0,0:0|0:0,0:0:0:0:
181,40,134637,53,0,3:2:0:0:
107,147,134877,1,2,0:0:0:0:
17,44,135117,2,0,L|-2:150,1,99.0000030212403,10|0,0:2|0:0,0:0:0:0:
116,251,135477,1,0,0:0:0:0:
97,232,135597,2,0,L|86:175,1,49.5000015106202,2|0,3:2|0:0,0:0:0:0:
208,93,135837,2,0,L|198:141,1,49.5000015106202,2|0,3:2|3:2,0:0:0:0:
263,251,136077,1,8,3:2:0:0:
285,269,136197,1,0,3:2:0:0:
329,269,136317,1,2,3:2:0:0:
377,234,136437,1,0,3:2:0:0:
367,161,136557,6,0,L|358:98,1,49.5000015106202,2|0,3:2|0:0,0:0:0:0:
492,47,136797,2,0,L|484:96,1,49.5000015106202,2|0,0:2|0:0,0:0:0:0:
507,223,137037,2,0,P|455:204|414:238,1,99.0000030212403,8|2,0:0|0:2,0:0:0:0:
411,305,137397,1,0,0:0:0:0:
411,305,137517,1,0,3:0:0:0:
315,379,137757,1,2,3:2:0:0:
221,301,137997,2,0,L|209:241,1,49.5000015106202,10|0,0:2|0:0,0:0:0:0:
335,186,138237,2,0,L|325:234,1,49.5000015106202,2|0,0:0|0:0,0:0:0:0:
220,123,138477,38,0,L|95:96,1,99.0000030212403,0|2,3:2|0:0,0:0:0:0:
8,221,138837,1,0,0:0:0:0:
27,193,138957,2,0,P|87:198|108:249,1,99.0000030212403,10|0,0:2|0:0,0:0:0:0:
223,300,139317,1,0,0:0:0:0:
244,285,139437,2,0,P|249:257|244:237,1,49.5000015106202,2|0,3:2|0:0,0:0:0:0:
176,130,139677,2,0,P|170:154|175:178,1,49.5000015106202,2|0,3:2|3:2,0:0:0:0:
293,16,139917,1,8,3:2:0:0:
318,31,140037,1,0,3:2:0:0:
332,73,140157,1,2,3:2:0:0:
309,132,140277,1,0,3:2:0:0:
237,145,140397,22,0,L|173:132,1,49.5000015106202,2|0,3:2|0:0,0:0:0:0:
139,31,140637,2,0,L|203:18,1,49.5000015106202,2|0,0:2|0:0,0:0:0:0:
49,107,140877,2,0,B|19:142|19:142|46:197,1,99.0000030212403,8|2,0:0|0:2,0:0:0:0:
115,239,141237,1,0,0:0:0:0:
115,239,141357,1,0,3:0:0:0:
211,161,141597,1,2,3:2:0:0:
291,249,141837,2,0,L|356:232,1,49.5000015106202,10|0,0:2|0:0,0:0:0:0:
382,150,142077,2,0,L|429:162,1,49.5000015106202,2|0,0:0|0:0,0:0:0:0:
499,231,142317,53,2,3:2:0:0:
424,326,142557,1,2,0:2:0:0:
323,267,142797,2,0,L|222:245,1,90,8|2,0:2|0:2,0:0:0:0:
124,315,143277,1,2,3:2:0:0:
36,231,143517,1,2,3:2:0:0:
106,139,143757,1,8,3:2:0:0:
109,116,143877,1,0,3:2:0:0:
112,94,143997,1,0,3:2:0:0:
116,72,144117,1,0,3:2:0:0:
118,50,144237,5,2,3:2:0:0:
207,238,144477,1,2,0:2:0:0:
236,16,144717,37,10,0:2:0:0:
95,184,144957,1,2,0:2:0:0:
295,240,145197,21,8,0:2:0:0:
253,228,145317,1,8,0:0:0:0:
211,217,145437,1,0,3:0:0:0:
321,31,145677,53,8,0:0:0:0:
362,20,145797,1,8,0:0:0:0:
404,9,145917,1,0,3:0:0:0:
422,252,146157,54,0,L|439:143,1,90,4|0,3:2|0:0,0:0:0:0:
329,69,146637,2,0,B|291:67|267:37|267:37|255:71|224:82,1,135,10|0,0:2|0:0,0:0:0:0:
192,74,147117,1,0,3:0:0:0:
79,6,147357,1,2,3:2:0:0:
0,134,147597,1,8,3:2:0:0:
5,157,147717,1,0,3:0:0:0:
12,182,147837,1,2,3:2:0:0:
18,207,147957,1,0,3:0:0:0:
25,232,148077,6,0,L|147:193,1,90,0|0,3:0|0:0,0:0:0:0:
211,54,148557,2,0,P|154:75|173:139,1,135,10|0,0:2|0:0,0:0:0:0:
202,148,149037,1,0,3:0:0:0:
275,227,149277,1,6,0:3:0:0:
196,314,149517,1,8,0:0:0:0:
118,230,149757,1,2,0:3:0:0:
298,237,149997,54,0,L|387:218,1,90,0|0,3:2|0:0,0:0:0:0:
452,27,150477,2,0,B|416:65|416:65|454:153,1,135,10|0,0:2|0:0,0:0:0:0:
484,156,150957,1,0,3:0:0:0:
401,243,151197,1,2,3:2:0:0:
488,340,151437,1,8,3:2:0:0:
458,362,151557,1,0,3:0:0:0:
421,369,151677,1,2,3:2:0:0:
385,357,151797,1,0,3:0:0:0:
359,330,151917,6,0,B|340:285|340:285|368:247,1,90,0|0,3:0|0:0,0:0:0:0:
406,124,152397,2,0,P|344:173|291:131,1,135,10|0,0:2|0:0,0:0:0:0:
290,119,152877,1,0,3:0:0:0:
193,56,153117,1,6,0:3:0:0:
134,172,153357,1,8,0:0:0:0:
35,99,153597,1,2,0:3:0:0:
0,217,153837,54,0,L|23:318,1,90,0|0,3:2|0:0,0:0:0:0:
136,345,154317,2,0,B|169:333|181:299|181:299|205:329|243:331,1,135,10|0,0:2|0:0,0:0:0:0:
270,315,154797,1,0,3:0:0:0:
358,216,155037,1,2,3:2:0:0:
473,303,155277,1,8,3:2:0:0:
481,264,155397,1,0,3:0:0:0:
487,227,155517,1,2,3:2:0:0:
494,190,155637,1,0,3:0:0:0:
500,153,155757,6,0,P|451:128|408:149,1,90,0|0,3:0|0:0,0:0:0:0:
300,79,156237,2,0,L|321:225,1,135,10|0,0:2|0:0,0:0:0:0:
307,245,156717,1,0,3:0:0:0:
201,321,156957,1,6,0:3:0:0:
120,214,157197,1,8,0:0:0:0:
225,138,157437,1,2,0:3:0:0:
98,219,157677,54,0,L|8:194,1,90,0|0,3:2|0:0,0:0:0:0:
105,49,158157,2,0,P|167:46|182:138,1,135,10|0,0:2|0:0,0:0:0:0:
182,134,158637,1,0,3:0:0:0:
282,217,158877,1,2,3:2:0:0:
351,103,159117,1,8,3:2:0:0:
384,87,159237,1,0,3:0:0:0:
422,88,159357,1,2,3:2:0:0:
454,107,159477,1,0,3:0:0:0:
474,138,159597,6,0,L|453:236,1,90,0|0,3:0|0:0,0:0:0:0:
270,191,160077,2,0,P|338:181|375:250,1,135,10|0,0:2|0:0,0:0:0:0:
364,266,160557,1,0,3:0:0:0:
290,349,160797,1,6,0:3:0:0:
194,267,161037,1,8,0:0:0:0:
116,357,161277,1,2,0:3:0:0:
32,286,161517,54,0,L|18:225,1,45,4|0,3:2|0:0,0:0:0:0:
65,172,161757,1,0,0:0:0:0:
177,241,161997,2,0,B|211:184|211:184|179:111,1,135,10|0,0:2|0:0,0:0:0:0:
34,49,162477,2,0,B|6:111|6:111|40:168,1,135,2|0,3:2|3:0,0:0:0:0:
144,37,162957,1,8,3:2:0:0:
144,37,163197,1,2,3:2:0:0:
223,108,163437,6,0,L|287:88,1,45,0|0,3:0|0:0,0:0:0:0:
344,133,163677,1,0,0:0:0:0:
421,61,163917,53,10,0:2:0:0:
455,159,164157,1,0,0:0:0:0:
504,18,164397,5,2,3:2:0:0:
435,147,164637,1,6,0:3:0:0:
331,39,164877,53,10,0:0:0:0:
376,213,165117,1,2,0:3:0:0:
494,49,165357,6,0,L|437:67,1,45,0|0,3:2|0:0,0:0:0:0:
397,124,165597,1,0,0:0:0:0:
470,274,165837,2,0,B|468:236|502:215|502:215|478:182|493:139,1,135,10|0,0:2|0:0,0:0:0:0:
321,88,166317,2,0,B|331:116|307:149|307:149|341:170|340:208,1,135,2|0,3:2|3:0,0:0:0:0:
292,297,166797,1,8,3:2:0:0:
292,297,167037,1,2,3:2:0:0:
203,348,167277,54,0,L|141:333,1,45,0|0,3:0|0:0,0:0:0:0:
74,366,167517,1,0,0:0:0:0:
22,282,167757,5,10,0:2:0:0:
126,233,167997,1,0,0:0:0:0:
3,153,168237,53,2,3:2:0:0:
145,209,168477,1,6,0:3:0:0:
44,292,168717,5,10,0:0:0:0:
101,122,168957,1,2,0:3:0:0:
192,301,169197,54,0,L|245:284,1,45,0|0,3:2|0:0,0:0:0:0:
317,328,169437,1,0,0:0:0:0:
385,159,169677,2,0,P|337:166|318:253,1,135,10|0,0:2|0:0,0:0:0:0:
276,338,170157,2,0,P|214:319|202:256,1,135,2|0,3:2|3:0,0:0:0:0:
232,169,170637,1,8,3:2:0:0:
232,169,170877,1,2,3:2:0:0:
163,100,171117,6,0,L|101:122,1,45,0|0,3:0|0:0,0:0:0:0:
61,192,171357,1,0,0:0:0:0:
150,270,171597,53,10,0:2:0:0:
47,211,171837,1,0,0:0:0:0:
199,170,172077,5,2,3:2:0:0:
39,230,172317,1,6,0:3:0:0:
57,84,172557,53,10,0:0:0:0:
145,244,172797,1,2,0:3:0:0:
177,65,173037,6,0,L|241:41,1,45,0|0,3:2|0:0,0:0:0:0:
298,100,173277,1,0,0:0:0:0:
363,19,173517,2,0,P|417:11|466:82,1,135,10|0,0:2|0:0,0:0:0:0:
490,164,173997,2,0,P|436:156|387:227,1,135,2|0,3:2|3:0,0:0:0:0:
425,301,174477,1,8,3:2:0:0:
425,301,174717,1,2,3:2:0:0:
345,358,174957,54,0,L|279:335,1,45,0|0,3:0|0:0,0:0:0:0:
219,367,175197,1,0,0:0:0:0:
206,232,175437,5,10,0:0:0:0:
359,177,175677,1,0,0:0:0:0:
213,65,175917,53,8,0:0:0:0:
224,106,176037,1,8,0:0:0:0:
235,147,176157,1,0,3:0:0:0:
367,281,176397,5,8,0:0:0:0:
378,240,176517,1,8,0:0:0:0:
389,199,176637,1,0,3:0:0:0:
209,263,176877,53,2,0:0:0:0:
256,192,176997,12,0,180717,0:0:0:0:
