osu file format v14

[General]
AudioFilename: audio.mp3
AudioLeadIn: 0
PreviewTime: 151410
Countdown: 0
SampleSet: Soft
StackLeniency: 0.5
Mode: 0
LetterboxInBreaks: 0
WidescreenStoryboard: 0

[Editor]
Bookmarks: 242,1800,26735,51670,76605,101540,126475,151410,163878,198164,199722,204787
DistanceSpacing: 1.2
BeatDivisor: 3
GridSize: 32
TimelineZoom: 2.2

[Metadata]
Title:California
TitleUnicode:California
Artist:Ricky Montgomery
ArtistUnicode:Ricky Montgomery
Creator:eiri-
Version:Dream
Source:osu!
Tags:Ayyri Trynna Featured Artist FA Mappers' Guild English Rock
BeatmapID:2270844
BeatmapSetID:1085943

[Difficulty]
HPDrainRate:6
CircleSize:5
OverallDifficulty:8.5
ApproachRate:9
SliderMultiplier:1.4
SliderTickRate:1

[Events]
//Background and Video events
0,0,"California.jpg",0,0
//Break Periods
//Storyboard Layer 0 (Background)
//Storyboard Layer 1 (Fail)
//Storyboard Layer 2 (Pass)
//Storyboard Layer 3 (Foreground)
//Storyboard Layer 4 (Overlay)
//Storyboard Sound Samples

[TimingPoints]
242,389.61038961039,4,2,1,30,1,0
631,-100,4,2,1,40,0,0
1021,-100,4,2,1,50,0,0
1410,-100,4,2,1,60,0,0
1800,-100,4,2,1,70,0,0
26735,-66.6666666666667,4,2,1,90,0,1
51670,-100,4,2,1,70,0,0
76605,-66.6666666666667,4,2,1,90,0,1
101540,-80,4,2,1,75,0,0
126475,-76.9230769230769,4,2,1,70,0,0
138943,-71.4285714285714,4,2,1,80,0,0
151410,-100,4,2,1,50,0,0
160761,-100,4,2,1,75,0,0
162319,-100,4,2,1,60,0,0
162709,-100,4,2,1,70,0,0
163099,-100,4,2,1,80,0,0
163488,-100,4,2,1,85,0,0
163878,-66.6666666666667,4,2,1,90,0,1
198164,-66.6666666666667,4,2,1,80,0,0
199332,-66.6666666666667,4,2,1,60,0,0
199722,-66.6666666666667,4,2,1,80,0,0
200501,-66.6666666666667,4,2,1,70,0,0
201280,-66.6666666666667,4,2,1,60,0,0
202060,-66.6666666666667,4,2,1,50,0,0
202839,-66.6666666666667,4,2,1,40,0,0
203618,-66.6666666666667,4,2,1,30,0,0
204397,-66.6666666666667,4,2,1,20,0,0
204787,-66.6666666666667,4,2,1,10,0,0

[Colours]
Combo1 : 189,206,215
Combo2 : 221,198,183
Combo3 : 239,165,165
Combo4 : 210,218,186

[HitObjects]
288,256,242,5,10,1:2:0:0:
320,270,371,1,0,1:0:0:0:
358,243,501,1,0,1:0:0:0:
346,152,631,5,10,1:2:0:0:
314,138,760,1,0,1:0:0:0:
276,165,890,1,0,1:0:0:0:
398,234,1021,5,10,1:2:0:0:
430,247,1151,1,0,1:0:0:0:
478,276,1281,1,0,1:0:0:0:
478,276,1411,1,10,1:2:0:0:
478,276,1541,1,0,1:0:0:0:
478,276,1670,1,0,1:0:0:0:
456,317,1800,6,0,P|464:230|482:152,1,140,14|2,0:0|1:2,0:0:0:0:
438,61,2449,1,8,0:0:0:0:
438,61,2579,2,0,L|336:79,1,93.3333333333333,2|8,0:0|0:0,0:0:0:0:
251,26,2969,2,0,L|149:8,1,93.3333333333333,2|0,1:2|0:0,0:0:0:0:
32,64,3358,5,10,0:0:0:0:
48,48,3748,2,0,P|65:106|70:175,1,93.3333333333333,2|8,1:2|0:0,0:0:0:0:
141,209,4138,2,0,P|124:267|119:336,1,93.3333333333333,2|0,0:0|0:0,0:0:0:0:
146,363,4527,1,2,1:2:0:0:
161,336,4917,6,0,P|130:279|38:276,1,140,10|0,0:0|1:0,0:0:0:0:
184,207,5566,1,8,0:0:0:0:
184,207,5696,2,0,L|167:96,1,93.3333333333333,2|8,0:0|0:0,0:0:0:0:
206,24,6086,2,0,P|264:50|262:99,1,93.3333333333333,2|0,1:2|0:0,0:0:0:0:
347,187,6475,6,0,P|380:123|466:61,1,140,10|0,0:0|1:0,0:0:0:0:
471,243,7125,1,8,0:0:0:0:
471,243,7254,2,0,L|365:216,1,93.3333333333333,2|8,0:0|0:0,0:0:0:0:
417,328,7644,1,2,1:2:0:0:
429,304,8034,6,0,L|273:330,1,140,10|0,0:0|1:0,0:0:0:0:
198,242,8683,1,8,0:0:0:0:
198,242,8813,2,0,P|249:274|258:312,1,93.3333333333333,2|8,0:0|0:0,0:0:0:0:
100,230,9203,2,0,P|112:171|145:149,1,93.3333333333333,2|0,1:2|0:0,0:0:0:0:
180,364,9592,6,0,P|127:324|39:344,1,140,10|2,0:0|1:2,0:0:0:0:
155,356,10242,1,8,0:0:0:0:
155,356,10631,1,8,0:0:0:0:
279,289,10761,2,0,L|398:326,1,93.3333333333333,2|0,1:2|0:0,0:0:0:0:
426,161,11151,6,0,L|357:236,1,93.3333333333333,10|0,0:0|0:0,0:0:0:0:
350,26,11540,2,0,L|362:130,1,93.3333333333333,2|8,1:2|0:0,0:0:0:0:
238,46,11930,2,0,L|249:-36,2,46.6666666666667,2|0|8,0:0|0:0|0:0,0:0:0:0:
221,192,12319,1,2,1:2:0:0:
238,166,12709,6,0,P|189:130|102:126,1,140,10|0,0:0|1:0,0:0:0:0:
138,299,13358,1,8,0:0:0:0:
138,299,13488,2,0,L|46:264,1,93.3333333333333,2|0,0:0|0:0,0:0:0:0:
221,253,13878,2,0,L|209:375,1,93.3333333333333,6|0,1:2|0:0,0:0:0:0:
227,371,14267,6,0,L|197:191,1,140,10|0,0:0|1:0,0:0:0:0:
223,117,14917,1,8,0:0:0:0:
265,133,15047,2,0,P|336:94|345:51,1,93.3333333333333,2|8,0:0|0:0,0:0:0:0:
322,0,15436,6,0,P|343:62|428:73,1,140,2|10,1:2|0:0,0:0:0:0:
409,80,16216,1,2,1:2:0:0:
243,33,16475,1,8,0:0:0:0:
243,33,16605,2,0,L|122:61,1,93.3333333333333,2|0,0:0|0:0,0:0:0:0:
90,152,16995,2,0,L|-31:124,1,93.3333333333333,2|0,1:2|0:0,0:0:0:0:
24,104,17384,6,0,L|72:221,1,93.3333333333333,10|0,0:0|0:0,0:0:0:0:
104,296,17774,1,2,1:2:0:0:
207,156,18034,1,8,0:0:0:0:
248,145,18164,2,0,P|186:123|164:158,1,93.3333333333333,2|8,0:0|0:0,0:0:0:0:
159,230,18553,2,0,P|221:252|243:217,1,93.3333333333333,2|0,1:2|0:0,0:0:0:0:
248,145,18943,5,10,0:0:0:0:
248,145,19332,2,0,L|368:129,1,93.3333333333333,0|8,1:0|0:0,0:0:0:0:
389,142,19722,2,0,L|273:74,1,93.3333333333333,2|8,0:0|0:0,0:0:0:0:
284,28,20112,1,2,1:2:0:0:
479,0,20501,6,0,B|507:37|507:37|489:151,1,140,10|0,0:0|1:0,0:0:0:0:
408,260,21151,1,8,0:0:0:0:
408,260,21280,2,0,P|456:226|511:233,1,93.3333333333333,2|8,0:0|0:0,0:0:0:0:
488,361,21670,2,0,P|442:355|407:326,1,93.3333333333333,2|0,1:2|0:0,0:0:0:0:
408,296,22060,6,0,B|341:313|322:249|243:286,1,140,10|0,0:0|1:0,0:0:0:0:
149,346,22709,1,8,0:0:0:0:
149,346,23099,1,8,0:0:0:0:
133,307,23229,2,0,L|97:191,1,93.3333333333333,2|0,1:2|0:0,0:0:0:0:
74,117,23618,6,0,B|163:89|163:89|174:113|157:133,1,140,10|2,0:0|1:2,0:0:0:0:
49,106,24267,1,8,0:0:0:0:
67,81,24397,2,0,L|21:-2,1,93.3333333333333,2|8,0:0|0:0,0:0:0:0:
161,21,24787,2,0,L|137:133,1,93.3333333333333,2|0,1:2|0:0,0:0:0:0:
110,263,25177,5,14,0:0:0:0:
278,209,25436,1,8,0:0:0:0:
286,173,25566,2,0,L|239:62,1,93.3333333333333,4|0,1:2|1:0,0:0:0:0:
396,92,25956,2,0,L|422:-41,1,93.3333333333333,14|0,0:0|1:0,0:0:0:0:
389,131,26345,1,14,0:0:0:0:
227,50,26605,1,0,1:0:0:0:
196,35,26735,6,0,B|281:3|281:3|330:62,1,140.000005340576,14|0,0:0|0:0,0:0:0:0:
364,129,27125,2,0,L|216:114,1,140.000005340576,2|0,1:2|0:0,0:0:0:0:
389,66,27514,2,0,L|423:246,1,140.000005340576,10|8,0:0|0:0,0:0:0:0:
236,136,27904,1,2,1:2:0:0:
236,136,28293,6,0,L|202:316,1,140.000005340576,10|0,0:0|0:0,0:0:0:0:
186,365,28683,2,0,P|155:289|205:247,1,140.000005340576,2|0,1:2|0:0,0:0:0:0:
314,322,29073,2,0,P|388:288|403:213,1,140.000005340576,10|8,0:0|0:0,0:0:0:0:
253,224,29462,1,2,1:2:0:0:
253,224,29852,6,0,B|202:181|202:181|120:207,1,140.000005340576,10|0,0:0|0:0,0:0:0:0:
26,193,30242,2,0,L|174:226,1,140.000005340576,2|0,1:2|0:0,0:0:0:0:
288,305,30631,2,0,L|140:338,1,140.000005340576,10|8,0:0|0:0,0:0:0:0:
201,233,31021,1,2,1:2:0:0:
201,233,31410,6,0,B|180:207|186:183|186:183|302:158,1,140.000005340576,10|0,0:0|0:0,0:0:0:0:
400,142,31800,2,0,P|332:92|260:92,1,140.000005340576,2|0,1:2|0:0,0:0:0:0:
333,246,32190,2,0,L|437:225,1,70.0000026702882,10|0,0:0|0:0,0:0:0:0:
259,188,32449,1,8,0:0:0:0:
426,141,32579,1,2,1:2:0:0:
426,141,32969,6,0,L|445:-6,1,140.000005340576,10|0,0:0|0:0,0:0:0:0:
460,32,33358,2,0,P|361:57|327:45,1,140.000005340576,2|0,1:2|0:0,0:0:0:0:
190,9,33748,2,0,P|257:-3|321:22,1,140.000005340576,10|8,0:0|0:0,0:0:0:0:
151,99,34138,1,2,1:2:0:0:
151,99,34527,6,0,B|68:84|68:84|34:199,1,140.000005340576,10|0,0:0|0:0,0:0:0:0:
26,232,34917,2,0,L|0:104,1,122.500004673004,2|2,1:2|0:0,0:0:0:0:
34,262,35306,1,10,0:0:0:0:
256,192,35566,1,8,0:0:0:0:
242,288,35696,1,2,1:2:0:0:
242,288,36086,6,0,P|218:195|247:139,1,140.000005340576,10|0,0:0|0:0,0:0:0:0:
242,288,36475,2,0,P|290:205|350:186,1,140.000005340576,2|0,1:2|0:0,0:0:0:0:
242,288,36865,2,0,P|159:239|140:179,1,140.000005340576,10|8,0:0|0:0,0:0:0:0:
357,303,37254,1,2,1:2:0:0:
357,303,37644,6,0,B|437:271|439:343|513:343,1,140.000005340576,10|0,0:0|0:0,0:0:0:0:
509,317,38034,2,0,L|380:340,1,122.500004673004,2|2,1:2|0:0,0:0:0:0:
242,288,38423,1,10,0:0:0:0:
480,224,38683,1,8,0:0:0:0:
423,322,38813,1,2,1:2:0:0:
423,322,39203,6,0,P|382:226|410:166,1,140.000005340576,14|0,0:0|0:0,0:0:0:0:
419,178,39592,2,0,L|396:343,1,140.000005340576,2|0,1:2|0:0,0:0:0:0:
239,366,39982,2,0,P|186:310|246:234,1,140.000005340576,10|8,0:0|0:0,0:0:0:0:
226,268,40371,2,0,P|142:290|78:229,1,140.000005340576,2|0,1:2|0:0,0:0:0:0:
40,188,40761,5,10,0:0:0:0:
40,188,41151,2,0,L|191:158,1,140.000005340576,2|0,1:2|0:0,0:0:0:0:
257,219,41540,2,0,L|408:249,1,140.000005340576,10|8,0:0|0:0,0:0:0:0:
480,192,41930,1,2,1:2:0:0:
480,192,42319,6,0,P|439:112|381:128,1,140.000005340576,10|0,0:0|0:0,0:0:0:0:
367,138,42709,2,0,P|393:79|449:105,1,140.000005340576,2|2,1:2|0:0,0:0:0:0:
409,221,43099,1,10,0:0:0:0:
248,190,43358,1,8,0:0:0:0:
266,268,43488,1,2,1:2:0:0:
266,268,43878,6,0,P|290:170|314:112,1,140.000005340576,10|0,0:0|0:0,0:0:0:0:
326,148,44267,2,0,L|173:186,1,140.000005340576,2|0,1:2|0:0,0:0:0:0:
43,131,44657,2,0,P|94:63|160:89,1,140.000005340576,10|8,0:0|0:0,0:0:0:0:
96,224,45047,1,2,1:2:0:0:
96,224,45436,6,0,B|165:191|165:191|251:256,1,140.000005340576,14|0,0:0|0:0,0:0:0:0:
295,314,45826,2,0,L|123:336,1,140.000005340576,2|0,1:2|0:0,0:0:0:0:
147,300,46216,2,0,L|327:349,1,140.000005340576,10|8,0:0|0:0,0:0:0:0:
416,288,46605,1,2,1:2:0:0:
416,288,46995,6,0,P|353:237|278:234,1,140.000005340576,10|0,0:0|0:0,0:0:0:0:
280,259,47384,1,2,1:2:0:0:
447,192,47644,1,2,0:0:0:0:
434,163,47774,2,0,P|463:69|507:12,1,140.000005340576,10|8,0:0|0:0,0:0:0:0:
485,35,48164,1,2,1:2:0:0:
314,109,48553,6,0,P|222:86|137:32,1,140.000005340576,10|0,0:0|0:0,0:0:0:0:
195,43,48943,2,0,L|208:128,1,70.0000026702882,6|0,1:2|0:0,0:0:0:0:
153,286,49332,2,0,L|325:245,1,140.000005340576,10|8,0:0|0:0,0:0:0:0:
482,210,49722,6,0,P|400:161|302:139,1,140.000005340576,6|0,1:2|0:0,0:0:0:0:
351,172,50112,2,0,L|420:121,1,70.0000026702882,10|0,0:0|0:0,0:0:0:0:
256,32,50501,2,0,L|277:208,1,140.000005340576,6|0,1:2|1:0,0:0:0:0:
288,152,50891,2,0,L|185:187,1,70.0000026702882,10|0,0:0|0:0,0:0:0:0:
61,138,51151,1,2,1:2:0:0:
82,117,51280,2,0,L|77:218,1,70.0000026702882,10|0,0:0|0:0,0:0:0:0:
74,350,51540,1,2,1:2:0:0:
60,325,51670,6,0,B|104:302|104:302|195:334,1,140,14|2,0:0|1:2,0:0:0:0:
312,381,52319,1,8,0:0:0:0:
312,381,52449,2,0,L|281:259,1,93.3333333333333,2|8,0:0|0:0,0:0:0:0:
397,194,52839,2,0,L|366:316,1,93.3333333333333,2|0,1:2|0:0,0:0:0:0:
224,224,53228,5,10,0:0:0:0:
231,191,53618,2,0,P|216:132|186:70,1,93.3333333333333,2|8,1:2|0:0,0:0:0:0:
136,220,54008,2,0,P|84:251|19:274,1,93.3333333333333,2|0,0:0|0:0,0:0:0:0:
7,247,54397,1,2,1:2:0:0:
0,280,54787,6,0,P|73:243|164:243,1,140,10|2,0:0|1:2,0:0:0:0:
308,273,55436,1,8,0:0:0:0:
308,273,55566,2,0,L|199:295,1,93.3333333333333,2|8,0:0|0:0,0:0:0:0:
319,124,55956,2,0,P|350:164|356:209,1,93.3333333333333,2|0,1:2|0:0,0:0:0:0:
374,244,56345,6,0,P|428:154|487:133,1,140,10|0,0:0|1:0,0:0:0:0:
503,307,56995,1,8,0:0:0:0:
503,307,57124,2,0,L|397:280,1,93.3333333333333,2|8,0:0|0:0,0:0:0:0:
446,375,57514,1,2,1:2:0:0:
413,365,57904,6,0,L|259:326,1,140,10|0,0:0|1:0,0:0:0:0:
146,299,58553,1,8,0:0:0:0:
146,299,58683,2,0,P|178:248|216:239,1,93.3333333333333,2|8,0:0|0:0,0:0:0:0:
102,188,59073,2,0,P|87:129|108:95,1,93.3333333333333,2|0,1:2|0:0,0:0:0:0:
187,15,59462,6,0,P|137:57|43:33,1,140,10|2,0:0|1:2,0:0:0:0:
32,160,60112,1,8,0:0:0:0:
32,160,60242,2,0,L|57:266,1,93.3333333333333,2|8,0:0|0:0,0:0:0:0:
66,290,60631,2,0,P|115:248|160:241,1,93.3333333333333,2|0,1:2|0:0,0:0:0:0:
311,285,61021,6,0,L|242:360,1,93.3333333333333,10|0,0:0|0:0,0:0:0:0:
235,150,61410,2,0,L|247:254,1,93.3333333333333,2|8,1:2|0:0,0:0:0:0:
302,51,61800,2,0,L|353:144,1,93.3333333333333,2|8,0:0|0:0,0:0:0:0:
153,95,62190,1,2,1:2:0:0:
144,71,62579,6,0,P|187:24|247:20,1,93.3333333333333,10|8,0:0|0:0,0:0:0:0:
217,31,62969,1,0,1:0:0:0:
172,245,63228,1,8,0:0:0:0:
172,245,63358,2,0,L|80:210,1,93.3333333333333,6|0,0:0|0:0,0:0:0:0:
263,205,63748,2,0,L|242:328,1,93.3333333333333,6|0,1:2|0:0,0:0:0:0:
269,320,64138,6,0,P|238:202|217:166,1,140,10|2,0:0|1:2,0:0:0:0:
153,95,64787,1,8,0:0:0:0:
195,113,64917,2,0,P|256:97|285:52,1,93.3333333333333,2|8,0:0|0:0,0:0:0:0:
311,6,65306,6,0,P|364:-9|448:50,1,140,2|10,1:2|0:0,0:0:0:0:
436,28,66086,1,2,1:2:0:0:
303,93,66345,1,8,0:0:0:0:
303,93,66475,2,0,L|290:218,1,93.3333333333333,2|0,0:0|0:0,0:0:0:0:
335,302,66865,2,0,L|214:274,1,93.3333333333333,2|0,1:2|0:0,0:0:0:0:
142,261,67254,6,0,P|195:233|244:228,1,93.3333333333333,10|0,0:0|0:0,0:0:0:0:
182,342,67644,1,0,1:0:0:0:
293,185,67904,1,8,0:0:0:0:
274,143,68034,2,0,P|226:121|171:124,1,93.3333333333333,2|8,0:0|0:0,0:0:0:0:
312,227,68423,2,0,P|358:224|399:204,1,93.3333333333333,2|0,1:2|0:0,0:0:0:0:
453,122,68813,6,0,L|433:16,1,93.3333333333333,10|0,0:0|0:0,0:0:0:0:
467,58,69203,2,0,L|487:164,1,93.3333333333333,0|8,1:0|0:0,0:0:0:0:
434,234,69592,2,0,L|454:340,1,93.3333333333333,2|8,0:0|0:0,0:0:0:0:
454,338,69982,1,2,1:2:0:0:
456,350,70371,6,0,B|419:378|419:378|305:360,1,140,10|2,0:0|1:2,0:0:0:0:
176,335,71021,1,8,0:0:0:0:
176,335,71150,2,0,P|224:301|279:308,1,93.3333333333333,2|8,0:0|0:0,0:0:0:0:
331,380,71540,2,0,P|285:374|250:345,1,93.3333333333333,2|0,1:2|0:0,0:0:0:0:
356,237,71930,6,0,B|423:254|442:190|521:227,1,140,10|2,0:0|1:2,0:0:0:0:
491,217,72579,1,8,0:0:0:0:
256,160,72969,1,8,0:0:0:0:
267,123,73099,2,0,L|289:1,1,93.3333333333333,2|0,1:2|0:0,0:0:0:0:
256,160,73488,6,0,B|217:184|217:184|92:152,1,140,10|2,0:0|1:2,0:0:0:0:
85,61,74137,1,8,0:0:0:0:
113,34,74267,2,0,L|214:77,1,93.3333333333333,2|8,0:0|0:0,0:0:0:0:
84,150,74657,2,0,L|62:273,1,93.3333333333333,2|0,1:2|0:0,0:0:0:0:
41,360,75047,5,14,0:0:0:0:
224,288,75306,1,8,0:0:0:0:
227,259,75436,2,0,P|177:233|106:239,1,93.3333333333333,4|0,1:2|1:0,0:0:0:0:
318,222,75826,2,0,P|344:172|338:101,1,93.3333333333333,14|0,0:0|1:0,0:0:0:0:
288,235,76215,1,14,0:0:0:0:
318,30,76475,1,0,1:0:0:0:
337,58,76605,6,0,B|422:26|422:26|453:38|462:97,1,140.000005340576,14|0,0:0|0:0,0:0:0:0:
325,156,76995,2,0,L|172:124,1,140.000005340576,2|0,1:2|0:0,0:0:0:0:
405,98,77384,2,0,L|428:281,1,140.000005340576,10|8,0:0|0:0,0:0:0:0:
246,169,77774,1,2,1:2:0:0:
246,169,78164,6,0,L|223:352,1,140.000005340576,10|0,0:0|0:0,0:0:0:0:
112,358,78553,2,0,P|166:279|204:289,1,140.000005340576,2|0,1:2|0:0,0:0:0:0:
350,316,78943,2,0,P|415:306|433:242,1,140.000005340576,10|8,0:0|0:0,0:0:0:0:
228,307,79332,1,2,1:2:0:0:
228,307,79722,6,0,B|198:253|198:253|110:280,1,140.000005340576,10|0,0:0|0:0,0:0:0:0:
20,311,80112,2,0,P|90:249|149:239,1,140.000005340576,2|0,1:2|0:0,0:0:0:0:
250,380,80501,2,0,L|95:355,1,140.000005340576,10|8,0:0|0:0,0:0:0:0:
257,294,80891,1,2,1:2:0:0:
257,294,81280,6,0,B|291:259|333:262|333:262|374:361,1,140.000005340576,10|0,0:0|0:0,0:0:0:0:
458,379,81670,2,0,P|506:322|481:250,1,140.000005340576,2|0,1:2|0:0,0:0:0:0:
409,142,82060,2,0,L|440:35,1,70.0000026702882,10|0,0:0|0:0,0:0:0:0:
399,177,82319,1,8,0:0:0:0:
381,0,82449,1,2,1:2:0:0:
381,0,82839,6,0,P|271:41|215:31,1,140.000005340576,10|0,0:0|0:0,0:0:0:0:
101,9,83229,2,0,P|201:11|254:52,1,140.000005340576,2|0,1:2|0:0,0:0:0:0:
211,163,83618,2,0,P|142:170|79:141,1,140.000005340576,10|8,0:0|0:0,0:0:0:0:
157,85,84008,1,2,1:2:0:0:
157,85,84397,6,0,B|74:70|74:70|40:185,1,140.000005340576,10|0,0:0|0:0,0:0:0:0:
29,228,84787,2,0,L|4:101,1,122.500004673004,2|2,1:2|0:0,0:0:0:0:
34,262,85176,1,10,0:0:0:0:
256,192,85436,1,8,0:0:0:0:
224,288,85566,1,2,1:2:0:0:
224,288,85956,6,0,P|299:248|382:261,1,140.000005340576,10|0,0:0|0:0,0:0:0:0:
224,288,86345,2,0,P|162:257|123:199,1,140.000005340576,2|0,1:2|0:0,0:0:0:0:
224,288,86735,2,0,P|219:218|250:157,1,140.000005340576,10|8,0:0|0:0,0:0:0:0:
315,364,87125,1,2,1:2:0:0:
315,364,87514,6,0,B|404:348|404:348|390:314|344:308,1,140.000005340576,10|0,0:0|0:0,0:0:0:0:
208,356,87904,2,0,L|230:259,1,70.0000026702882,6|0,1:2|0:0,0:0:0:0:
200,384,88164,1,2,1:2:0:0:
181,252,88293,1,10,0:0:0:0:
425,216,88553,1,8,0:0:0:0:
369,314,88683,1,6,1:2:0:0:
369,314,89073,6,0,P|433:249|496:287,1,140.000005340576,14|0,0:0|0:0,0:0:0:0:
474,274,89462,2,0,L|333:242,1,140.000005340576,2|0,1:2|0:0,0:0:0:0:
194,210,89852,2,0,P|230:125|283:95,1,140.000005340576,10|8,0:0|0:0,0:0:0:0:
269,126,90241,2,0,P|185:148|121:87,1,140.000005340576,2|0,1:2|0:0,0:0:0:0:
65,37,90631,5,10,0:0:0:0:
65,37,91021,2,0,L|216:7,1,140.000005340576,2|2,1:2|0:0,0:0:0:0:
269,126,91410,2,0,L|420:156,1,140.000005340576,10|8,0:0|0:0,0:0:0:0:
480,64,91800,1,2,1:2:0:0:
480,64,92189,6,0,P|437:132|379:117,1,140.000005340576,10|0,0:0|0:0,0:0:0:0:
366,107,92579,2,0,P|439:116|434:187,1,140.000005340576,2|0,1:2|0:0,0:0:0:0:
395,256,92969,1,10,0:0:0:0:
194,210,93228,1,8,0:0:0:0:
224,288,93358,1,2,1:2:0:0:
224,288,93748,6,0,P|248:190|272:132,1,140.000005340576,10|0,0:0|0:0,0:0:0:0:
285,115,94137,2,0,B|233:140|233:140|128:121,1,140.000005340576,2|0,1:2|0:0,0:0:0:0:
18,103,94527,2,0,P|69:35|135:61,1,140.000005340576,10|8,0:0|0:0,0:0:0:0:
64,224,94917,1,2,1:2:0:0:
64,224,95306,6,0,B|149:192|149:192|180:204|189:263,1,140.000005340576,14|0,0:0|0:0,0:0:0:0:
142,354,95696,2,0,L|-9:293,1,140.000005340576,2|0,1:2|0:0,0:0:0:0:
43,329,96086,2,0,L|183:299,1,140.000005340576,10|8,0:0|0:0,0:0:0:0:
343,276,96475,1,2,1:2:0:0:
343,276,96865,6,0,P|292:217|203:210,1,140.000005340576,10|0,0:0|0:0,0:0:0:0:
204,237,97254,1,2,1:2:0:0:
416,160,97514,1,2,0:0:0:0:
409,128,97644,2,0,P|438:34|482:-23,1,140.000005340576,10|8,0:0|0:0,0:0:0:0:
460,0,98034,1,2,1:2:0:0:
276,102,98423,6,0,P|184:79|99:25,1,140.000005340576,10|0,0:0|0:0,0:0:0:0:
157,36,98813,2,0,L|179:187,1,140.000005340576,2|0,1:2|0:0,0:0:0:0:
115,279,99202,2,0,L|287:238,1,140.000005340576,10|8,0:0|0:0,0:0:0:0:
444,203,99592,6,0,P|362:154|264:132,1,140.000005340576,6|0,1:2|0:0,0:0:0:0:
313,165,99982,2,0,L|382:114,1,70.0000026702882,10|0,0:0|0:0,0:0:0:0:
218,25,100242,1,8,0:0:0:0:
218,25,100371,2,0,L|239:201,1,140.000005340576,6|0,1:2|1:0,0:0:0:0:
250,145,100761,2,0,L|147:180,1,70.0000026702882,10|0,0:0|0:0,0:0:0:0:
23,131,101021,1,0,1:0:0:0:
44,110,101151,1,10,0:0:0:0:
39,179,101280,1,2,1:2:0:0:
35,249,101410,1,2,1:2:0:0:
81,298,101540,5,14,0:0:0:0:
232,220,101930,1,0,1:0:0:0:
81,298,102319,1,10,0:0:0:0:
250,318,102579,1,8,0:0:0:0:
232,220,102709,1,0,1:0:0:0:
81,298,103099,5,10,0:0:0:0:
232,220,103488,1,0,1:0:0:0:
81,298,103878,1,10,0:0:0:0:
250,318,104138,1,8,0:0:0:0:
232,220,104268,1,0,1:0:0:0:
431,86,104657,5,10,0:0:0:0:
280,164,105047,1,0,1:0:0:0:
431,86,105436,1,10,0:0:0:0:
262,66,105696,1,8,0:0:0:0:
280,164,105826,1,0,1:0:0:0:
431,86,106216,5,10,0:0:0:0:
280,164,106605,1,0,1:0:0:0:
397,105,106865,1,2,0:0:0:0:
431,86,106995,1,10,0:0:0:0:
262,66,107255,1,10,0:0:0:0:
280,164,107385,1,0,1:0:0:0:
81,298,107774,5,14,0:0:0:0:
232,220,108164,1,0,1:0:0:0:
81,298,108553,1,10,0:0:0:0:
250,318,108813,1,8,0:0:0:0:
232,220,108943,1,0,1:0:0:0:
81,298,109333,5,10,0:0:0:0:
232,220,109722,1,0,1:0:0:0:
81,298,110112,1,10,0:0:0:0:
250,318,110372,1,8,0:0:0:0:
232,220,110502,1,0,1:0:0:0:
431,86,110891,5,10,0:0:0:0:
280,164,111281,1,0,1:0:0:0:
431,86,111670,1,10,0:0:0:0:
262,66,111930,1,8,0:0:0:0:
280,164,112060,1,0,1:0:0:0:
431,86,112450,5,10,0:0:0:0:
262,66,112709,1,8,0:0:0:0:
280,164,112839,1,4,1:2:0:0:
397,105,113099,1,2,1:2:0:0:
431,86,113229,1,10,0:0:0:0:
262,66,113489,1,10,0:0:0:0:
280,164,113619,1,4,1:2:0:0:
81,86,114008,5,14,0:0:0:0:
232,164,114398,1,0,1:0:0:0:
81,86,114787,1,10,0:0:0:0:
250,66,115047,1,8,0:0:0:0:
232,164,115177,1,0,1:0:0:0:
81,86,115567,5,10,0:0:0:0:
232,164,115956,1,0,1:0:0:0:
81,86,116346,1,10,0:0:0:0:
250,66,116606,1,8,0:0:0:0:
232,164,116736,1,0,1:0:0:0:
431,298,117125,5,10,0:0:0:0:
280,220,117515,1,0,1:0:0:0:
431,298,117904,1,10,0:0:0:0:
262,318,118164,1,8,0:0:0:0:
280,220,118294,1,0,1:0:0:0:
431,298,118684,5,10,0:0:0:0:
280,220,119073,1,0,1:0:0:0:
397,279,119333,1,2,0:0:0:0:
431,298,119463,1,10,0:0:0:0:
262,318,119723,1,10,0:0:0:0:
280,220,119853,1,0,1:0:0:0:
81,86,120242,5,14,0:0:0:0:
232,164,120632,1,0,1:0:0:0:
81,86,121021,1,10,0:0:0:0:
250,66,121281,1,8,0:0:0:0:
232,164,121411,1,0,1:0:0:0:
81,86,121801,5,10,0:0:0:0:
232,164,122190,1,0,1:0:0:0:
81,86,122580,1,10,0:0:0:0:
250,66,122840,1,8,0:0:0:0:
232,164,122970,1,0,1:0:0:0:
431,298,123359,5,14,0:0:0:0:
280,220,123749,1,0,1:0:0:0:
431,298,124138,1,10,0:0:0:0:
262,318,124398,1,8,0:0:0:0:
280,220,124528,1,4,1:2:0:0:
431,298,124918,5,10,0:0:0:0:
262,318,125177,1,8,0:0:0:0:
280,220,125307,1,4,1:2:0:0:
431,298,125697,1,10,0:0:0:0:
280,220,125957,1,0,1:0:0:0:
431,298,126087,1,0,1:0:0:0:
280,220,126345,1,0,1:0:0:0:
431,298,126475,6,0,B|343:295|341:211|224:255,1,181.999991668702,14|0,0:0|1:0,0:0:0:0:
96,320,127125,1,2,0:0:0:0:
95,278,127254,2,0,P|50:207|-7:161,1,121.333327779134,10|8,0:0|0:0,0:0:0:0:
35,214,127644,1,0,1:0:0:0:
35,214,128034,6,0,P|118:192|176:115,1,181.999991668702,10|0,0:0|1:0,0:0:0:0:
134,3,128683,1,2,0:0:0:0:
166,29,128813,2,0,P|252:36|305:20,1,121.333327779134,10|8,0:0|0:0,0:0:0:0:
330,8,129203,2,0,P|290:66|285:137,1,121.333327779134,0|0,1:0|0:0,0:0:0:0:
415,275,129592,6,0,L|386:91,1,181.999991668702,10|0,0:0|1:0,0:0:0:0:
419,307,130242,1,2,0:0:0:0:
436,272,130371,2,0,P|380:233|316:239,1,121.333327779134,10|8,0:0|0:0,0:0:0:0:
219,276,130761,2,0,P|159:274|112:238,1,121.333327779134,2|0,1:2|0:0,0:0:0:0:
91,141,131151,5,10,0:0:0:0:
91,141,131540,2,0,L|231:116,1,121.333327779134,2|0,1:2|0:0,0:0:0:0:
268,37,131930,2,0,P|195:70|183:112,1,121.333327779134,10|8,0:0|0:0,0:0:0:0:
317,208,132319,1,2,1:2:0:0:
183,104,132547,1,2,0:0:0:0:
317,208,132709,6,0,B|446:187|446:187|450:152|384:117,1,181.999991668702,10|0,0:0|1:0,0:0:0:0:
423,143,133488,2,0,P|458:67|505:29,1,121.333327779134,10|8,0:0|0:0,0:0:0:0:
512,224,133878,1,2,1:2:0:0:
512,224,134267,6,0,L|490:364,1,121.333327779134,10|0,0:0|0:0,0:0:0:0:
464,323,134657,2,0,L|335:365,1,121.333327779134,2|0,1:2|0:0,0:0:0:0:
236,299,135047,2,0,P|290:280|334:318,1,121.333327779134,10|8,0:0|0:0,0:0:0:0:
175,378,135436,1,6,1:2:0:0:
334,318,135664,1,2,0:0:0:0:
175,378,135826,6,0,P|185:298|227:210,1,121.333327779134,10|8,0:0|0:0,0:0:0:0:
292,100,136216,2,0,L|193:118,1,60.6666638895672,6|0,1:2|0:0,0:0:0:0:
210,113,136605,6,0,P|265:58|344:77,1,121.333327779134,10|8,0:0|0:0,0:0:0:0:
509,83,136995,2,0,L|494:15,1,60.6666638895672,6|0,1:2|0:0,0:0:0:0:
489,4,137384,6,0,L|467:167,1,121.333327779134,14|0,0:0|1:0,0:0:0:0:
449,283,137774,1,2,1:2:0:0:
353,263,137904,1,2,1:2:0:0:
257,243,138034,1,2,1:2:0:0:
203,323,138164,6,0,L|225:160,1,121.333327779134,14|0,0:0|1:0,0:0:0:0:
243,46,138554,1,2,1:2:0:0:
339,66,138684,1,2,1:2:0:0:
435,86,138814,1,2,1:2:0:0:
489,4,138943,6,0,P|404:29|358:83,1,130.666662679037,14|0,0:0|0:0,0:0:0:0:
287,151,139332,2,0,P|221:132|170:83,1,130.666662679037,2|0,1:2|0:0,0:0:0:0:
148,19,139722,2,0,P|205:63|193:116,1,130.666662679037,10|8,0:0|0:0,0:0:0:0:
107,157,140112,2,0,P|50:113|62:60,1,130.666662679037,2|0,1:2|0:0,0:0:0:0:
225,133,140501,6,0,P|300:98|381:86,1,130.666662679037,10|0,0:0|0:0,0:0:0:0:
319,232,140891,2,0,P|240:203|246:150,1,130.666662679037,2|0,1:2|0:0,0:0:0:0:
444,224,141280,2,0,P|415:303|362:297,1,130.666662679037,10|8,0:0|0:0,0:0:0:0:
416,130,141670,2,0,P|386:44|345:-5,1,130.666662679037,2|0,1:2|0:0,0:0:0:0:
258,66,142060,6,0,L|81:37,1,130.666662679037,10|0,0:0|0:0,0:0:0:0:
269,183,142449,2,0,L|446:154,1,130.666662679037,2|0,1:2|0:0,0:0:0:0:
241,44,142839,2,0,L|64:15,1,130.666662679037,10|8,0:0|0:0,0:0:0:0:
252,161,143228,2,0,L|429:132,1,130.666662679037,2|0,1:2|0:0,0:0:0:0:
224,22,143618,6,0,P|174:77|137:165,1,130.666662679037,10|0,0:0|0:0,0:0:0:0:
291,255,144008,2,0,P|270:193|234:138,1,130.666662679037,2|0,1:2|0:0,0:0:0:0:
167,360,144397,2,0,P|235:331|306:267,1,130.666662679037,10|8,0:0|0:0,0:0:0:0:
62,301,144787,2,0,P|22:238|1:145,1,130.666662679037,2|0,1:2|0:0,0:0:0:0:
102,83,145177,5,10,0:0:0:0:
135,94,145307,1,2,0:0:0:0:
130,57,145437,1,2,0:0:0:0:
116,119,145567,5,2,1:2:0:0:
158,99,145697,1,2,0:0:0:0:
118,71,145827,1,2,0:0:0:0:
162,140,145957,5,10,0:0:0:0:
181,84,146087,1,2,0:0:0:0:
122,93,146217,1,10,0:0:0:0:
220,114,146346,5,2,1:2:0:0:
188,49,146476,1,2,0:0:0:0:
145,109,146606,1,2,0:0:0:0:
183,91,146736,5,10,0:0:0:0:
222,81,146866,1,2,0:0:0:0:
253,106,146996,1,2,0:0:0:0:
146,103,147125,5,2,1:2:0:0:
171,61,147255,1,2,0:0:0:0:
222,56,147385,1,2,0:0:0:0:
125,148,147515,5,10,0:0:0:0:
110,87,147645,1,2,0:0:0:0:
149,37,147775,1,10,0:0:0:0:
146,205,147905,5,2,1:2:0:0:
80,166,148035,1,2,0:0:0:0:
69,87,148165,1,2,0:0:0:0:
243,148,148293,5,10,0:0:0:0:
256,123,148553,1,2,0:0:0:0:
256,123,148683,2,0,L|196:-4,1,130.666662679037,2|2,1:2|0:0,0:0:0:0:
201,37,149073,2,0,L|362:13,1,130.666662679037,10|8,0:0|0:0,0:0:0:0:
338,28,149462,1,2,1:2:0:0:
243,236,149852,5,10,0:0:0:0:
256,261,150112,1,8,0:0:0:0:
256,261,150242,2,0,L|196:388,1,130.666662679037,6|2,1:2|0:0,0:0:0:0:
201,347,150632,2,0,L|362:371,1,130.666662679037,10|8,0:0|0:3,0:0:0:0:
338,356,151021,1,8,0:0:0:0:
256,160,151280,1,2,0:0:0:0:
256,192,151410,5,14,0:0:0:0:
256,192,154527,5,2,0:0:0:0:
256,192,156086,1,2,0:0:0:0:
256,192,157644,5,2,0:0:0:0:
256,192,160761,5,6,1:2:0:0:
256,192,162320,5,2,1:2:0:0:
306,183,162449,1,8,0:0:0:0:
357,176,162579,1,8,0:0:0:0:
346,263,162710,5,2,1:2:0:0:
408,271,162839,1,8,0:0:0:0:
468,280,162969,1,8,0:0:0:0:
366,350,163100,5,2,1:2:0:0:
293,359,163229,1,8,0:0:0:0:
219,370,163359,1,8,0:0:0:0:
175,261,163489,5,2,1:2:0:0:
86,250,163618,1,8,0:0:0:0:
0,236,163748,1,8,0:0:0:0:
119,120,163878,6,0,B|204:88|204:88|253:147,1,140.000005340576,14|0,0:0|0:0,0:0:0:0:
148,244,164268,2,0,L|7:187,1,140.000005340576,2|0,1:2|0:0,0:0:0:0:
208,197,164657,2,0,L|242:377,1,140.000005340576,10|8,0:0|0:0,0:0:0:0:
235,125,165047,1,2,1:2:0:0:
235,125,165436,6,0,L|201:305,1,140.000005340576,10|0,0:0|0:0,0:0:0:0:
179,372,165826,2,0,P|223:289|291:329,1,140.000005340576,2|2,1:2|0:0,0:0:0:0:
394,289,166216,2,0,P|458:273|469:208,1,140.000005340576,10|8,0:0|0:0,0:0:0:0:
320,339,166605,1,2,1:2:0:0:
320,339,166995,6,0,B|360:252|360:252|336:186,1,140.000005340576,10|0,0:0|0:0,0:0:0:0:
150,218,167385,2,0,L|298:251,1,140.000005340576,2|0,1:2|0:0,0:0:0:0:
194,122,167774,2,0,L|57:152,1,140.000005340576,10|8,0:0|0:0,0:0:0:0:
228,115,168164,1,2,1:2:0:0:
228,115,168553,6,0,B|243:52|243:52|156:62,1,140.000005340576,10|0,0:0|0:0,0:0:0:0:
48,15,168943,2,0,P|133:5|150:49,1,140.000005340576,2|0,1:2|0:0,0:0:0:0:
74,182,169333,2,0,L|178:161,1,70.0000026702882,10|0,0:0|0:0,0:0:0:0:
0,124,169592,1,8,0:0:0:0:
168,60,169722,1,2,1:2:0:0:
168,60,170112,6,0,L|187:207,1,140.000005340576,14|0,0:0|0:0,0:0:0:0:
198,323,170501,2,0,P|125:319|76:246,1,140.000005340576,2|0,1:2|0:0,0:0:0:0:
199,169,170891,2,0,P|272:173|321:246,1,140.000005340576,10|8,0:0|0:0,0:0:0:0:
173,341,171281,1,2,1:2:0:0:
173,341,171670,6,0,B|282:317|282:317|262:374,1,140.000005340576,10|0,0:0|0:0,0:0:0:0:
104,281,172060,2,0,L|135:152,1,122.500004673004,2|2,1:2|0:0,0:0:0:0:
96,312,172449,1,10,0:0:0:0:
315,220,172709,1,8,0:0:0:0:
282,317,172839,1,2,1:2:0:0:
282,317,173229,6,0,P|374:281|455:314,1,140.000005340576,10|0,0:0|0:0,0:0:0:0:
422,296,173618,2,0,P|361:230|286:222,1,140.000005340576,6|0,1:2|0:0,0:0:0:0:
314,219,174008,1,10,0:0:0:0:
480,128,174267,1,8,0:0:0:0:
480,128,174397,6,0,P|388:92|307:125,1,140.000005340576,2|0,1:2|1:0,0:0:0:0:
340,107,174787,2,0,P|401:41|476:33,1,140.000005340576,10|8,0:0|0:0,0:0:0:0:
447,30,175176,1,6,1:2:0:0:
394,219,175436,1,0,1:0:0:0:
406,181,175566,5,10,0:0:0:0:
323,194,175696,1,8,0:0:0:0:
240,207,175826,1,0,1:0:0:0:
273,126,175956,5,8,0:3:0:0:
315,119,176086,1,8,0:3:0:0:
356,112,176216,1,8,0:3:0:0:
372,72,176345,6,0,P|312:26|192:36,1,140.000005340576,14|0,0:0|0:0,0:0:0:0:
148,147,176735,2,0,L|296:101,1,140.000005340576,2|0,1:2|0:0,0:0:0:0:
86,62,177124,2,0,L|54:238,1,140.000005340576,10|8,0:0|0:0,0:0:0:0:
0,123,177514,1,2,1:2:0:0:
0,123,177904,6,0,L|32:299,1,140.000005340576,10|0,0:0|0:0,0:0:0:0:
48,368,178293,2,0,P|127:314|117:276,1,140.000005340576,2|0,1:2|0:0,0:0:0:0:
90,130,178683,2,0,P|100:65|164:47,1,140.000005340576,10|8,0:0|0:0,0:0:0:0:
111,248,179072,1,2,1:2:0:0:
111,248,179462,6,0,B|142:282|142:282|247:256,1,140.000005340576,10|0,0:0|0:0,0:0:0:0:
391,216,179852,2,0,P|321:154|262:144,1,140.000005340576,2|0,1:2|0:0,0:0:0:0:
330,324,180241,2,0,L|479:282,1,140.000005340576,10|8,0:0|0:0,0:0:0:0:
362,138,180631,2,0,P|408:59|481:22,1,140.000005340576,2|0,1:2|0:0,0:0:0:0:
451,45,181021,6,0,P|337:28|287:-3,1,140.000005340576,10|0,0:0|0:0,0:0:0:0:
214,77,181410,2,0,P|185:140|138:191,1,140.000005340576,2|0,1:2|0:0,0:0:0:0:
35,61,181800,2,0,L|126:72,1,70.0000026702882,10|0,0:0|0:0,0:0:0:0:
0,180,182060,1,8,0:0:0:0:
32,30,182189,1,2,1:2:0:0:
32,30,182579,6,0,P|71:105|71:189,1,140.000005340576,10|0,0:0|0:0,0:0:0:0:
35,294,182969,2,0,B|101:257|101:257|142:271|158:325,1,140.000005340576,2|0,1:2|0:0,0:0:0:0:
231,352,183358,2,0,B|303:331|303:331|322:292|296:243,1,140.000005340576,10|8,0:0|0:0,0:0:0:0:
264,134,183748,1,2,1:2:0:0:
264,134,184137,6,0,B|181:119|181:119|147:234,1,140.000005340576,10|0,0:0|0:0,0:0:0:0:
395,238,184527,2,0,L|417:108,1,122.500004673004,2|2,1:2|0:0,0:0:0:0:
390,272,184916,1,10,0:0:0:0:
162,204,185176,1,8,0:0:0:0:
194,300,185306,1,6,1:2:0:0:
194,300,185696,6,0,P|170:207|199:151,1,140.000005340576,10|8,0:0|0:0,0:0:0:0:
223,325,186085,2,0,P|271:242|331:223,1,140.000005340576,6|0,1:2|0:0,0:0:0:0:
169,362,186475,2,0,P|86:313|67:253,1,140.000005340576,10|8,0:0|0:0,0:0:0:0:
338,340,186864,1,6,1:2:0:0:
338,340,187254,6,0,B|427:324|427:324|413:290|367:284,1,140.000005340576,10|8,0:0|0:0,0:0:0:0:
194,300,187644,2,0,L|216:203,1,70.0000026702882,6|0,1:2|0:0,0:0:0:0:
186,328,187904,1,0,1:0:0:0:
167,196,188033,1,10,0:0:0:0:
411,160,188293,1,0,1:0:0:0:
355,258,188423,1,2,1:2:0:0:
411,160,188683,1,0,1:0:0:0:
355,258,188813,6,0,P|444:233|495:255,1,140.000005340576,14|0,0:0|0:0,0:0:0:0:
466,274,189203,2,0,L|509:93,1,140.000005340576,2|0,1:2|0:0,0:0:0:0:
380,23,189592,2,0,P|307:45|279:126,1,140.000005340576,10|8,0:0|0:0,0:0:0:0:
300,118,189982,2,0,P|259:48|191:38,1,140.000005340576,2|0,1:2|0:0,0:0:0:0:
114,200,190371,5,10,0:0:0:0:
114,200,190761,2,0,L|265:170,1,140.000005340576,2|0,1:2|0:0,0:0:0:0:
326,295,191150,2,0,L|477:325,1,140.000005340576,10|8,0:0|0:0,0:0:0:0:
292,287,191540,1,2,1:2:0:0:
292,287,191930,6,0,P|235:367|186:344,1,140.000005340576,10|0,0:0|0:0,0:0:0:0:
189,345,192319,2,0,P|307:338|372:359,1,140.000005340576,2|0,1:2|0:0,0:0:0:0:
416,384,192709,1,10,0:0:0:0:
219,267,192968,1,8,0:0:0:0:
189,345,193098,1,2,1:2:0:0:
189,345,193488,6,0,P|201:245|220:169,1,140.000005340576,10|0,0:0|0:0,0:0:0:0:
232,170,193878,2,0,P|322:219|399:220,1,140.000005340576,2|0,1:2|0:0,0:0:0:0:
473,143,194267,2,0,P|422:75|356:101,1,140.000005340576,10|8,0:0|0:0,0:0:0:0:
452,250,194657,1,2,1:2:0:0:
452,250,195047,6,0,B|396:256|396:256|385:162,1,140.000005340576,14|0,0:0|0:0,0:0:0:0:
379,57,195436,2,0,L|510:125,1,140.000005340576,2|0,1:2|0:0,0:0:0:0:
304,150,195826,2,0,L|173:218,1,140.000005340576,10|8,0:0|0:0,0:0:0:0:
352,320,196215,1,2,1:2:0:0:
352,320,196605,6,0,P|301:261|212:254,1,140.000005340576,10|0,0:0|0:0,0:0:0:0:
213,281,196994,1,2,1:2:0:0:
425,204,197254,1,2,0:0:0:0:
418,172,197384,2,0,P|447:78|491:21,1,140.000005340576,10|8,0:0|0:0,0:0:0:0:
469,44,197774,1,2,1:2:0:0:
276,102,198163,6,0,P|184:79|99:25,1,140.000005340576,2|0,1:2|0:0,0:0:0:0:
166,36,198553,1,2,0:0:0:0:
276,102,199332,6,0,P|184:79|99:25,1,140.000005340576,2|0,0:0|0:0,0:0:0:0:
166,36,199722,1,14,0:0:0:0:
256,192,199787,12,0,204787,0:0:0:0:
