osu file format v14

[General]
AudioFilename: audio.mp3
AudioLeadIn: 0
PreviewTime: 51358
Countdown: 0
SampleSet: Soft
StackLeniency: 0.5
Mode: 0
LetterboxInBreaks: 0
WidescreenStoryboard: 0

[Editor]
DistanceSpacing: 1.2
BeatDivisor: 4
GridSize: 32
TimelineZoom: 1.7

[Metadata]
Title:Cabo
TitleUnicode:Cabo
Artist:Ricky Montgomery
ArtistUnicode:Ricky Montgomery
Creator:Trynna
Version:Our Place
Source:osu!
Tags:eiri- Ayyri Featured Artist FA Mappers' Guild mpg indie rock english ashes
BeatmapID:2262966
BeatmapSetID:1081806

[Difficulty]
HPDrainRate:5.5
CircleSize:4
OverallDifficulty:7
ApproachRate:8.5
SliderMultiplier:1.8
SliderTickRate:1

[Events]
//Background and Video events
0,0,"ashes ashes.jpg",0,0
//Break Periods
//Storyboard Layer 0 (Background)
//Storyboard Layer 1 (Fail)
//Storyboard Layer 2 (Pass)
//Storyboard Layer 3 (Foreground)
//Storyboard Layer 4 (Overlay)
//Storyboard Sound Samples

[TimingPoints]
265,413.793103448276,4,2,1,60,1,0
17644,-133.333333333333,4,2,1,50,0,0
18471,-83.3333333333333,4,2,1,80,0,1
30161,-83.3333333333333,4,2,1,10,0,1
30885,-83.3333333333333,4,2,1,80,0,1
30989,-83.3333333333333,4,2,1,10,0,1
31713,-83.3333333333333,4,2,1,50,0,0
38333,-100,4,2,1,60,0,0
50747,-133.333333333333,4,2,1,50,0,0
51575,-83.3333333333333,4,2,1,80,0,1
64816,-83.3333333333333,4,2,1,70,0,0
78058,-111.111111111111,4,2,1,40,0,0
83851,-181.818181818181,4,2,1,25,0,0
84678,-83.3333333333333,4,2,1,80,0,1
91092,-83.3333333333333,4,2,1,80,0,0
91299,-83.3333333333333,4,2,1,80,0,1
104437,-83.3333333333333,4,2,1,80,0,0
104540,-83.3333333333333,4,2,1,80,0,1
117678,-83.3333333333333,4,2,1,80,0,0
117782,-83.3333333333333,4,2,1,60,0,1
119437,-83.3333333333333,4,2,1,55,0,1
121092,-83.3333333333333,4,2,1,50,0,1
122747,-83.3333333333333,4,2,1,45,0,1
124402,-83.3333333333333,4,2,1,40,0,0
127713,-133.333333333333,4,2,1,40,0,0

[Colours]
Combo1 : 191,143,209
Combo2 : 222,181,118
Combo3 : 181,233,141
Combo4 : 154,202,231

[HitObjects]
255,192,3575,5,0,0:0:0:0:
327,61,3885,1,0,1:0:0:0:
308,73,3989,2,0,L|218:63,1,90,0|0,1:0|3:0,0:0:0:0:
66,36,4402,2,0,B|102:22|102:22|136:56|116:111,1,135,0|0,1:0|3:0,0:0:0:0:
105,138,4816,1,0,1:0:0:0:
255,193,5023,1,0,1:0:0:0:
81,277,5230,6,0,P|110:244|154:234,1,90,4|2,3:2|0:0,0:0:0:0:
274,298,5644,1,2,1:2:0:0:
153,337,5851,1,0,1:0:0:0:
332,373,6058,1,2,0:2:0:0:
349,243,6265,2,0,P|349:198|342:153,1,90,2|0,3:2|1:0,0:0:0:0:
318,43,6678,1,2,0:2:0:0:
477,2,6885,6,0,P|491:46|437:115,1,135,0|0,3:0|0:0,0:0:0:0:
422,96,7299,2,0,L|427:185,1,90,2|0,1:2|3:0,0:0:0:0:
506,300,7713,5,2,1:2:0:0:
324,243,7920,1,0,3:0:0:0:
446,212,8127,5,2,1:2:0:0:
400,308,8333,1,0,0:0:0:0:
456,379,8540,5,2,3:2:0:0:
312,338,8747,2,0,L|251:349,1,45,2|0,0:2|0:0,0:0:0:0:
253,371,8954,1,0,1:0:0:0:
165,215,9161,1,2,1:2:0:0:
179,330,9368,6,0,L|183:224,1,90,2|0,0:2|3:0,0:0:0:0:
165,215,9678,1,2,0:2:0:0:
146,191,9782,2,0,L|153:101,1,90,2|2,1:2|0:2,0:0:0:0:
301,33,10196,6,0,B|226:34|256:81|178:76,1,135,2|0,0:2|0:0,0:0:0:0:
153,101,10609,1,2,1:2:0:0:
332,140,10816,2,0,L|323:50,1,90,2|0,1:2|0:0,0:0:0:0:
409,220,11230,2,0,B|366:207|335:170|335:170|309:208|262:222,1,180,2|0,3:2|0:0,0:0:0:0:
340,295,11851,5,0,3:0:0:0:
426,196,12058,1,2,0:2:0:0:
464,352,12265,2,0,L|454:294,1,45,2|0,1:2|0:0,0:0:0:0:
470,279,12471,1,2,1:2:0:0:
309,369,12678,2,0,L|289:235,1,135,2|0,0:2|0:0,0:0:0:0:
263,221,13092,1,2,1:2:0:0:
203,317,13299,1,2,0:2:0:0:
114,271,13506,6,0,L|24:279,1,90,0|2,3:0|0:2,0:0:0:0:
98,362,13920,1,2,1:2:0:0:
43,192,14127,1,2,1:2:0:0:
141,130,14333,2,0,P|205:144|251:192,1,135,2|0,0:2|0:0,0:0:0:0:
263,221,14747,1,2,1:2:0:0:
203,317,14954,1,2,0:2:0:0:
362,250,15161,6,0,L|347:161,1,90,0|2,3:0|0:2,0:0:0:0:
449,285,15575,1,2,1:2:0:0:
430,141,15782,2,0,P|373:75|289:92,1,180,2|2,1:2|3:2,0:0:0:0:
85,60,16402,1,2,1:2:0:0:
121,148,16609,2,0,P|163:120|173:103,1,45,2|0,0:2|0:0,0:0:0:0:
179,107,16816,5,0,3:0:0:0:
214,190,17023,1,2,0:2:0:0:
169,267,17230,1,2,0:2:0:0:
323,339,17644,6,0,B|189:354|189:354|165:328|181:286,1,202.500007724762,2|0,1:2|0:0,0:0:0:0:
318,246,18471,6,0,P|371:255|406:297,1,107.999996704102,6|0,3:2|0:0,0:0:0:0:
274,145,18885,2,0,P|259:171|239:187,1,53.9999983520508,2|0,1:2|0:0,0:0:0:0:
188,195,19092,2,0,P|214:194|240:185,1,53.9999983520508,0|0,1:0|0:0,0:0:0:0:
381,57,19299,2,0,P|364:107|383:157,1,107.999996704102,2|0,0:2|3:0,0:0:0:0:
405,294,19713,2,0,P|370:254|318:246,1,107.999996704102,2|0,1:2|0:0,0:0:0:0:
188,195,20127,1,0,3:0:0:0:
98,255,20333,6,0,B|71:210|71:210|84:153,1,107.999996704102,2|0,0:2|1:0,0:0:0:0:
200,295,20747,1,2,1:2:0:0:
183,161,20954,2,0,L|169:37,1,107.999996704102,2|0,0:2|3:0,0:0:0:0:
280,220,21368,2,0,B|371:217|325:161|424:160,1,161.999995056153,2|0,1:2|0:0,0:0:0:0:
446,140,21782,6,0,L|463:250,1,107.999996704102,2|0,3:2|0:0,0:0:0:0:
346,75,22196,1,2,1:2:0:0:
486,32,22402,1,0,1:0:0:0:
326,88,22609,2,0,L|214:72,1,107.999996704102,2|0,0:2|3:0,0:0:0:0:
88,36,23023,2,0,B|135:-1|135:-1|122:100,1,161.999995056153,2|0,1:2|0:0,0:0:0:0:
134,126,23437,1,0,3:0:0:0:
69,246,23644,6,0,P|116:221|169:229,1,107.999996704102,2|0,0:2|1:0,0:0:0:0:
262,258,24058,1,2,1:2:0:0:
86,350,24265,2,0,P|138:358|185:333,1,107.999996704102,2|0,0:2|3:0,0:0:0:0:
345,196,24678,2,0,P|272:187|263:260,1,161.999995056153,2|0,1:2|0:0,0:0:0:0:
280,283,25092,6,0,L|401:296,1,107.999996704102,2|0,3:2|0:0,0:0:0:0:
503,354,25506,2,0,L|488:279,1,53.9999983520508,2|0,1:2|0:0,0:0:0:0:
475,223,25713,2,0,L|485:275,1,53.9999983520508,0|0,1:2|0:0,0:0:0:0:
369,181,25920,2,0,L|394:13,1,161.999995056153,2|0,0:2|0:0,0:0:0:0:
364,39,26333,2,0,B|276:18|295:76|207:53,1,161.999995056153,2|0,1:2|0:0,0:0:0:0:
187,34,26747,1,0,3:0:0:0:
144,191,26954,6,0,P|187:160|240:163,1,107.999996704102,2|0,0:2|1:0,0:0:0:0:
212,249,27368,1,2,1:2:0:0:
102,102,27575,2,0,P|47:158|54:237,1,161.999995056153,2|0,0:2|0:0,0:0:0:0:
66,265,27989,2,0,L|42:382,1,107.999996704102,2|0,1:2|0:0,0:0:0:0:
215,368,28402,5,2,3:2:0:0:
139,323,28609,1,0,0:0:0:0:
288,305,28816,2,0,L|401:294,1,107.999996704102,2|0,1:2|1:0,0:0:0:0:
512,182,29230,2,0,B|443:148|399:187|399:187|433:220,1,161.999995056153,2|0,0:2|0:0,0:0:0:0:
447,237,29644,2,0,P|472:288|452:344,1,107.999996704102,2|0,1:2|0:0,0:0:0:0:
309,207,30058,6,0,L|319:154,1,53.9999983520508,2|0,3:2|0:0,0:0:0:0:
78,248,30885,6,0,L|57:199,1,53.9999983520508,2|0,3:2|0:0,0:0:0:0:
218,337,31713,6,0,L|196:223,1,107.999996704102,4|0,0:0|0:0,0:0:0:0:
174,218,32023,1,2,0:0:0:0:
174,218,32127,2,0,L|152:104,1,107.999996704102,2|2,1:2|1:2,0:0:0:0:
56,81,32540,5,2,0:2:0:0:
227,31,32747,1,2,3:2:0:0:
328,103,32954,5,0,1:2:0:0:
447,58,33161,2,0,P|410:129|403:209,1,161.999995056153,2|0,0:2|0:0,0:0:0:0:
420,236,33575,1,2,0:2:0:0:
339,357,33782,5,2,1:2:0:0:
512,351,33989,1,0,3:2:0:0:
501,237,34196,1,2,1:2:0:0:
331,244,34402,1,0,3:2:0:0:
237,300,34609,5,2,1:2:0:0:
279,139,34816,1,2,0:2:0:0:
153,239,35023,6,0,P|131:287|140:339,1,107.999996704102,0|2,3:0|0:2,0:0:0:0:
133,371,35333,1,2,0:2:0:0:
133,371,35437,2,0,L|8:386,1,107.999996704102,2|2,1:2|1:2,0:0:0:0:
237,301,35851,5,2,0:2:0:0:
65,175,36058,1,2,3:2:0:0:
127,87,36265,5,0,1:0:0:0:
153,239,36471,1,2,0:2:0:0:
0,256,36678,1,0,3:0:0:0:
242,166,36885,5,2,0:2:0:0:
242,166,37092,2,0,P|295:171|337:203,1,107.999996704102,2|0,1:2|3:0,0:0:0:0:
267,26,37506,2,0,P|205:78|126:86,1,161.999995056153,2|0,1:2|3:0,0:0:0:0:
101,78,37920,1,2,1:2:0:0:
107,98,38023,1,0,3:0:0:0:
110,119,38127,1,2,3:2:0:0:
0,256,38333,6,0,B|52:231|52:231|126:251,1,135,6|0,3:2|0:0,0:0:0:0:
153,239,38747,1,2,1:2:0:0:
149,366,38954,2,0,P|104:370|65:349,1,90,2|0,1:2|0:0,0:0:0:0:
237,308,39368,2,0,B|312:310|287:267|362:267,1,135,2|0,0:2|0:0,0:0:0:0:
382,288,39782,1,2,0:2:0:0:
243,220,39989,6,0,B|230:176|230:176|244:134,1,90,2|0,3:2|0:0,0:0:0:0:
341,6,40402,1,2,1:2:0:0:
419,37,40609,2,0,L|285:58,1,135,2|0,1:2|0:0,0:0:0:0:
256,44,41023,2,0,P|190:53|152:106,1,135,2|0,3:2|0:0,0:0:0:0:
155,137,41437,1,2,0:2:0:0:
265,242,41644,1,0,3:0:0:0:
363,203,41851,6,0,P|375:181|377:160,1,45,2|2,0:2|0:2,0:0:0:0:
366,133,42058,1,2,1:2:0:0:
349,307,42265,2,0,P|359:325|378:340,1,45,2|2,1:2|0:2,0:0:0:0:
408,344,42472,1,2,0:2:0:0:
265,242,42678,2,0,P|242:241|220:250,1,45,2|2,3:2|0:2,0:0:0:0:
204,275,42885,1,2,1:2:0:0:
433,262,43092,6,0,L|468:227,2,45,2|2|2,0:2|0:2|3:2,0:0:0:0:
265,242,43506,2,0,L|248:200,2,45,2|2|2,0:2|0:2|1:2,0:0:0:0:
365,191,43920,5,2,1:2:0:0:
365,191,44023,1,2,0:2:0:0:
365,191,44127,2,0,L|373:108,1,45,2|0,0:2|0:0,0:0:0:0:
295,11,44333,2,0,L|287:94,1,45,2|0,3:2|0:0,0:0:0:0:
398,134,44540,1,2,1:2:0:0:
260,67,44747,1,2,0:2:0:0:
437,44,44954,1,0,3:2:0:0:
235,150,45161,5,2,0:2:0:0:
169,89,45368,1,2,1:2:0:0:
195,4,45575,1,2,1:2:0:0:
217,166,45782,2,0,P|160:131|95:139,1,135,2|0,0:2|0:0,0:0:0:0:
78,121,46196,1,2,1:2:0:0:
140,225,46402,2,0,L|128:273,1,45,2|0,0:2|0:0,0:0:0:0:
138,301,46609,1,0,3:0:0:0:
39,291,46816,5,2,0:2:0:0:
232,245,47023,1,2,1:2:0:0:
330,305,47230,1,2,1:2:0:0:
381,375,47437,6,0,P|372:308|392:244,1,135,2|0,0:2|0:0,0:0:0:0:
416,230,47851,1,2,1:2:0:0:
274,143,48058,1,0,0:0:0:0:
390,55,48265,6,0,L|369:142,1,90,0|2,3:0|2:0,0:0:0:0:
288,22,48678,1,2,1:2:0:0:
499,14,48885,2,0,L|462:159,1,135,2|0,1:2|0:0,0:0:0:0:
476,172,49299,1,2,3:2:0:0:
376,279,49506,1,2,1:2:0:0:
475,337,49713,2,0,L|486:293,1,45,2|0,0:2|0:0,0:0:0:0:
477,264,49920,5,0,3:2:0:0:
376,279,50127,1,2,0:2:0:0:
275,291,50333,1,2,0:2:0:0:
104,139,50747,6,0,B|118:122|126:93|126:93|196:151|145:227,1,202.500007724762,2|0,1:2|0:0,0:0:0:0:
51,65,51575,6,0,P|107:11|181:33,1,161.999995056153,6|0,3:2|0:0,0:0:0:0:
211,40,51989,2,0,L|277:19,1,53.9999983520508,2|0,1:2|0:0,0:0:0:0:
330,91,52196,2,0,L|278:107,1,53.9999983520508,0|0,1:0|0:0,0:0:0:0:
262,198,52402,2,0,P|211:183|186:137,1,107.999996704102,2|0,0:2|3:0,0:0:0:0:
389,169,52816,2,0,P|428:134|432:82,1,107.999996704102,2|0,1:2|0:0,0:0:0:0:
343,258,53230,1,0,3:0:0:0:
456,364,53437,6,0,L|436:257,1,107.999996704102,2|0,0:2|1:0,0:0:0:0:
502,190,53851,1,2,1:2:0:0:
356,345,54058,2,0,B|267:355|294:291|205:300,1,161.999995056153,2|0,0:2|0:0,0:0:0:0:
189,323,54471,2,0,P|165:275|180:224,1,107.999996704102,2|0,1:2|0:0,0:0:0:0:
213,104,54885,6,0,P|163:124|110:120,1,107.999996704102,2|0,3:2|0:0,0:0:0:0:
71,203,55299,1,2,1:2:0:0:
275,177,55506,1,0,1:0:0:0:
48,225,55713,2,0,L|29:109,1,107.999996704102,2|0,0:2|3:0,0:0:0:0:
123,40,56127,2,0,B|168:32|196:3|196:3|224:24|270:26,1,161.999995056153,2|0,1:2|0:0,0:0:0:0:
298,37,56540,1,0,3:0:0:0:
432,5,56747,6,0,P|407:53|407:107,1,107.999996704102,2|0,0:2|1:0,0:0:0:0:
330,158,57161,1,2,1:2:0:0:
505,86,57368,2,0,P|504:139|480:187,1,107.999996704102,2|0,0:2|3:0,0:0:0:0:
502,345,57782,2,0,P|449:288|370:289,1,161.999995056153,2|0,1:2|0:0,0:0:0:0:
351,316,58196,6,0,L|243:325,1,107.999996704102,2|0,3:2|0:0,0:0:0:0:
147,363,58609,2,0,L|141:309,1,53.9999983520508,2|0,1:2|0:0,0:0:0:0:
135,255,58816,2,0,L|140:308,1,53.9999983520508,0|0,1:2|0:0,0:0:0:0:
50,383,59023,2,0,B|21:297|69:313|43:223,1,161.999995056153,2|0,0:2|0:0,0:0:0:0:
50,186,59437,2,0,P|2:151|27:217,1,161.999995056153,2|0,1:2|0:0,0:0:0:0:
43,224,59851,1,0,3:0:0:0:
176,162,60058,6,0,P|228:169|270:202,1,107.999996704102,2|0,0:2|1:0,0:0:0:0:
193,256,60471,1,2,1:2:0:0:
156,73,60678,2,0,P|242:75|322:141,1,161.999995056153,2|0,0:2|0:0,0:0:0:0:
318,143,61092,2,0,P|384:120|384:82,1,107.999996704102,2|0,1:2|0:0,0:0:0:0:
494,23,61506,6,0,L|511:147,1,107.999996704102,2|0,3:2|0:0,0:0:0:0:
496,262,61920,1,2,1:2:0:0:
477,117,62127,1,0,1:0:0:0:
476,291,62333,2,0,P|414:314|373:339,1,107.999996704102,2|0,0:2|3:0,0:0:0:0:
228,340,62747,2,0,P|270:304|194:274,1,161.999995056153,2|0,1:2|0:0,0:0:0:0:
182,256,63161,6,0,P|184:229|191:203,1,53.9999983520508,2|0,3:2|0:0,0:0:0:0:
250,142,63368,1,0,0:2:0:0:
263,145,63575,1,0,0:2:0:0:
275,148,63782,1,0,0:2:0:0:
152,14,63989,6,0,P|149:40|142:66,1,53.9999983520508,2|0,3:2|0:0,0:0:0:0:
75,111,64196,1,0,0:0:0:0:
61,108,64402,1,0,0:0:0:0:
361,55,64816,5,6,3:2:0:0:
386,63,64920,1,2,0:0:0:0:
408,78,65023,2,0,P|437:130|434:186,1,107.999996704102,2|2,0:0|1:2,0:0:0:0:
454,198,65333,1,2,0:0:0:0:
454,198,65437,2,0,L|452:277,1,53.9999983520508,2|0,1:2|0:0,0:0:0:0:
470,344,65644,1,2,0:2:0:0:
444,336,65747,1,2,0:0:0:0:
417,328,65851,1,2,3:2:0:0:
309,249,66058,1,2,1:2:0:0:
282,257,66162,1,2,0:2:0:0:
256,265,66265,1,2,0:2:0:0:
106,350,66471,5,2,3:2:0:0:
92,326,66575,1,2,0:0:0:0:
93,293,66678,2,0,P|108:241|95:189,1,107.999996704102,2|2,0:0|1:2,0:0:0:0:
71,172,66989,1,2,0:2:0:0:
39,176,67092,2,0,P|22:197|15:224,1,53.9999983520508,2|0,1:2|0:0,0:0:0:0:
137,114,67299,1,2,0:2:0:0:
155,87,67402,1,2,0:2:0:0:
157,54,67506,1,2,3:2:0:0:
221,201,67713,5,2,1:2:0:0:
250,187,67816,1,2,0:2:0:0:
282,183,67920,1,2,0:2:0:0:
313,189,68023,1,2,0:2:0:0:
340,205,68127,2,0,L|402:196,1,53.9999983520508,2|2,3:2|0:2,0:0:0:0:
283,277,68333,1,2,0:2:0:0:
268,95,68540,5,0,1:2:0:0:
274,74,68644,1,2,0:2:0:0:
282,51,68747,2,0,L|300:-7,1,53.9999983520508,2|2,1:2|0:2,0:0:0:0:
372,76,68954,2,0,L|416:34,2,53.9999983520508,2|2|2,0:0|0:2|3:2,0:0:0:0:
494,197,69368,5,2,1:2:0:0:
488,218,69472,1,2,0:2:0:0:
480,241,69575,2,0,L|462:299,1,53.9999983520508,2|2,0:2|0:2,0:0:0:0:
393,197,69782,2,0,L|348:238,2,53.9999983520508,2|2|2,3:2|0:2|0:2,0:0:0:0:
219,252,70196,6,0,L|231:322,1,53.9999983520508,2|2,1:2|0:2,0:0:0:0:
142,321,70402,2,0,L|132:267,1,53.9999983520508,2|2,1:2|0:2,0:0:0:0:
308,317,70609,2,0,P|297:347|279:367,1,53.9999983520508,2|2,0:2|0:2,0:0:0:0:
49,274,70816,2,0,P|56:221|97:187,1,107.999996704102,2|2,3:2|1:2,0:0:0:0:
112,165,71127,1,2,0:2:0:0:
112,165,71230,2,0,P|85:129|79:113,1,53.9999983520508,2|2,0:2|0:2,0:0:0:0:
112,31,71437,5,6,3:2:0:0:
138,28,71540,1,2,0:0:0:0:
165,26,71644,2,0,B|217:23|209:56|270:48,1,107.999996704102,2|2,0:0|1:2,0:0:0:0:
290,63,71954,1,2,0:0:0:0:
290,63,72058,2,0,P|328:23|370:23,1,53.9999983520508,2|0,1:2|0:0,0:0:0:0:
437,29,72265,1,2,0:2:0:0:
459,44,72368,1,2,0:0:0:0:
474,65,72471,1,2,3:2:0:0:
369,182,72678,2,0,L|378:116,2,53.9999983520508,2|2|2,1:2|0:2|0:2,0:0:0:0:
484,257,73092,6,0,P|429:286|419:302,1,53.9999983520508,2|2,3:2|0:0,0:0:0:0:
430,310,73299,1,2,0:0:0:0:
254,225,73506,2,0,L|268:302,1,53.9999983520508,2|2,1:2|0:2,0:0:0:0:
247,308,73713,2,0,P|222:296|196:296,1,53.9999983520508,2|0,1:2|0:0,0:0:0:0:
170,281,73920,1,2,0:2:0:0:
145,293,74023,1,2,0:2:0:0:
118,299,74127,1,2,3:2:0:0:
33,345,74333,5,2,1:2:0:0:
21,314,74437,1,2,0:2:0:0:
21,281,74540,1,2,0:2:0:0:
30,250,74644,1,2,0:2:0:0:
50,224,74747,2,0,L|38:163,1,53.9999983520508,2|2,3:2|0:2,0:0:0:0:
125,94,74954,2,0,L|135:146,1,53.9999983520508,2|0,0:2|0:0,0:0:0:0:
77,30,75161,1,0,1:2:0:0:
101,18,75265,1,2,0:2:0:0:
127,14,75368,2,0,P|153:13|178:3,1,53.9999983520508,2|2,1:2|0:2,0:0:0:0:
268,53,75575,5,2,0:0:0:0:
289,57,75678,1,2,0:2:0:0:
304,72,75782,1,2,3:2:0:0:
310,92,75885,2,0,L|298:228,1,107.999996704102,2|2,0:0|0:2,0:0:0:0:
318,222,76196,2,0,L|376:209,1,53.9999983520508,2|2,0:2|0:2,0:0:0:0:
483,293,76402,5,2,3:2:0:0:
475,313,76506,1,2,0:2:0:0:
467,333,76609,2,0,L|409:320,1,53.9999983520508,2|2,0:2|0:0,0:0:0:0:
261,269,76816,2,0,L|319:256,1,53.9999983520508,2|2,1:2|0:2,0:0:0:0:
446,167,77023,2,0,L|388:180,1,53.9999983520508,2|2,1:2|0:2,0:0:0:0:
227,344,77230,6,0,P|173:288|198:214,1,161.999995056153,2|0,0:2|0:0,0:0:0:0:
275,155,77644,2,0,B|228:165|200:186|200:186|182:153|142:133,1,161.999995056153,2|0,1:2|0:0,0:0:0:0:
114,144,78058,5,2,0:0:0:0:
114,144,78265,1,2,0:0:0:0:
32,195,78678,5,2,0:0:0:0:
108,59,78885,1,2,0:0:0:0:
200,185,79092,1,2,0:0:0:0:
114,144,79299,1,2,0:0:0:0:
290,62,79713,5,0,0:0:0:0:
357,118,79920,2,0,P|379:84|380:44,1,80.9999975280763,2|0,0:0|0:0,0:0:0:0:
272,147,80333,1,2,0:0:0:0:
386,207,80540,2,0,P|423:192|446:159,1,80.9999975280763,2|0,0:0|0:0,0:0:0:0:
296,315,80954,6,0,P|271:283|234:268,1,80.9999975280763,2|2,0:0|0:0,0:0:0:0:
206,280,81265,1,2,0:0:0:0:
206,280,81368,1,2,0:0:0:0:
113,350,81575,2,0,L|98:229,1,121.499996292114,2|0,0:0|0:0,0:0:0:0:
77,212,81989,1,2,0:0:0:0:
93,374,82196,1,2,0:0:0:0:
0,300,82402,1,2,0:0:0:0:
125,288,82609,2,0,L|205:279,1,80.9999975280763,2|0,0:0|0:0,0:0:0:0:
310,340,83023,5,0,0:0:0:0:
303,326,83230,1,2,0:0:0:0:
387,248,83644,1,2,0:0:0:0:
379,261,83851,2,2,P|345:181|350:96,1,173.250005287171,2|0,0:0|0:1,0:1:0:0:
366,69,84678,6,0,P|270:94|233:28,1,161.999995056153,6|0,3:2|0:0,0:0:0:0:
156,53,85092,2,0,L|208:39,1,53.9999983520508,2|0,1:2|0:0,0:0:0:0:
122,139,85299,1,0,1:0:0:0:
6,37,85506,2,0,B|56:106|-11:113|45:188,1,161.999995056153,2|0,0:2|0:0,0:0:0:0:
42,216,85920,2,0,P|58:266|61:322,1,107.999996704102,2|0,1:2|0:0,0:0:0:0:
193,366,86333,5,0,3:0:0:0:
201,234,86540,2,0,L|178:355,1,107.999996704102,2|0,0:2|1:0,0:0:0:0:
285,311,86954,1,2,1:2:0:0:
142,162,87161,2,0,P|216:139|277:188,1,161.999995056153,2|0,0:2|0:0,0:0:0:0:
301,200,87575,2,0,L|416:189,1,107.999996704102,2|0,1:2|0:0,0:0:0:0:
489,256,87989,5,2,3:2:0:0:
405,290,88196,1,0,0:0:0:0:
399,93,88402,5,2,1:2:0:0:
483,127,88609,1,0,1:0:0:0:
421,4,88816,2,0,P|367:3|323:33,1,107.999996704102,2|0,0:2|3:0,0:0:0:0:
251,107,89230,2,0,P|189:95|158:7,1,161.999995056153,2|0,1:2|0:0,0:0:0:0:
183,10,89644,5,2,3:2:0:0:
264,128,89851,2,0,L|239:262,1,107.999996704102,2|0,0:2|1:0,0:0:0:0:
280,313,90265,2,0,B|230:270|230:270|192:304|142:302,1,161.999995056153,2|0,1:2|0:0,0:0:0:0:
118,294,90678,5,0,3:0:0:0:
296,333,90885,1,0,1:0:0:0:
147,211,91092,1,0,3:0:0:0:
35,346,91299,6,0,P|16:296|32:245,1,107.999996704102,6|0,3:2|0:0,0:0:0:0:
227,250,91713,2,0,P|212:276|192:292,1,53.9999983520508,2|0,1:2|0:0,0:0:0:0:
142,302,91920,2,0,P|168:301|194:292,1,53.9999983520508,0|0,1:2|0:0,0:0:0:0:
123,171,92127,2,0,P|87:133|35:124,1,107.999996704102,2|0,0:2|3:0,0:0:0:0:
32,245,92540,2,0,P|16:296|35:346,1,107.999996704102,2|0,1:2|0:0,0:0:0:0:
142,302,92954,1,0,3:0:0:0:
150,158,93161,6,0,L|162:45,1,107.999996704102,2|0,0:2|1:0,0:0:0:0:
63,115,93575,1,2,1:2:0:0:
247,89,93782,2,0,B|339:81|308:144|396:131,1,161.999995056153,2|0,0:2|0:0,0:0:0:0:
420,152,94196,2,0,P|444:100|421:59,1,107.999996704102,2|0,1:2|0:0,0:0:0:0:
267,179,94609,6,0,L|288:302,1,107.999996704102,2|0,3:2|0:0,0:0:0:0:
231,368,95023,1,2,1:2:0:0:
379,289,95230,1,0,1:0:0:0:
202,362,95437,2,0,P|157:326|168:274,1,107.999996704102,2|0,0:2|3:0,0:0:0:0:
42,180,95851,2,0,B|85:215|85:215|60:262|64:319,1,161.999995056153,2|0,1:2|0:0,0:0:0:0:
68,343,96265,5,0,3:2:0:0:
180,257,96471,2,0,L|171:149,1,107.999996704102,2|0,0:2|1:2,0:0:0:0:
109,84,96885,1,2,1:2:0:0:
257,139,97092,2,0,P|300:108|310:57,1,107.999996704102,2|0,0:2|3:0,0:0:0:0:
239,0,97506,2,0,P|316:17|430:26,1,161.999995056153,2|0,1:2|0:0,0:0:0:0:
419,47,97920,6,0,P|472:38|527:10,1,107.999996704102,2|0,3:2|0:2,0:0:0:0:
477,172,98333,1,2,1:2:0:0:
327,132,98540,1,0,1:2:0:0:
493,194,98747,2,0,P|446:233|421:324,1,107.999996704102,2|0,0:2|3:0,0:0:0:0:
350,352,99161,2,0,P|297:292|219:279,1,161.999995056153,2|0,1:2|0:0,0:0:0:0:
198,296,99575,1,0,3:2:0:0:
90,347,99782,6,0,L|97:233,1,107.999996704102,2|0,0:2|1:2,0:0:0:0:
161,154,100196,1,2,1:2:0:0:
20,189,100402,2,0,L|32:21,1,161.999995056153,2|0,0:2|0:0,0:0:0:0:
53,7,100816,2,0,P|114:25|167:18,1,107.999996704102,2|0,1:2|0:0,0:0:0:0:
309,65,101230,6,0,B|269:100|269:100|273:154,1,107.999996704102,2|0,3:2|0:2,0:0:0:0:
126,241,101644,2,0,B|176:258|176:258|221:227,1,107.999996704102,2|0,1:2|1:2,0:0:0:0:
370,312,102058,2,0,B|359:259|359:259|310:236,1,107.999996704102,2|0,0:2|3:0,0:0:0:0:
467,353,102471,2,0,L|441:193,1,161.999995056153,2|0,1:2|0:0,0:0:0:0:
454,169,102885,5,2,3:2:0:0:
463,28,103092,2,0,P|421:60|368:61,1,107.999996704102,2|0,0:2|1:2,0:0:0:0:
294,135,103506,1,2,1:2:0:0:
181,37,103713,6,0,L|198:198,1,161.999995056153,2|0,1:2|3:0,0:0:0:0:
210,224,104126,1,2,1:2:0:0:
178,218,104229,1,0,3:0:0:0:
149,233,104333,1,0,3:0:0:0:
134,261,104436,1,0,3:0:0:0:
137,293,104540,6,0,P|134:346|51:328,1,161.999995056153,6|0,3:2|0:0,0:0:0:0:
28,345,104954,2,0,L|9:272,1,53.9999983520508,2|0,1:2|0:0,0:0:0:0:
51,191,105161,1,0,1:2:0:0:
0,87,105368,2,0,P|51:74|103:90,1,107.999996704102,2|0,0:2|3:0,0:0:0:0:
229,96,105782,2,0,P|213:147|174:183,1,107.999996704102,2|0,1:2|0:0,0:0:0:0:
51,191,106196,1,0,3:2:0:0:
142,299,106402,6,0,P|191:297|249:284,1,107.999996704102,2|0,0:2|1:2,0:0:0:0:
360,363,106816,1,2,1:2:0:0:
434,281,107023,2,0,B|431:193|389:222|383:130,1,161.999995056153,2|0,0:2|0:0,0:0:0:0:
401,103,107437,2,0,P|466:109|469:140,1,107.999996704102,2|0,1:2|0:0,0:0:0:0:
304,32,107851,6,0,P|247:59|196:66,1,107.999996704102,2|0,3:2|0:2,0:0:0:0:
56,16,108265,2,0,L|76:72,1,53.9999983520508,2|0,1:2|0:0,0:0:0:0:
121,121,108471,2,0,L|102:70,1,53.9999983520508,0|0,1:2|0:0,0:0:0:0:
52,186,108678,2,0,L|39:338,1,107.999996704102,0|0,0:0|3:2,0:0:0:0:
145,355,109092,2,0,B|261:334|261:334|269:315|253:290,1,161.999995056153,2|0,1:2|0:0,0:0:0:0:
230,282,109506,1,0,3:2:0:0:
346,225,109713,6,0,P|383:273|383:324,1,107.999996704102,2|0,0:2|1:2,0:0:0:0:
252,189,110127,1,2,1:2:0:0:
401,136,110333,2,0,L|413:0,1,107.999996704102,2|0,0:2|3:0,0:0:0:0:
268,100,110747,2,0,B|167:101|211:146|116:144,1,161.999995056153,2|0,1:2|0:0,0:0:0:0:
99,162,111161,6,0,B|77:111|77:111|78:58,1,107.999996704102,2|0,3:2|0:2,0:0:0:0:
252,189,111575,2,0,L|247:247,1,53.9999983520508,2|0,1:2|0:0,0:0:0:0:
263,264,111782,2,0,L|258:322,1,53.9999983520508,0|0,1:2|0:0,0:0:0:0:
325,373,111989,1,2,0:2:0:0:
169,327,112196,1,0,3:0:0:0:
370,295,112402,2,0,P|424:279|411:177,1,161.999995056153,2|0,1:2|0:0,0:0:0:0:
395,193,112816,1,0,3:2:0:0:
475,106,113023,6,0,L|466:-1,1,107.999996704102,2|0,0:2|1:2,0:0:0:0:
301,91,113437,1,2,1:2:0:0:
383,81,113644,2,0,P|348:20|249:22,1,161.999995056153,2|0,0:2|0:0,0:0:0:0:
239,23,114058,2,0,P|184:21|131:9,1,107.999996704102,2|0,1:2|0:0,0:0:0:0:
110,118,114471,5,2,3:2:0:0:
8,33,114678,1,0,0:2:0:0:
125,138,114885,2,0,L|104:261,1,107.999996704102,2|0,1:2|1:2,0:0:0:0:
38,328,115299,2,0,P|91:328|137:354,1,107.999996704102,2|0,0:2|3:0,0:0:0:0:
267,334,115713,2,0,P|207:284|219:208,1,161.999995056153,2|0,1:2|0:0,0:0:0:0:
246,209,116127,1,0,3:2:0:0:
361,263,116333,2,0,P|354:209|355:155,1,107.999996704102,2|0,0:2|1:2,0:0:0:0:
489,214,116747,1,2,1:2:0:0:
455,318,116954,1,2,3:2:0:0:
447,109,117161,5,0,3:0:0:0:
378,31,117368,1,2,1:2:0:0:
490,15,117575,1,0,3:0:0:0:
355,155,117782,6,0,L|238:128,1,107.999996704102,6|0,3:2|0:2,0:0:0:0:
79,79,118196,2,0,L|141:65,1,53.9999983520508,2|0,1:2|0:0,0:0:0:0:
184,55,118402,2,0,L|131:66,1,53.9999983520508,0|0,1:2|0:0,0:0:0:0:
151,165,118609,2,0,P|190:205|184:269,1,107.999996704102,2|0,0:2|3:0,0:0:0:0:
39,314,119023,2,0,P|0:274|6:210,1,107.999996704102,2|0,1:2|0:0,0:0:0:0:
92,239,119437,1,0,3:2:0:0:
231,343,119644,6,0,L|349:318,1,107.999996704102,2|0,0:2|1:2,0:0:0:0:
488,340,120058,1,2,1:2:0:0:
423,269,120265,2,0,L|437:107,1,161.999995056153,2|0,0:2|0:0,0:0:0:0:
418,85,120678,2,0,P|353:101|337:153,1,107.999996704102,2|0,1:2|0:0,0:0:0:0:
255,251,121092,6,0,B|253:185|253:185|237:155|237:155|234:90,1,161.999995056153,2|0,3:2|0:0,0:0:0:0:
252,70,121506,1,2,1:2:0:0:
66,9,121713,1,0,1:2:0:0:
37,108,121920,2,0,L|142:86,1,107.999996704102,2|0,0:2|3:0,0:0:0:0:
135,264,122333,2,0,P|77:210|0:220,1,161.999995056153,2|0,1:2|0:0,0:0:0:0:
1,249,122747,1,0,3:2:0:0:
104,357,122954,6,0,L|220:338,1,107.999996704102,2|0,0:2|1:2,0:0:0:0:
255,269,123368,1,2,1:2:0:0:
366,334,123575,1,2,0:2:0:0:
373,216,123782,1,0,3:0:0:0:
387,358,123989,2,0,L|396:196,1,161.999995056153,2|0,1:2|0:0,0:0:0:0:
405,111,124402,5,2,3:2:0:0:
256,194,124816,2,0,L|147:217,1,107.999996704102,2|0,0:2|0:0,0:0:0:0:
184,125,125230,1,2,1:2:0:0:
224,286,125437,1,0,0:0:0:0:
195,98,125644,1,2,0:2:0:0:
133,20,125851,6,0,P|86:72|95:127,1,107.999996704102,2|0,0:2|0:0,0:0:0:0:
6,175,126265,2,0,P|53:227|44:282,1,107.999996704102,2|0,3:2|0:0,0:0:0:0:
110,332,126678,1,2,3:2:0:0:
255,192,126885,1,2,1:2:0:0:
381,344,127299,1,2,0:2:0:0:
207,253,127713,6,0,L|215:118,1,135.000005149842,2|2,3:2|0:2,0:0:0:0:
161,50,128333,1,2,0:2:0:0:
347,135,128540,2,0,P|398:94|403:29,1,135.000005149842,2|2,1:2|0:2,0:0:0:0:
317,53,129161,1,2,0:2:0:0:
453,272,129575,6,0,L|478:352,1,67.5000025749208,0|2,3:0|0:2,0:0:0:0:
378,217,129989,1,0,3:2:0:0:
360,300,130196,2,0,L|385:380,1,67.5000025749208,2|0,1:2|0:2,0:0:0:0:
246,273,131023,6,0,B|131:268|177:336|57:327,1,202.500007724762,2|2,3:2|0:2,0:0:0:0:
84,246,131851,1,0,1:0:0:0:
301,57,132885,6,0,L|311:151,1,67.5000025749208,0|0,3:0|0:0,0:0:0:0:
213,102,133299,1,0,3:0:0:0:
394,83,133506,1,0,1:0:0:0:
190,123,133920,1,2,0:0:0:0:
463,205,134333,6,0,P|416:220|381:309,1,135.000005149842,0|2,3:0|0:0,0:0:0:0:
470,293,134954,1,2,0:0:0:0:
303,239,135161,1,0,1:0:0:0:
80,328,136196,2,0,L|64:241,1,67.5000025749208,0|2,3:0|0:0,0:0:0:0:
103,186,136609,1,2,3:2:0:0:
181,312,136816,2,0,L|168:245,1,67.5000025749208,2|0,1:2|0:0,0:0:0:0:
69,48,137644,6,0,B|217:62|217:62|231:46|221:8,1,202.500007724762,0|2,3:0|0:0,0:0:0:0:
145,89,138471,1,2,1:2:0:0:
404,91,139506,2,0,L|325:108,1,67.5000025749208,2|0,3:2|0:0,0:0:0:0:
465,162,139920,1,2,3:2:0:0:
403,226,140127,1,2,1:2:0:0:
494,63,140540,1,2,0:2:0:0:
484,280,140954,6,0,P|434:305|354:306,1,135.000005149842,2|2,3:2|0:2,0:0:0:0:
249,169,141782,1,2,1:2:0:0:
89,376,142816,6,0,L|93:297,1,67.5000025749208,0|0,3:0|0:0,0:0:0:0:
41,235,143230,1,2,3:2:0:0:
186,373,143437,2,0,B|215:217|118:267|143:114,1,270.000010299683,0|2,1:0|0:2,0:0:0:0:
