osu file format v14

[General]
AudioFilename: audio.mp3
AudioLeadIn: 0
PreviewTime: 50013
Countdown: 0
SampleSet: Normal
StackLeniency: 0.7
Mode: 1
LetterboxInBreaks: 0
WidescreenStoryboard: 0

[Editor]
Bookmarks: 18461,31703,38323,51565,78048,84668,104530,117772
DistanceSpacing: 2.2
BeatDivisor: 1
GridSize: 32
TimelineZoom: 1

[Metadata]
Title:Cabo
TitleUnicode:Cabo
Artist:Ricky Montgomery
ArtistUnicode:Ricky Montgomery
Creator:Faputa
Version:Kantan
Source:osu!
Tags:rock English featured artist mappers' guild fa mg
BeatmapID:2224720
BeatmapSetID:1062285

[Difficulty]
HPDrainRate:7.5
CircleSize:2
OverallDifficulty:3
ApproachRate:10
SliderMultiplier:1.4
SliderTickRate:1

[Events]
//Background and Video events
0,0,"cabo.jpg",0,-60
//Break Periods
2,78248,84218
2,127902,143804
//Storyboard Layer 0 (Background)
//Storyboard Layer 1 (Fail)
//Storyboard Layer 2 (Pass)
//Storyboard Layer 3 (Foreground)
//Storyboard Layer 4 (Overlay)
//Storyboard Sound Samples

[TimingPoints]
255,413.793103448276,4,1,0,90,1,0
5220,413.793103448276,4,1,0,90,1,0
77841,-105.263157894737,4,1,0,70,0,0
84461,-100,4,1,0,90,0,0
104530,-95.2380952380952,4,1,0,95,0,1
117771,-100,4,1,0,90,0,0
127703,-100,4,1,0,85,0,0
143841,-111.111111111111,4,2,0,30,0,0
144461,-111.111111111111,4,2,0,25,0,0
144668,-111.111111111111,4,2,0,20,0,0
144875,-111.111111111111,4,2,0,15,0,0
145082,-111.111111111111,4,2,0,10,0,0
145289,-111.111111111111,4,2,0,5,0,0

[HitObjects]
256,192,3565,5,0,0:0:0:0:
256,192,3979,1,8,0:0:0:0:
256,192,4392,1,8,0:0:0:0:
256,192,5220,1,4,0:0:0:0:
256,192,6047,1,8,0:0:0:0:
256,192,7288,1,0,0:0:0:0:
256,192,7702,1,8,0:0:0:0:
256,192,8530,1,8,0:0:0:0:
256,192,9358,1,0,0:0:0:0:
256,192,10185,1,8,0:0:0:0:
256,192,11840,1,8,0:0:0:0:
256,192,12668,1,8,0:0:0:0:
256,192,13495,1,0,0:0:0:0:
256,192,14323,1,8,0:0:0:0:
256,192,14737,1,8,0:0:0:0:
256,192,15151,1,0,0:0:0:0:
256,192,15978,1,0,0:0:0:0:
256,192,16806,1,8,0:0:0:0:
256,192,17634,1,12,0:0:0:0:
256,192,18461,1,4,0:0:0:0:
256,192,19289,1,8,0:0:0:0:
256,192,19703,1,8,0:0:0:0:
256,192,20944,1,0,0:0:0:0:
256,192,21358,1,8,0:0:0:0:
256,192,21772,1,0,0:0:0:0:
256,192,22599,1,8,0:0:0:0:
256,192,23013,1,8,0:0:0:0:
256,192,24254,1,0,0:0:0:0:
256,192,24668,1,0,0:0:0:0:
256,192,25082,1,8,0:0:0:0:
256,192,25909,1,0,0:0:0:0:
256,192,26323,1,8,0:0:0:0:
256,192,27564,1,8,0:0:0:0:
256,192,27979,1,8,0:0:0:0:
256,192,28392,1,0,0:0:0:0:
256,192,29220,1,8,0:0:0:0:
256,192,30048,1,8,0:0:0:0:
256,192,30875,1,0,0:0:0:0:
256,192,31703,1,12,0:0:0:0:
256,192,33357,1,0,0:0:0:0:
256,192,34186,1,8,0:0:0:0:
256,192,34599,1,8,0:0:0:0:
256,192,35013,1,0,0:0:0:0:
256,192,35840,1,8,0:0:0:0:
256,192,37082,1,0,0:0:0:0:
256,192,37495,1,8,0:0:0:0:
256,192,37910,1,8,0:0:0:0:
256,192,38323,1,4,0:0:0:0:
256,192,39979,1,0,0:0:0:0:
256,192,41633,1,0,0:0:0:0:
256,192,42047,1,8,0:0:0:0:
256,192,42875,1,8,0:0:0:0:
256,192,43703,1,8,0:0:0:0:
256,192,44117,1,0,0:0:0:0:
256,192,44530,1,8,0:0:0:0:
256,192,45358,1,8,0:0:0:0:
256,192,46185,1,0,0:0:0:0:
256,192,46599,1,8,0:0:0:0:
256,192,47840,1,8,0:0:0:0:
256,192,48254,1,0,0:0:0:0:
256,192,49082,1,0,0:0:0:0:
256,192,49909,1,0,0:0:0:0:
256,192,50737,1,12,0:0:0:0:
256,192,51564,1,4,0:0:0:0:
256,192,53220,1,8,0:0:0:0:
256,192,54047,1,0,0:0:0:0:
256,192,54462,1,8,0:0:0:0:
256,192,54876,1,0,0:0:0:0:
256,192,55703,1,8,0:0:0:0:
256,192,56117,1,8,0:0:0:0:
256,192,57357,1,0,0:0:0:0:
256,192,57772,1,0,0:0:0:0:
256,192,58186,1,8,0:0:0:0:
256,192,59013,1,0,0:0:0:0:
256,192,59427,1,8,0:0:0:0:
256,192,60668,1,8,0:0:0:0:
256,192,61082,1,8,0:0:0:0:
256,192,61496,1,0,0:0:0:0:
256,192,62323,1,8,0:0:0:0:
256,192,63152,1,8,0:0:0:0:
256,192,63979,1,0,0:0:0:0:
256,192,64806,1,12,0:0:0:0:
256,192,65634,1,8,0:0:0:0:
256,192,66461,1,0,0:0:0:0:
256,192,67288,1,8,0:0:0:0:
256,192,67702,1,8,0:0:0:0:
256,192,68530,1,0,0:0:0:0:
256,192,69357,1,0,0:0:0:0:
256,192,69772,1,8,0:0:0:0:
256,192,70599,1,0,0:0:0:0:
256,192,71013,1,8,0:0:0:0:
256,192,71427,1,4,0:0:0:0:
256,192,72255,1,8,0:0:0:0:
256,192,73082,1,0,0:0:0:0:
256,192,73909,1,8,0:0:0:0:
256,192,75151,1,8,0:0:0:0:
256,192,75979,1,8,0:0:0:0:
256,192,76392,1,0,0:0:0:0:
256,192,77220,1,8,0:0:0:0:
256,192,77633,1,8,0:0:0:0:
256,192,78048,1,0,0:0:0:0:
256,192,84668,5,4,0:0:0:0:
256,192,85496,1,8,0:0:0:0:
256,192,85910,1,8,0:0:0:0:
256,192,87151,1,0,0:0:0:0:
256,192,87565,1,8,0:0:0:0:
256,192,87979,1,0,0:0:0:0:
256,192,88806,1,8,0:0:0:0:
256,192,89220,1,8,0:0:0:0:
256,192,89634,1,0,0:0:0:0:
256,192,91289,1,12,0:0:0:0:
256,192,92116,1,0,0:0:0:0:
256,192,92530,1,0,0:0:0:0:
256,192,93771,1,8,0:0:0:0:
256,192,94186,1,8,0:0:0:0:
256,192,94599,1,0,0:0:0:0:
256,192,95427,1,8,0:0:0:0:
256,192,95841,1,0,0:0:0:0:
256,192,97082,1,8,0:0:0:0:
256,192,97495,1,0,0:0:0:0:
256,192,97910,1,8,0:0:0:0:
256,192,98737,1,0,0:0:0:0:
256,192,99151,1,8,0:0:0:0:
256,192,100392,1,0,0:0:0:0:
256,192,100806,1,8,0:0:0:0:
256,192,101220,1,0,0:0:0:0:
256,192,102047,1,8,0:0:0:0:
256,192,102461,1,8,0:0:0:0:
256,192,102875,1,0,0:0:0:0:
256,192,103702,1,8,0:0:0:0:
256,192,104530,1,12,0:0:0:0:
256,192,105358,1,0,0:0:0:0:
256,192,105772,1,8,0:0:0:0:
256,192,107013,1,8,0:0:0:0:
256,192,107426,1,0,0:0:0:0:
256,192,107840,1,8,0:0:0:0:
256,192,108668,1,0,0:0:0:0:
256,192,109082,1,8,0:0:0:0:
256,192,110324,1,8,0:0:0:0:
256,192,110737,1,8,0:0:0:0:
256,192,111151,1,0,0:0:0:0:
256,192,111978,1,8,0:0:0:0:
256,192,112392,1,8,0:0:0:0:
256,192,113633,1,0,0:0:0:0:
256,192,114047,1,0,0:0:0:0:
256,192,114461,1,8,0:0:0:0:
256,192,115289,1,0,0:0:0:0:
256,192,115702,1,8,0:0:0:0:
256,192,116116,1,0,0:0:0:0:
256,192,117357,1,12,0:0:0:0:
256,192,117771,1,4,0:0:0:0:
256,192,119426,1,0,0:0:0:0:
256,192,120255,1,8,0:0:0:0:
256,192,120668,1,8,0:0:0:0:
256,192,121082,1,0,0:0:0:0:
256,192,121909,1,8,0:0:0:0:
256,192,122737,1,0,0:0:0:0:
256,192,123564,1,8,0:0:0:0:
256,192,123978,1,0,0:0:0:0:
256,192,124392,12,0,127702,0:0:0:0:
105,237,144254,6,0,L|443:129,1,346.49998942566
