osu file format v14

[General]
AudioFilename: audio.mp3
AudioLeadIn: 0
PreviewTime: 50013
Countdown: 0
SampleSet: Normal
StackLeniency: 0.7
Mode: 1
LetterboxInBreaks: 0
WidescreenStoryboard: 0

[Editor]
Bookmarks: 18461,31703,38323,51565,78048,84668,104530,117772
DistanceSpacing: 2.2
BeatDivisor: 4
GridSize: 32
TimelineZoom: 1

[Metadata]
Title:Cabo
TitleUnicode:Cabo
Artist:Ricky Montgomery
ArtistUnicode:Ricky Montgomery
Creator:Faputa
Version:Futsuu
Source:osu!
Tags:rock English featured artist mappers' guild fa mg
BeatmapID:2224719
BeatmapSetID:1062285

[Difficulty]
HPDrainRate:6.5
CircleSize:2
OverallDifficulty:4
ApproachRate:10
SliderMultiplier:1.4
SliderTickRate:1

[Events]
//Background and Video events
0,0,"cabo.jpg",0,-60
//Break Periods
//Storyboard Layer 0 (Background)
//Storyboard Layer 1 (Fail)
//Storyboard Layer 2 (Pass)
//Storyboard Layer 3 (Foreground)
//Storyboard Layer 4 (Overlay)
//Storyboard Sound Samples

[TimingPoints]
255,413.793103448276,4,1,0,90,1,0
5220,413.793103448276,4,1,0,90,1,0
77841,-105.263157894737,4,1,0,70,0,0
84461,-100,4,1,0,90,0,0
104530,-95.2380952380952,4,1,0,95,0,1
117771,-100,4,1,0,90,0,0
127703,-100,4,1,0,85,0,0
143841,-111.111111111111,4,2,0,30,0,0
144461,-111.111111111111,4,2,0,25,0,0
144668,-111.111111111111,4,2,0,20,0,0
144875,-111.111111111111,4,2,0,15,0,0
145082,-111.111111111111,4,2,0,10,0,0
145289,-111.111111111111,4,2,0,5,0,0

[HitObjects]
256,192,3565,5,0,0:0:0:0:
256,192,4186,1,8,0:0:0:0:
256,192,4392,1,8,0:0:0:0:
256,192,4806,1,0,0:0:0:0:
256,192,5220,1,4,0:0:0:0:
256,192,5634,1,8,0:0:0:0:
256,192,6048,1,0,0:0:0:0:
256,192,6461,1,8,0:0:0:0:
256,192,6668,1,8,0:0:0:0:
256,192,7289,1,8,0:0:0:0:
256,192,7702,1,0,0:0:0:0:
256,192,8117,1,0,0:0:0:0:
256,192,8530,1,8,0:0:0:0:
256,192,8737,1,8,0:0:0:0:
256,192,9358,1,8,0:0:0:0:
256,192,9771,1,0,0:0:0:0:
256,192,10186,1,8,0:0:0:0:
256,192,10599,1,8,0:0:0:0:
256,192,11426,1,0,0:0:0:0:
256,192,12048,1,8,0:0:0:0:
256,192,12255,1,8,0:0:0:0:
256,192,12668,1,8,0:0:0:0:
256,192,13082,1,0,0:0:0:0:
256,192,13703,1,8,0:0:0:0:
256,192,13910,1,8,0:0:0:0:
256,192,14323,1,0,0:0:0:0:
256,192,14737,1,8,0:0:0:0:
256,192,15358,1,0,0:0:0:0:
256,192,15772,1,8,0:0:0:0:
256,192,16186,1,0,0:0:0:0:
256,192,16599,1,8,0:0:0:0:
256,192,17013,1,0,0:0:0:0:
256,192,17634,1,12,0:0:0:0:
256,192,18461,1,4,0:0:0:0:
256,192,18875,1,8,0:0:0:0:
256,192,19289,1,0,0:0:0:0:
256,192,19703,1,8,0:0:0:0:
256,192,20323,1,8,0:0:0:0:
256,192,20737,1,0,0:0:0:0:
256,192,20944,1,0,0:0:0:0:
256,192,21358,1,8,0:0:0:0:
256,192,21772,1,0,0:0:0:0:
256,192,22186,1,8,0:0:0:0:
256,192,22599,1,0,0:0:0:0:
256,192,23013,1,8,0:0:0:0:
256,192,23634,1,8,0:0:0:0:
256,192,24048,1,0,0:0:0:0:
256,192,24254,1,0,0:0:0:0:
256,192,24668,1,8,0:0:0:0:
256,192,25082,1,0,0:0:0:0:
256,192,25496,1,8,0:0:0:0:
256,192,25910,1,0,0:0:0:0:
256,192,26323,1,8,0:0:0:0:
256,192,26944,1,8,0:0:0:0:
256,192,27358,1,0,0:0:0:0:
256,192,27565,1,0,0:0:0:0:
256,192,27979,1,8,0:0:0:0:
256,192,28392,1,0,0:0:0:0:
256,192,28806,1,8,0:0:0:0:
256,192,29220,1,8,0:0:0:0:
256,192,29633,1,0,0:0:0:0:
256,192,30048,1,8,0:0:0:0:
256,192,30875,1,0,0:0:0:0:
256,192,31703,1,12,0:0:0:0:
256,192,32530,1,0,0:0:0:0:
256,192,32944,1,8,0:0:0:0:
256,192,33151,1,8,0:0:0:0:
256,192,33772,1,0,0:0:0:0:
256,192,34186,1,8,0:0:0:0:
256,192,34599,1,0,0:0:0:0:
256,192,34806,1,0,0:0:0:0:
256,192,35427,1,8,0:0:0:0:
256,192,35841,1,0,0:0:0:0:
256,192,36255,1,8,0:0:0:0:
256,192,36461,1,8,0:0:0:0:
256,192,37082,1,8,0:0:0:0:
256,192,37496,1,0,0:0:0:0:
256,192,37910,1,8,0:0:0:0:
256,192,38323,1,4,0:0:0:0:
256,192,38737,1,8,0:0:0:0:
256,192,38944,1,8,0:0:0:0:
256,192,39358,1,0,0:0:0:0:
256,192,39979,1,0,0:0:0:0:
256,192,40392,1,8,0:0:0:0:
256,192,40599,1,8,0:0:0:0:
256,192,41013,1,0,0:0:0:0:
256,192,42047,1,8,0:0:0:0:
256,192,42461,1,0,0:0:0:0:
256,192,42875,1,8,0:0:0:0:
256,192,43289,1,0,0:0:0:0:
256,192,43703,1,8,0:0:0:0:
256,192,44117,1,0,0:0:0:0:
256,192,44530,1,8,0:0:0:0:
256,192,44737,1,8,0:0:0:0:
256,192,45358,1,8,0:0:0:0:
256,192,45772,1,8,0:0:0:0:
256,192,46186,1,0,0:0:0:0:
256,192,46392,1,0,0:0:0:0:
256,192,47013,1,0,0:0:0:0:
256,192,47427,1,0,0:0:0:0:
256,192,47841,1,8,0:0:0:0:
256,192,48048,1,8,0:0:0:0:
256,192,48461,1,0,0:0:0:0:
256,192,48875,1,8,0:0:0:0:
256,192,49289,1,0,0:0:0:0:
256,192,49703,1,8,0:0:0:0:
256,192,50117,1,0,0:0:0:0:
256,192,50737,1,12,0:0:0:0:
256,192,51564,1,4,0:0:0:0:
256,192,51979,1,8,0:0:0:0:
256,192,52392,1,0,0:0:0:0:
256,192,52807,1,8,0:0:0:0:
256,192,53427,1,8,0:0:0:0:
256,192,53841,1,0,0:0:0:0:
256,192,54047,1,0,0:0:0:0:
256,192,54462,1,8,0:0:0:0:
256,192,54876,1,0,0:0:0:0:
256,192,55288,1,8,0:0:0:0:
256,192,55703,1,0,0:0:0:0:
256,192,56117,1,8,0:0:0:0:
256,192,56738,1,8,0:0:0:0:
256,192,57152,1,0,0:0:0:0:
256,192,57357,1,0,0:0:0:0:
256,192,57772,1,8,0:0:0:0:
256,192,58186,1,0,0:0:0:0:
256,192,58600,1,8,0:0:0:0:
256,192,59014,1,0,0:0:0:0:
256,192,59427,1,8,0:0:0:0:
256,192,60048,1,8,0:0:0:0:
256,192,60462,1,0,0:0:0:0:
256,192,60668,1,0,0:0:0:0:
256,192,61082,1,8,0:0:0:0:
256,192,61496,1,8,0:0:0:0:
256,192,61910,1,0,0:0:0:0:
256,192,62324,1,8,0:0:0:0:
256,192,62738,1,8,0:0:0:0:
256,192,63152,1,0,0:0:0:0:
256,192,63979,1,0,0:0:0:0:
256,192,64806,1,12,0:0:0:0:
256,192,65220,1,0,0:0:0:0:
256,192,65634,1,8,0:0:0:0:
256,192,66048,1,0,0:0:0:0:
256,192,66461,1,0,0:0:0:0:
256,192,66875,1,8,0:0:0:0:
256,192,67289,1,0,0:0:0:0:
256,192,67703,1,8,0:0:0:0:
256,192,68530,1,0,0:0:0:0:
256,192,68737,1,0,0:0:0:0:
256,192,69357,1,0,0:0:0:0:
256,192,69772,1,0,0:0:0:0:
256,192,70186,1,8,0:0:0:0:
256,192,70392,1,8,0:0:0:0:
256,192,70806,1,0,0:0:0:0:
256,192,71013,1,0,0:0:0:0:
256,192,71427,1,12,0:0:0:0:
256,192,71841,1,0,0:0:0:0:
256,192,72255,1,8,0:0:0:0:
256,192,72668,1,0,0:0:0:0:
256,192,73082,1,0,0:0:0:0:
256,192,73496,1,8,0:0:0:0:
256,192,73910,1,0,0:0:0:0:
256,192,74323,1,8,0:0:0:0:
256,192,75151,1,8,0:0:0:0:
256,192,75358,1,8,0:0:0:0:
256,192,75979,1,8,0:0:0:0:
256,192,76392,1,0,0:0:0:0:
256,192,76806,1,0,0:0:0:0:
256,192,77220,1,8,0:0:0:0:
256,192,77633,1,8,0:0:0:0:
256,192,78048,1,0,0:0:0:0:
256,192,78461,1,0,0:0:0:0:
256,192,78875,1,0,0:0:0:0:
256,192,79289,1,0,0:0:0:0:
256,192,79910,1,0,0:0:0:0:
256,192,80530,1,0,0:0:0:0:
256,192,81358,1,0,0:0:0:0:
256,192,81771,1,0,0:0:0:0:
256,192,82186,1,0,0:0:0:0:
256,192,82599,1,0,0:0:0:0:
256,192,83220,1,0,0:0:0:0:
256,192,83841,1,0,0:0:0:0:
256,192,84668,1,4,0:0:0:0:
256,192,85082,1,8,0:0:0:0:
256,192,85496,1,0,0:0:0:0:
256,192,85910,1,8,0:0:0:0:
256,192,86530,1,8,0:0:0:0:
256,192,86944,1,0,0:0:0:0:
256,192,87151,1,0,0:0:0:0:
256,192,87565,1,8,0:0:0:0:
256,192,87979,1,0,0:0:0:0:
256,192,88392,1,8,0:0:0:0:
256,192,88806,1,0,0:0:0:0:
256,192,89220,1,8,0:0:0:0:
256,192,89634,1,8,0:0:0:0:
256,192,90254,1,0,0:0:0:0:
256,192,90461,1,0,0:0:0:0:
256,192,91289,1,12,0:0:0:0:
256,192,91703,1,0,0:0:0:0:
256,192,92117,1,8,0:0:0:0:
256,192,92530,1,0,0:0:0:0:
256,192,93151,1,8,0:0:0:0:
256,192,93565,1,0,0:0:0:0:
256,192,93771,1,0,0:0:0:0:
256,192,94186,1,8,0:0:0:0:
256,192,94599,1,0,0:0:0:0:
256,192,95013,1,8,0:0:0:0:
256,192,95427,1,0,0:0:0:0:
256,192,95841,1,8,0:0:0:0:
256,192,96461,1,8,0:0:0:0:
256,192,96875,1,0,0:0:0:0:
256,192,97082,1,0,0:0:0:0:
256,192,97495,1,0,0:0:0:0:
256,192,97910,1,8,0:0:0:0:
256,192,98323,1,8,0:0:0:0:
256,192,98737,1,0,0:0:0:0:
256,192,99151,1,8,0:0:0:0:
256,192,99772,1,8,0:0:0:0:
256,192,100186,1,0,0:0:0:0:
256,192,100392,1,0,0:0:0:0:
256,192,100806,1,8,0:0:0:0:
256,192,101220,1,0,0:0:0:0:
256,192,101634,1,8,0:0:0:0:
256,192,102047,1,0,0:0:0:0:
256,192,102461,1,8,0:0:0:0:
256,192,102875,1,8,0:0:0:0:
256,192,103702,1,8,0:0:0:0:
256,192,104117,1,0,0:0:0:0:
256,192,104530,1,12,0:0:0:0:
256,192,104944,1,0,0:0:0:0:
256,192,105358,1,8,0:0:0:0:
256,192,105772,1,8,0:0:0:0:
256,192,106392,1,8,0:0:0:0:
256,192,106806,1,0,0:0:0:0:
256,192,107013,1,0,0:0:0:0:
256,192,107427,1,8,0:0:0:0:
256,192,107841,1,0,0:0:0:0:
256,192,108255,1,8,0:0:0:0:
256,192,108668,1,0,0:0:0:0:
256,192,109082,1,8,0:0:0:0:
256,192,109703,1,8,0:0:0:0:
256,192,110117,1,0,0:0:0:0:
256,192,110324,1,0,0:0:0:0:
256,192,110737,1,8,0:0:0:0:
256,192,111151,1,0,0:0:0:0:
256,192,111565,1,8,0:0:0:0:
256,192,111978,1,0,0:0:0:0:
256,192,112392,1,8,0:0:0:0:
256,192,113013,1,8,0:0:0:0:
256,192,113426,1,0,0:0:0:0:
256,192,113633,1,0,0:0:0:0:
256,192,114048,1,8,0:0:0:0:
256,192,114461,1,0,0:0:0:0:
256,192,114875,1,8,0:0:0:0:
256,192,115289,1,0,0:0:0:0:
256,192,115703,1,8,0:0:0:0:
256,192,116116,1,0,0:0:0:0:
256,192,116323,1,0,0:0:0:0:
256,192,116737,1,8,0:0:0:0:
256,192,117771,1,4,0:0:0:0:
256,192,118185,1,8,0:0:0:0:
256,192,118599,1,0,0:0:0:0:
256,192,119013,1,8,0:0:0:0:
256,192,119634,1,8,0:0:0:0:
256,192,120047,1,0,0:0:0:0:
256,192,120255,1,0,0:0:0:0:
256,192,120668,1,0,0:0:0:0:
256,192,121082,1,8,0:0:0:0:
256,192,121495,1,0,0:0:0:0:
256,192,121909,1,8,0:0:0:0:
256,192,122323,1,0,0:0:0:0:
256,192,122944,1,8,0:0:0:0:
256,192,123357,1,0,0:0:0:0:
256,192,123564,1,0,0:0:0:0:
256,192,123978,1,0,0:0:0:0:
256,192,124392,1,8,0:0:0:0:
256,192,124806,1,8,0:0:0:0:
256,192,125220,1,0,0:0:0:0:
256,192,125634,1,8,0:0:0:0:
256,192,127703,1,0,0:0:0:0:
256,192,128530,1,8,0:0:0:0:
256,192,130186,1,8,0:0:0:0:
256,192,131013,1,0,0:0:0:0:
256,192,131841,1,8,0:0:0:0:
256,192,133496,1,8,0:0:0:0:
256,192,134323,1,0,0:0:0:0:
256,192,135151,1,8,0:0:0:0:
256,192,136806,1,8,0:0:0:0:
256,192,137634,1,0,0:0:0:0:
256,192,138461,1,8,0:0:0:0:
256,192,140117,1,8,0:0:0:0:
256,192,140944,1,0,0:0:0:0:
256,192,141772,1,8,0:0:0:0:
256,192,143427,1,8,0:0:0:0:
256,192,144255,12,0,145392,0:0:0:0:
