osu file format v14

[General]
AudioFilename: audio.mp3
AudioLeadIn: 0
PreviewTime: 51151
Countdown: 0
SampleSet: Soft
StackLeniency: 0.7
Mode: 0
LetterboxInBreaks: 0
WidescreenStoryboard: 1

[Editor]
DistanceSpacing: 1
BeatDivisor: 4
GridSize: 4
TimelineZoom: 1

[Metadata]
Title:Cabo
TitleUnicode:Cabo
Artist:Ricky Montgomery
ArtistUnicode:Ricky Montgomery
Creator:-Sylvari
Version:Insane
Source:osu!
Tags:mpg mappers guild fa featured artist rock hailie dj lucky cheri alternative indie english
BeatmapID:2433048
BeatmapSetID:1166415

[Difficulty]
HPDrainRate:5
CircleSize:5
OverallDifficulty:8
ApproachRate:9
SliderMultiplier:1.9
SliderTickRate:1

[Events]
//Background and Video events
0,0,"bg.jpg",0,0
//Break Periods
//Storyboard Layer 0 (Background)
//Storyboard Layer 1 (Fail)
//Storyboard Layer 2 (Pass)
//Storyboard Layer 3 (Foreground)
//Storyboard Layer 4 (Overlay)
//Storyboard Sound Samples

[TimingPoints]
255,413.793103448276,4,3,1,50,1,0
3565,-100,4,3,1,50,0,0
5220,-100,4,2,1,70,0,0
17634,-200,4,2,1,60,0,0
18461,-83.3333333333333,4,2,1,90,0,0
30048,-200,4,2,1,80,0,0
31703,-100,4,2,1,70,0,0
50737,-100,4,2,1,80,0,0
51565,-76.9230769230769,4,2,1,90,0,0
63151,-200,4,2,1,83,0,0
64806,-100,4,2,1,75,0,0
66048,-142.857142857143,4,2,1,75,0,0
66461,-100,4,2,1,75,0,0
68530,-111.111111111111,4,2,1,75,0,0
69358,-142.857142857143,4,2,1,75,0,0
70186,-200,4,2,1,75,0,0
71427,-100,4,2,1,75,0,0
72668,-142.857142857143,4,2,1,75,0,0
73082,-100,4,2,1,75,0,0
75151,-111.111111111111,4,2,1,75,0,0
75979,-142.857142857143,4,2,1,75,0,0
78048,-200,4,2,1,60,0,0
79703,-133.333333333333,4,2,1,60,0,0
81358,-200,4,2,1,60,0,0
83013,-133.333333333333,4,2,1,75,0,0
84668,-71.4285714285714,4,2,1,90,0,1
121082,-76.9230769230769,4,2,1,90,0,1
122737,-83.3333333333333,4,2,1,80,0,1
124392,-90.9090909090909,4,2,1,70,0,1
126048,-100,4,2,1,60,0,1
127703,-133.333333333333,4,2,2,50,0,0
144255,-400,4,2,2,40,0,0
145392,-400,4,2,2,5,0,0

[Colours]
Combo1 : 16,26,150
Combo2 : 138,255,138
Combo3 : 17,124,255
Combo4 : 255,255,128

[HitObjects]
31,70,3565,6,0,L|31:172,1,95,0|2,1:0|0:2,0:0:0:0:
53,184,3875,1,2,3:2:0:0:
74,201,3979,1,10,3:2:0:0:
132,64,4186,1,10,0:2:0:0:
172,237,4392,2,0,L|172:142,1,95,0|2,1:0|0:2,0:0:0:0:
195,126,4703,1,2,3:2:0:0:
224,107,4806,1,10,3:2:0:0:
256,277,5013,1,2,0:2:0:0:
345,110,5220,6,0,L|339:211,1,95,4|2,1:2|0:2,0:0:0:0:
432,315,5634,1,8,0:2:0:0:
412,209,5841,1,10,0:2:0:0:
355,348,6048,1,0,1:0:0:0:
442,246,6255,2,0,L|446:151,1,95,2|8,0:2|0:2,0:0:0:0:
367,38,6668,1,2,0:2:0:0:
304,230,6875,6,0,L|313:135,1,95,0|2,1:2|0:2,0:0:0:0:
212,216,7289,2,0,L|202:310,1,95,8|10,0:2|0:2,0:0:0:0:
110,119,7703,1,0,1:0:0:0:
185,57,7910,1,2,0:2:0:0:
128,236,8117,2,0,L|118:330,1,95,8|2,0:2|0:2,0:0:0:0:
29,185,8530,5,0,1:2:0:0:
110,119,8737,2,0,L|124:25,1,95,2|8,0:2|0:2,0:0:0:0:
240,183,9151,1,10,0:2:0:0:
232,18,9358,2,0,L|217:111,1,95,0|2,1:0|0:2,0:0:0:0:
226,147,9668,1,2,3:2:0:0:
240,183,9772,2,0,L|225:276,1,95,8|2,0:2|0:2,0:0:0:0:
399,270,10186,6,0,L|377:362,1,95,0|2,1:2|0:2,0:0:0:0:
491,228,10599,1,8,0:2:0:0:
340,179,10806,2,0,L|318:271,1,95,10|0,0:2|1:0,0:0:0:0:
438,144,11220,1,2,0:2:0:0:
278,97,11427,2,0,L|256:189,1,95,8|2,0:2|0:2,0:0:0:0:
130,313,11841,6,0,L|157:222,1,95,4|2,1:2|0:2,0:0:0:0:
64,94,12255,1,8,0:2:0:0:
73,207,12461,1,10,0:2:0:0:
164,60,12668,2,0,L|136:150,1,95,0|2,1:0|0:2,0:0:0:0:
241,235,13082,1,8,0:2:0:0:
247,45,13289,2,0,L|219:135,1,95,2|0,0:2|1:2,0:0:0:0:
354,26,13703,5,2,0:2:0:0:
423,146,13910,1,8,0:2:0:0:
292,147,14117,1,10,0:2:0:0:
457,57,14323,2,0,L|422:145,1,95,0|2,1:0|0:2,0:0:0:0:
329,226,14737,1,8,0:2:0:0:
492,166,14944,2,0,L|457:254,1,95,2|0,0:2|1:2,0:0:0:0:
356,325,15358,5,2,0:2:0:0:
243,243,15565,1,8,0:2:0:0:
284,158,15772,2,0,L|243:244,1,95,10|0,0:2|1:0,0:0:0:0:
208,357,16186,1,2,0:2:0:0:
95,275,16393,1,8,0:2:0:0:
136,190,16600,2,0,L|95:276,1,95,2|0,0:2|1:2,0:0:0:0:
35,144,17013,5,2,0:2:0:0:
182,107,17220,2,0,L|135:190,1,95,8|10,0:2|0:2,0:0:0:0:
291,58,17634,2,0,L|221:182,1,142.5,0|2,1:0|0:2,0:0:0:0:
310,258,18461,5,4,1:2:0:0:
389,341,18668,1,2,0:2:0:0:
507,216,18875,1,8,0:2:0:0:
477,322,19082,1,10,0:2:0:0:
373,163,19289,2,0,L|309:258,1,113.999996520996,0|2,1:0|0:2,0:0:0:0:
282,95,19703,2,0,L|345:0,1,113.999996520996,8|2,0:2|0:2,0:0:0:0:
227,191,20117,5,0,1:2:0:0:
145,133,20323,2,0,L|75:223,1,113.999996520996,2|8,0:2|0:2,0:0:0:0:
246,74,20737,1,10,0:2:0:0:
143,12,20944,2,0,L|73:102,1,113.999996520996,0|2,1:0|0:2,0:0:0:0:
79,260,21358,2,0,L|148:169,1,113.999996520996,8|2,0:2|0:2,0:0:0:0:
345,186,21772,5,4,1:2:0:0:
288,259,21979,1,2,0:2:0:0:
147,169,22186,1,8,0:2:0:0:
185,248,22392,1,10,0:2:0:0:
264,109,22599,2,0,L|188:194,1,113.999996520996,0|2,1:0|0:2,0:0:0:0:
354,89,23013,2,0,L|429:3,1,113.999996520996,8|2,0:2|0:2,0:0:0:0:
294,26,23427,5,0,1:2:0:0:
456,98,23634,2,0,L|375:178,1,113.999996520996,2|8,0:2|0:2,0:0:0:0:
354,89,24048,1,10,0:2:0:0:
475,204,24255,2,0,L|394:284,1,113.999996520996,0|2,1:0|0:2,0:0:0:0:
295,259,24668,2,0,L|375:178,1,113.999996520996,8|2,0:2|0:2,0:0:0:0:
313,353,25082,5,4,1:2:0:0:
231,384,25289,1,2,0:2:0:0:
112,255,25496,1,8,0:2:0:0:
194,224,25703,1,10,0:2:0:0:
186,52,25910,2,0,L|100:127,1,113.999996520996,0|2,1:0|0:2,0:0:0:0:
57,289,26323,2,0,L|144:215,1,113.999996520996,8|2,0:2|0:2,0:0:0:0:
237,120,26737,5,0,1:2:0:0:
260,283,26944,2,0,L|351:215,1,113.999996520996,2|8,0:2|0:2,0:0:0:0:
185,200,27358,1,10,0:2:0:0:
334,315,27565,2,0,L|425:247,1,113.999996520996,0|2,1:0|0:2,0:0:0:0:
389,98,27979,2,0,L|297:165,1,113.999996520996,8|2,0:2|0:2,0:0:0:0:
128,58,28392,5,4,1:2:0:0:
215,47,28599,1,2,0:2:0:0:
185,200,28806,1,8,0:2:0:0:
93,214,29013,1,10,0:2:0:0:
169,349,29220,2,0,L|265:287,1,113.999996520996,0|2,1:0|0:2,0:0:0:0:
281,138,29634,2,0,L|184:199,1,113.999996520996,8|2,0:2|0:2,0:0:0:0:
340,206,30048,6,0,L|465:138,1,142.5,0|2,1:2|0:2,0:0:0:0:
480,21,30875,2,0,L|354:88,1,142.5,0|2,1:0|0:2,0:0:0:0:
226,31,31703,6,0,L|139:69,1,95,4|2,1:2|0:2,0:0:0:0:
135,106,32013,1,2,3:2:0:0:
131,140,32117,2,0,L|44:178,1,95,8|10,0:2|0:2,0:0:0:0:
11,273,32530,1,0,1:0:0:0:
26,103,32737,1,2,0:2:0:0:
51,299,32944,1,8,0:2:0:0:
44,178,33151,1,2,0:2:0:0:
86,320,33358,5,0,1:2:0:0:
86,320,33565,1,2,0:2:0:0:
202,194,33772,2,0,L|291:162,1,95,8|10,0:2|0:2,0:0:0:0:
252,323,34185,1,0,1:0:0:0:
199,277,34392,1,2,0:2:0:0:
347,223,34599,1,8,0:2:0:0:
333,291,34806,1,2,0:2:0:0:
250,93,35013,6,0,L|341:67,1,95,0|2,1:2|0:2,0:0:0:0:
370,89,35323,1,2,3:2:0:0:
399,111,35427,2,0,L|490:85,1,95,8|10,0:2|0:2,0:0:0:0:
394,7,35841,1,0,1:0:0:0:
367,128,36048,1,2,0:2:0:0:
444,212,36255,1,8,0:2:0:0:
479,290,36461,1,2,0:2:0:0:
344,325,36668,6,0,L|251:344,1,95,0|2,1:2|0:2,0:0:0:0:
159,219,37082,1,8,0:2:0:0:
137,346,37289,1,10,0:2:0:0:
47,160,37496,2,0,L|140:141,1,95,0|2,1:0|0:2,0:0:0:0:
158,110,37806,1,2,3:2:0:0:
177,74,37910,2,0,L|270:55,1,95,8|2,0:2|0:2,0:0:0:0:
375,182,38323,6,0,L|280:194,1,95,4|2,1:2|0:2,0:0:0:0:
411,101,38737,1,8,0:2:0:0:
331,265,38944,2,0,L|236:277,1,95,10|0,0:2|1:0,0:0:0:0:
418,316,39358,2,0,L|512:303,1,95,2|8,0:2|0:2,0:0:0:0:
375,182,39772,1,2,0:2:0:0:
317,357,39979,6,0,L|222:362,1,95,0|2,1:2|0:2,0:0:0:0:
123,319,40392,1,8,0:2:0:0:
282,248,40599,2,0,L|187:253,1,95,10|0,0:2|1:0,0:0:0:0:
112,179,41013,2,0,L|17:184,1,95,2|8,0:2|0:2,0:0:0:0:
175,96,41427,2,0,L|269:90,1,95,2|4,0:2|1:2,0:0:0:0:
375,139,41841,5,2,3:2:0:0:
375,139,41944,1,2,3:2:0:0:
375,139,42048,1,10,3:2:0:0:
430,214,42255,2,0,L|477:214,2,47.5,2|2|2,3:2|3:2|1:2,0:0:0:0:
335,227,42668,1,2,3:2:0:0:
335,227,42771,1,2,3:2:0:0:
335,227,42875,1,10,3:2:0:0:
391,307,43082,2,0,L|438:307,2,47.5,2|2|2,3:2|3:2|1:2,0:0:0:0:
304,340,43496,1,2,3:2:0:0:
304,340,43599,1,2,3:2:0:0:
304,340,43703,1,10,3:2:0:0:
218,269,43910,1,2,3:2:0:0:
218,269,44013,1,2,3:2:0:0:
218,269,44117,2,0,L|123:262,1,95,2|2,1:2|0:2,0:0:0:0:
19,156,44530,1,8,0:2:0:0:
32,278,44737,1,2,0:2:0:0:
80,90,44944,6,0,L|174:103,1,95,4|2,1:2|0:2,0:0:0:0:
284,153,45358,1,8,0:2:0:0:
136,190,45565,1,10,0:2:0:0:
223,28,45772,2,0,L|317:41,1,95,0|2,1:0|0:2,0:0:0:0:
418,72,46186,1,8,0:2:0:0:
245,118,46392,2,0,L|339:131,1,95,2|0,0:2|1:2,0:0:0:0:
389,286,46806,5,2,0:2:0:0:
351,157,47013,1,8,0:2:0:0:
278,326,47220,1,10,0:2:0:0:
194,190,47427,2,0,L|286:209,1,95,0|2,1:0|0:2,0:0:0:0:
159,277,47841,1,8,0:2:0:0:
149,101,48048,2,0,L|241:120,1,95,2|0,0:2|1:2,0:0:0:0:
431,198,48461,5,2,0:2:0:0:
399,307,48668,1,8,0:2:0:0:
307,281,48875,2,0,L|397:306,1,95,10|0,0:2|1:0,0:0:0:0:
431,198,49289,1,2,0:2:0:0:
462,88,49496,1,8,0:2:0:0:
371,63,49703,2,0,L|461:88,1,95,2|0,0:2|1:2,0:0:0:0:
337,174,50117,5,2,0:2:0:0:
274,89,50323,2,0,L|184:57,1,95,8|2,0:2|0:2,0:0:0:0:
43,104,50737,1,2,1:2:0:0:
32,135,50841,1,2,3:2:0:0:
27,167,50944,1,2,3:2:0:0:
30,200,51048,1,2,3:2:0:0:
43,230,51151,1,10,3:2:0:0:
80,214,51255,1,2,3:2:0:0:
119,206,51358,1,2,3:2:0:0:
158,212,51461,1,2,3:2:0:0:
195,235,51565,5,4,1:2:0:0:
124,302,51772,1,2,0:2:0:0:
279,276,51979,1,8,0:2:0:0:
267,179,52186,1,10,0:2:0:0:
358,310,52392,2,0,L|470:359,1,123.499994346619,0|2,1:0|0:2,0:0:0:0:
465,182,52806,2,0,L|352:132,1,123.499994346619,8|2,0:2|0:2,0:0:0:0:
288,260,53220,5,0,1:2:0:0:
157,121,53427,2,0,L|266:178,1,123.499994346619,2|8,0:2|0:2,0:0:0:0:
217,315,53841,1,10,0:2:0:0:
86,176,54048,2,0,L|195:233,1,123.499994346619,0|2,1:0|0:2,0:0:0:0:
109,384,54461,2,0,L|0:326,1,123.499994346619,8|2,0:2|0:2,0:0:0:0:
86,176,54875,5,4,1:2:0:0:
142,94,55082,1,2,0:2:0:0:
91,276,55289,1,8,0:2:0:0:
12,232,55496,1,10,0:2:0:0:
180,181,55703,2,0,L|284:245,1,123.499994346619,0|2,1:0|0:2,0:0:0:0:
142,94,56117,2,0,L|37:29,1,123.499994346619,8|2,0:2|0:2,0:0:0:0:
86,176,56530,5,0,1:2:0:0:
232,100,56737,2,0,L|332:171,1,123.499994346619,2|8,0:2|0:2,0:0:0:0:
180,181,57151,1,10,0:2:0:0:
246,25,57358,2,0,L|346:96,1,123.499994346619,0|2,1:0|0:2,0:0:0:0:
510,72,57772,2,0,L|409:0,1,123.499994346619,8|2,0:2|0:2,0:0:0:0:
397,205,58186,5,4,1:2:0:0:
415,121,58392,1,2,0:2:0:0:
488,292,58599,1,8,0:2:0:0:
473,377,58806,1,10,0:2:0:0:
372,304,59013,2,0,L|277:225,1,123.499994346619,0|2,1:0|0:2,0:0:0:0:
234,69,59427,2,0,L|328:147,1,123.499994346619,8|2,0:2|0:2,0:0:0:0:
186,242,59841,5,0,1:2:0:0:
116,64,60048,2,0,L|205:149,1,123.499994346619,2|8,0:2|0:2,0:0:0:0:
95,262,60461,1,10,0:2:0:0:
36,96,60668,2,0,L|125:181,1,123.499994346619,0|2,1:0|0:2,0:0:0:0:
89,384,61082,2,0,L|0:298,1,123.499994346619,8|2,0:2|0:2,0:0:0:0:
183,338,61496,5,4,1:2:0:0:
201,253,61703,1,2,0:2:0:0:
356,151,61910,1,8,0:2:0:0:
327,69,62117,1,10,0:2:0:0:
277,206,62323,2,0,L|359:297,1,123.499994346619,0|2,1:0|0:2,0:0:0:0:
204,166,62737,2,0,L|121:74,1,123.499994346619,8|2,0:2|0:2,0:0:0:0:
267,39,63151,6,0,L|355:150,1,142.5,0|2,1:2|0:2,0:0:0:0:
471,171,63979,2,0,L|382:59,1,142.5,0|2,1:0|0:2,0:0:0:0:
199,71,64806,5,2,1:2:0:0:
157,94,64910,1,0,3:2:0:0:
139,137,65013,1,0,3:2:0:0:
175,261,65220,1,10,3:2:0:0:
217,266,65323,1,0,3:2:0:0:
257,251,65427,1,8,3:2:0:0:
306,148,65634,1,2,1:2:0:0:
342,136,65737,1,0,3:2:0:0:
380,136,65841,1,0,3:2:0:0:
490,103,66048,2,2,L|471:75,2,33.2499989852906,10|2|2,3:2|3:2|3:2,3:2:0:0:
501,235,66461,1,2,1:2:0:0:
505,277,66565,1,0,3:2:0:0:
492,317,66668,1,0,3:2:0:0:
409,375,66875,1,10,3:2:0:0:
361,384,66979,1,0,3:2:0:0:
314,384,67082,1,0,1:2:0:0:
266,379,67186,1,0,3:2:0:0:
224,356,67289,2,0,L|200:315,2,47.5,2|0|0,1:2|3:2|3:2,0:0:0:0:
104,379,67703,1,10,3:2:0:0:
52,376,67806,1,2,3:2:0:0:
11,342,67910,1,2,3:2:0:0:
55,189,68117,1,2,1:2:0:0:
101,183,68220,1,0,3:2:0:0:
144,201,68323,1,0,3:2:0:0:
230,127,68530,2,0,L|208:84,2,42.7499986953736,10|0|8,3:2|3:2|3:2,0:0:0:0:
280,245,68944,1,2,1:2:0:0:
312,254,69048,1,0,3:2:0:0:
346,255,69151,1,0,3:2:0:0:
439,188,69358,2,2,L|417:145,2,33.2499989852906,10|2|2,3:2|3:2|3:2,0:0:0:0:
508,95,69772,1,2,1:2:0:0:
488,75,69875,1,0,3:2:0:0:
457,64,69979,1,0,3:2:0:0:
378,49,70186,2,0,L|367:27,1,23.75,10|0,3:2|3:2,0:0:0:0:
295,42,70392,2,0,L|284:20,2,23.75,0|0|0,1:2|0:0|1:2,0:0:0:0:
245,125,70806,1,2,3:2:0:0:
159,52,71013,1,10,3:2:0:0:
159,52,71117,1,2,3:2:0:0:
159,52,71220,1,2,3:2:0:0:
66,119,71427,5,6,1:2:0:0:
55,165,71530,1,0,3:2:0:0:
58,212,71634,1,0,3:2:0:0:
150,299,71841,1,10,3:2:0:0:
172,263,71944,1,0,3:2:0:0:
181,221,72048,1,8,3:2:0:0:
280,154,72255,1,2,1:2:0:0:
293,189,72358,1,0,3:2:0:0:
293,226,72461,1,0,3:2:0:0:
186,292,72668,2,2,L|171:262,2,33.2499989852906,10|2|2,3:2|3:2|3:2,0:0:0:0:
292,345,73082,1,2,1:2:0:0:
334,353,73186,1,0,3:2:0:0:
376,346,73289,1,0,3:2:0:0:
460,254,73496,1,10,3:2:0:0:
474,208,73599,1,0,3:2:0:0:
470,160,73703,1,0,1:2:0:0:
452,115,73806,1,0,3:2:0:0:
412,88,73910,2,0,L|393:44,2,47.5,2|0|0,1:2|3:2|3:2,0:0:0:0:
333,200,74323,1,10,3:2:0:0:
281,209,74427,1,2,3:2:0:0:
230,197,74530,1,2,3:2:0:0:
241,86,74737,1,2,1:2:0:0:
199,61,74841,1,0,3:2:0:0:
151,59,74944,1,0,3:2:0:0:
44,120,75151,2,0,L|29:79,2,42.7499986953736,10|0|8,3:2|3:2|3:2,0:0:0:0:
112,225,75565,1,2,1:2:0:0:
150,229,75668,1,0,3:2:0:0:
187,219,75772,1,0,3:2:0:0:
252,117,75979,2,2,L|240:85,2,33.2499989852906,10|2|2,3:2|3:2|3:2,0:0:0:0:
312,222,76392,1,2,1:2:0:0:
312,222,76496,1,0,3:2:0:0:
312,222,76599,1,0,3:2:0:0:
395,133,76806,2,0,L|386:100,2,33.2499989852906,10|0|0,3:2|3:2|1:2,0:0:0:0:
422,253,77220,1,2,1:2:0:0:
422,253,77323,1,0,3:2:0:0:
422,253,77427,1,0,3:2:0:0:
336,338,77634,1,10,3:2:0:0:
336,338,77737,1,2,3:2:0:0:
336,338,77841,1,2,3:2:0:0:
203,289,78048,6,0,L|184:195,1,95,4|8,1:2|0:2,0:0:0:0:
64,150,78875,2,0,L|54:103,2,47.5,0|2|8,1:0|1:2|0:2,0:0:0:0:
179,61,79703,6,0,L|174:25,1,35.625001358986,0|0,1:2|0:0,0:0:0:0:
278,135,79910,2,0,L|286:205,1,71.2500027179719,2|8,0:2|0:2,0:0:0:0:
266,52,80323,1,10,0:2:0:0:
355,148,80530,2,0,L|363:218,1,71.2500027179719,0|2,1:0|0:2,0:0:0:0:
425,70,80944,2,0,L|416:0,1,71.2500027179719,8|2,0:2|0:2,0:0:0:0:
464,180,81358,6,0,L|469:274,1,95,0|8,1:2|0:2,0:0:0:0:
362,337,82186,2,0,L|364:384,2,47.5,0|2|8,1:0|1:2|0:2,0:0:0:0:
325,213,83013,5,0,1:2:0:0:
217,347,83220,2,0,L|217:275,1,71.2500027179719,2|8,0:2|0:2,0:0:0:0:
237,173,83634,1,2,0:2:0:0:
129,307,83841,2,0,L|129:235,1,71.2500027179719,0|2,1:0|0:2,0:0:0:0:
50,160,84255,2,0,L|50:88,1,71.2500027179719,8|2,0:2|0:2,0:0:0:0:
171,29,84668,5,4,1:2:0:0:
263,14,84875,1,2,0:2:0:0:
348,152,85082,1,8,0:2:0:0:
241,179,85289,1,10,0:2:0:0:
293,339,85496,2,0,L|302:206,1,132.999995941162,0|2,1:0|0:2,0:0:0:0:
427,79,85910,2,0,L|417:211,1,132.999995941162,8|2,0:2|0:2,0:0:0:0:
285,91,86323,5,0,1:2:0:0:
171,263,86530,2,0,L|189:131,1,132.999995941162,2|8,0:2|0:2,0:0:0:0:
15,246,86944,1,10,0:2:0:0:
35,115,87151,2,0,L|16:246,1,132.999995941162,0|2,1:0|0:2,0:0:0:0:
157,133,87565,2,0,L|175:2,1,132.999995941162,8|2,0:2|0:2,0:0:0:0:
315,146,87979,5,4,1:2:0:0:
333,55,88186,1,2,0:2:0:0:
441,222,88392,1,8,0:2:0:0:
431,314,88599,1,10,0:2:0:0:
287,276,88806,2,0,L|314:145,1,132.999995941162,0|2,1:0|0:2,0:0:0:0:
159,254,89220,2,0,L|131:384,1,132.999995941162,8|2,0:2|0:2,0:0:0:0:
66,89,89634,5,0,1:2:0:0:
236,169,89841,1,2,0:2:0:0:
10,214,90048,1,8,0:2:0:0:
215,204,90255,1,10,0:2:0:0:
91,61,90461,1,0,1:0:0:0:
89,301,90668,1,2,0:2:0:0:
129,52,90875,2,0,L|92:179,1,132.999995941162,8|2,0:2|0:2,0:0:0:0:
232,123,91289,5,4,1:2:0:0:
276,202,91496,1,2,0:2:0:0:
437,120,91703,1,8,0:2:0:0:
387,206,91910,1,10,0:2:0:0:
310,26,92117,2,0,L|264:150,1,132.999995941162,0|2,1:0|0:2,0:0:0:0:
341,331,92530,2,0,L|386:206,1,132.999995941162,8|2,0:2|0:2,0:0:0:0:
223,307,92944,5,0,1:2:0:0:
211,105,93151,2,0,L|157:226,1,132.999995941162,2|8,0:2|0:2,0:0:0:0:
124,321,93565,1,10,0:2:0:0:
150,58,93772,2,0,L|96:179,1,132.999995941162,0|2,1:0|0:2,0:0:0:0:
223,307,94186,2,0,L|276:185,1,132.999995941162,8|2,0:2|0:2,0:0:0:0:
413,83,94599,5,4,1:2:0:0:
492,190,94806,1,2,0:2:0:0:
318,69,95013,1,8,0:2:0:0:
432,0,95220,1,10,0:2:0:0:
389,253,95427,2,0,L|450:135,1,132.999995941162,0|2,1:0|0:2,0:0:0:0:
243,25,95841,2,0,L|181:142,1,132.999995941162,8|2,0:2|0:2,0:0:0:0:
193,345,96255,5,0,1:2:0:0:
311,123,96461,2,0,L|240:235,1,132.999995941162,2|8,0:2|0:2,0:0:0:0:
307,360,96875,1,10,0:2:0:0:
400,116,97082,2,0,L|329:228,1,132.999995941162,0|2,1:0|0:2,0:0:0:0:
112,268,97496,2,0,L|182:155,1,132.999995941162,8|2,0:2|0:2,0:0:0:0:
338,29,97910,5,4,1:2:0:0:
400,116,98117,1,2,0:2:0:0:
389,315,98323,1,8,0:2:0:0:
328,228,98530,1,10,0:2:0:0:
400,116,98737,2,0,L|478:9,1,132.999995941162,0|2,1:0|0:2,0:0:0:0:
328,228,99151,2,0,L|249:334,1,132.999995941162,8|2,0:2|0:2,0:0:0:0:
258,147,99565,5,0,1:2:0:0:
119,332,99772,2,0,L|205:231,1,132.999995941162,2|8,0:2|0:2,0:0:0:0:
14,332,100186,1,10,0:2:0:0:
154,125,100393,2,0,L|68:226,1,132.999995941162,0|2,1:0|0:2,0:0:0:0:
258,147,100806,2,0,L|343:45,1,132.999995941162,8|2,0:2|0:2,0:0:0:0:
477,106,101220,5,4,1:2:0:0:
503,236,101427,1,2,0:2:0:0:
330,336,101634,1,8,0:2:0:0:
355,205,101841,1,10,0:2:0:0:
173,288,102048,2,0,L|81:383,1,132.999995941162,0|2,1:0|0:2,0:0:0:0:
97,165,102461,2,0,L|188:69,1,132.999995941162,8|2,0:2|0:2,0:0:0:0:
317,238,102875,5,0,1:2:0:0:
285,63,103082,1,2,0:2:0:0:
428,149,103289,1,8,0:2:0:0:
236,185,103496,1,10,0:2:0:0:
376,77,103703,1,0,1:0:0:0:
187,230,103910,2,0,L|236:185,1,66.4999979705811,2|2,3:2|3:2,0:0:0:0:
428,149,104117,1,10,3:2:0:0:
267,282,104323,2,0,L|316:237,1,66.4999979705811,2|2,3:2|3:2,0:0:0:0:
456,67,104530,5,4,1:2:0:0:
493,201,104737,1,2,0:2:0:0:
489,1,104944,1,8,0:2:0:0:
369,59,105151,1,10,0:2:0:0:
389,283,105358,2,0,L|493:200,1,132.999995941162,0|2,1:0|0:2,0:0:0:0:
379,89,105772,2,0,L|274:171,1,132.999995941162,8|2,0:2|0:2,0:0:0:0:
294,0,106186,5,0,1:2:0:0:
94,111,106392,2,0,L|205:37,1,132.999995941162,2|8,0:2|0:2,0:0:0:0:
169,200,106806,1,10,0:2:0:0:
110,0,107013,2,0,L|0:74,1,132.999995941162,0|2,1:0|0:2,0:0:0:0:
58,274,107427,2,0,L|168:199,1,132.999995941162,8|2,0:2|0:2,0:0:0:0:
391,168,107841,5,4,1:2:0:0:
348,268,108048,1,2,0:2:0:0:
167,199,108255,1,8,0:2:0:0:
232,286,108462,1,10,0:2:0:0:
276,124,108668,2,0,L|166:199,1,132.999995941162,0|2,1:0|0:2,0:0:0:0:
391,168,109082,2,0,L|501:93,1,132.999995941162,8|2,0:2|0:2,0:0:0:0:
322,25,109496,5,0,1:2:0:0:
161,191,109703,2,0,L|276:124,1,132.999995941162,2|8,0:2|0:2,0:0:0:0:
162,64,110117,1,10,0:2:0:0:
216,271,110323,2,0,L|330:203,1,132.999995941162,0|2,1:0|0:2,0:0:0:0:
114,114,110737,2,0,L|0:181,1,132.999995941162,8|2,0:2|0:2,0:0:0:0:
187,251,111151,5,4,1:2:0:0:
161,382,111358,1,2,0:2:0:0:
324,267,111565,1,8,0:2:0:0:
350,136,111772,1,10,0:2:0:0:
233,55,111979,2,0,L|113:113,1,132.999995941162,0|2,1:0|0:2,0:0:0:0:
350,136,112392,2,0,L|469:77,1,132.999995941162,8|2,0:2|0:2,0:0:0:0:
365,243,112806,5,0,1:2:0:0:
297,93,113013,2,0,L|172:143,1,132.999995941162,2|8,0:2|0:2,0:0:0:0:
80,228,113427,1,10,0:2:0:0:
65,101,113634,2,0,L|188:49,1,132.999995941162,0|2,1:0|0:2,0:0:0:0:
290,180,114048,2,0,L|165:230,1,132.999995941162,8|2,0:2|0:2,0:0:0:0:
264,67,114461,5,4,1:2:0:0:
366,28,114668,1,2,0:2:0:0:
450,201,114875,1,8,0:2:0:0:
338,172,115082,1,10,0:2:0:0:
312,326,115289,2,0,L|438:283,1,132.999995941162,0|2,1:0|0:2,0:0:0:0:
284,226,115703,2,0,L|156:267,1,132.999995941162,8|2,0:2|0:2,0:0:0:0:
47,373,116117,5,0,1:2:0:0:
63,178,116323,1,2,0:2:0:0:
142,363,116530,1,8,0:2:0:0:
142,200,116737,1,10,0:2:0:0:
28,303,116944,1,0,1:0:0:0:
214,262,117151,1,10,0:2:0:0:
35,213,117358,2,0,L|165:181,1,132.999995941162,8|2,0:2|0:2,0:0:0:0:
278,338,117772,6,0,L|148:362,1,132.999995941162,4|2,1:2|0:2,0:0:0:0:
212,137,118186,1,8,0:2:0:0:
225,275,118392,1,10,0:2:0:0:
145,120,118599,2,0,L|275:96,1,132.999995941162,0|2,1:0|0:2,0:0:0:0:
355,250,119013,2,0,L|225:274,1,132.999995941162,8|2,0:2|0:2,0:0:0:0:
145,120,119427,5,0,1:2:0:0:
137,265,119634,2,0,L|5:281,1,132.999995941162,2|8,0:2|0:2,0:0:0:0:
69,182,120048,1,10,0:2:0:0:
72,354,120255,2,0,L|203:339,1,132.999995941162,0|2,1:0|0:2,0:0:0:0:
351,223,120668,2,0,L|219:237,1,132.999995941162,8|2,0:2|0:2,0:0:0:0:
409,301,121082,5,4,1:2:0:0:
461,377,121289,1,2,0:2:0:0:
460,222,121496,1,8,0:2:0:0:
351,223,121703,1,10,0:2:0:0:
351,98,121910,2,0,L|483:92,1,123.499994346619,0|2,1:0|0:2,0:0:0:0:
255,164,122323,2,0,L|122:169,1,123.499994346619,8|2,0:2|0:2,0:0:0:0:
118,71,122737,5,0,1:2:0:0:
216,250,122944,2,0,L|83:246,1,113.999996520996,2|8,0:2|0:2,0:0:0:0:
33,170,123358,1,10,0:2:0:0:
149,312,123565,2,0,L|16:308,1,113.999996520996,0|2,1:0|0:2,0:0:0:0:
180,381,123979,2,0,L|312:384,1,113.999996520996,8|2,0:2|0:2,0:0:0:0:
370,318,124392,5,4,1:2:0:0:
322,235,124599,1,2,0:2:0:0:
425,170,124806,1,8,0:2:0:0:
445,93,125013,1,10,0:2:0:0:
296,103,125220,2,0,L|192:92,1,104.500003189087,0|2,1:0|0:2,0:0:0:0:
290,263,125634,2,0,L|421:275,1,104.500003189087,8|2,0:2|0:2,0:0:0:0:
242,346,126048,5,0,1:2:0:0:
232,197,126255,2,0,L|101:175,1,95,2|8,1:2|0:2,0:0:0:0:
190,97,126668,1,2,3:2:0:0:
190,97,126772,1,2,3:2:0:0:
190,97,126875,2,0,L|59:75,1,95,8|2,0:0|0:2,0:0:0:0:
232,197,127289,2,0,L|362:218,1,95,8|2,0:2|0:2,0:0:0:0:
411,58,127703,5,4,1:2:0:0:
470,251,128117,1,2,0:2:0:0:
411,58,128530,5,8,0:0:0:0:
463,226,128944,1,2,0:2:0:0:
411,58,129358,5,2,0:2:0:0:
319,152,129565,1,0,1:2:0:0:
451,198,129772,1,2,0:2:0:0:
319,152,129979,1,0,1:2:0:0:
411,58,130186,5,8,0:0:0:0:
443,167,130600,1,2,0:2:0:0:
311,288,131013,6,0,L|172:254,1,142.500005435944,0|0,1:2|0:2,0:0:0:0:
111,142,131634,1,2,0:2:0:0:
111,142,131841,2,0,L|249:175,1,142.500005435944,8|0,1:2|0:2,0:0:0:0:
357,107,132668,5,0,1:2:0:0:
357,107,132875,2,0,L|289:85,1,71.2500027179719,0|0,1:2|0:2,0:0:0:0:
402,229,133289,1,0,1:2:0:0:
402,229,133496,2,0,L|469:250,1,71.2500027179719,8|0,0:0|0:2,0:0:0:0:
512,367,133910,2,0,L|444:345,1,71.2500027179719,2|0,0:2|0:2,0:0:0:0:
292,355,134323,5,0,1:2:0:0:
207,383,134530,1,0,0:2:0:0:
179,298,134737,1,2,0:2:0:0:
264,270,134944,1,0,0:2:0:0:
122,360,135151,2,0,L|55:333,1,71.2500027179719,8|2,1:2|0:2,0:0:0:0:
107,244,135565,2,0,L|40:217,1,71.2500027179719,2|0,0:2|0:2,0:0:0:0:
192,182,135979,5,0,1:2:0:0:
192,182,136186,2,0,L|127:151,1,71.2500027179719,0|0,1:2|0:2,0:0:0:0:
125,56,136599,1,0,1:2:0:0:
125,56,136806,2,0,L|189:86,1,71.2500027179719,8|0,0:2|0:2,0:0:0:0:
258,28,137220,1,2,0:2:0:0:
258,28,137427,1,0,0:2:0:0:
334,149,137634,5,0,1:2:0:0:
334,149,137841,2,0,L|272:114,1,71.2500027179719,2|0,0:2|0:2,0:0:0:0:
348,57,138255,1,2,0:2:0:0:
348,57,138462,2,0,L|472:126,1,142.500005435944,8|0,0:2|0:2,0:0:0:0:
416,208,139082,6,0,L|475:246,1,71.2500027179719,2|0,0:2|0:2,0:0:0:0:
361,281,139496,2,0,L|420:319,1,71.2500027179719,2|8,1:2|0:2,0:0:0:0:
317,196,139910,1,0,1:2:0:0:
317,196,140117,2,0,L|257:157,1,71.2500027179719,8|2,1:2|0:2,0:0:0:0:
256,73,140530,2,0,L|196:34,1,71.2500027179719,2|0,0:2|0:2,0:0:0:0:
101,58,140944,5,4,1:2:0:0:
45,224,141358,1,2,0:2:0:0:
101,58,141772,5,8,1:2:0:0:
52,198,142186,1,2,0:2:0:0:
101,58,142599,5,0,1:2:0:0:
101,58,142806,2,0,L|158:100,1,71.2500027179719,0|0,1:2|0:2,0:0:0:0:
136,198,143220,1,0,1:2:0:0:
136,198,143427,2,0,L|249:283,1,142.500005435944,8|0,0:0|0:2,0:0:0:0:
303,175,144255,6,0,L|406:265,1,130.625,2|0,1:2|0:0,0:0:0:0:
