osu file format v14

[General]
AudioFilename: audio.mp3
AudioLeadIn: 0
PreviewTime: 104277
Countdown: 0
SampleSet: Soft
StackLeniency: 0.3
Mode: 0
LetterboxInBreaks: 0
WidescreenStoryboard: 1

[Editor]
Bookmarks: 3622,5277,18518,31759,38380,51621,64863,78104,84725,91345,104587,117828,124449,144311
DistanceSpacing: 1.13
BeatDivisor: 4
GridSize: 16
TimelineZoom: 1.3

[Metadata]
Title:Cabo
TitleUnicode:Cabo
Artist:Ricky Montgomery
ArtistUnicode:Ricky Montgomery
Creator:[Mad]
Version:Xenon's Insane
Source:osu!
Tags:alternative rock indie the honeysticks english creamy candy xen xehn xenon- featured artist fa
BeatmapID:2221396
BeatmapSetID:1035982

[Difficulty]
HPDrainRate:5
CircleSize:4.2
OverallDifficulty:7.5
ApproachRate:8.4
SliderMultiplier:1
SliderTickRate:1

[Events]
//Background and Video events
0,0,"bg.jpg",0,0
//Break Periods
2,78303,83207
//Storyboard Layer 0 (Background)
//Storyboard Layer 1 (Fail)
//Storyboard Layer 2 (Pass)
//Storyboard Layer 3 (Foreground)
//Storyboard Layer 4 (Overlay)
//Storyboard Sound Samples

[TimingPoints]
311,413.793103448276,4,2,1,70,1,0
3621,-71.4285714285714,4,2,1,70,0,0
5276,-62.5,4,2,1,70,0,0
18517,-50,4,2,1,80,0,0
30103,-62.5,4,2,1,80,0,0
31758,-62.5,4,2,1,70,0,0
50793,-111.111111111111,4,2,1,70,0,0
51620,-50,4,2,1,80,0,0
63207,-62.5,4,2,1,80,0,0
64862,-50,4,2,1,80,0,0
70448,-62.5,4,2,1,80,0,0
71482,-50,4,2,1,80,0,0
77276,-62.5,4,2,1,80,0,0
78103,-62.5,4,2,1,20,0,0
83896,-111.111111111111,4,2,1,80,0,0
84724,-50,4,2,1,80,0,0
91345,-43.4782608695652,4,2,1,80,0,1
111207,-47.6190476190476,4,2,1,80,0,1
114517,-52.6315789473684,4,2,1,80,0,1
117828,-62.5,4,2,1,80,0,0
124448,-71.4285714285714,4,2,2,75,0,0
125896,-71.4285714285714,4,2,2,70,0,0

[Colours]
Combo1 : 38,91,217
Combo2 : 148,148,148
Combo3 : 147,220,236
Combo4 : 106,106,106

[HitObjects]
108,115,3622,6,0,L|212:102,1,104.999996795654,0|0,1:0|1:0,0:0:0:0:
220,97,4035,2,0,B|197:123|197:123|203:158,1,69.9999978637696,0|8,3:0|0:0,0:0:0:0:
362,194,4449,5,8,0:0:0:0:
306,141,4655,1,0,1:0:0:0:
292,142,4760,1,0,1:0:0:0:
279,144,4863,1,8,0:0:0:0:
158,222,5070,1,8,0:0:0:0:
94,180,5277,6,0,B|175:155|165:238|240:213,1,160,4|8,1:0|0:0,0:0:0:0:
297,155,5897,1,8,0:0:0:0:
376,285,6104,5,0,0:0:0:0:
454,302,6311,1,0,1:0:0:0:
471,224,6518,1,8,0:0:0:0:
364,112,6725,1,0,0:0:0:0:
297,155,6932,6,0,P|234:154|186:233,1,160,0|8,1:0|0:0,0:0:0:0:
245,282,7552,1,0,1:0:0:0:
111,184,7759,6,0,L|100:96,1,80,0|0,0:0|1:0,0:0:0:0:
237,76,8173,2,0,B|207:49|207:49|167:56,1,80,8|0,0:0|0:0,0:0:0:0:
184,134,8587,5,0,1:0:0:0:
312,53,8794,1,0,0:0:0:0:
380,93,9001,1,8,0:0:0:0:
508,72,9208,5,8,0:0:0:0:
379,171,9414,2,0,L|388:250,1,80,0|0,0:0|1:0,0:0:0:0:
386,264,9725,1,0,0:0:0:0:
386,264,9828,1,8,0:0:0:0:
458,297,10035,1,0,0:0:0:0:
305,219,10242,6,0,B|224:194|234:277|159:252,1,160,0|8,1:0|0:0,0:0:0:0:
102,194,10862,1,0,1:0:0:0:
361,275,11277,5,0,1:0:0:0:
305,219,11483,2,0,L|316:123,1,80,8|0,0:0|0:0,0:0:0:0:
218,2,11897,6,0,B|227:78|227:78|224:82|224:82|234:159,1,160,0|8,1:0|0:0,0:0:0:0:
162,324,12518,1,8,0:0:0:0:
92,209,12725,6,0,B|122:182|122:182|162:189,1,80,0|0,0:0|1:0,0:0:0:0:
232,360,13139,1,8,0:0:0:0:
92,288,13345,1,0,0:0:0:0:
48,355,13552,6,0,B|2:330|2:330|16:219,1,160,0|8,1:0|0:0,0:0:0:0:
99,107,14173,1,0,1:0:0:0:
216,205,14380,5,0,0:0:0:0:
293,187,14587,1,0,1:0:0:0:
386,129,14794,1,8,0:0:0:0:
499,159,15001,1,0,0:0:0:0:
471,234,15208,6,0,B|461:157|461:157|464:153|464:153|454:76,1,160,0|8,1:0|0:0,0:0:0:0:
371,204,15828,2,0,L|382:108,1,80,8|0,0:0|0:0,0:0:0:0:
161,91,16242,5,0,1:0:0:0:
271,67,16449,1,8,0:0:0:0:
294,177,16656,1,0,1:0:0:0:
227,133,16863,5,0,1:0:0:0:
227,133,17690,5,4,1:2:0:0:
312,260,18518,6,0,P|240:254|202:321,1,150,6|0,1:2|0:0,0:0:0:0:
195,321,18932,1,10,0:0:0:0:
110,152,19139,1,8,0:0:0:0:
49,203,19345,6,0,P|121:185|120:262,1,150,2|0,0:0|0:0,0:0:0:0:
134,252,19759,2,0,P|163:215|210:226,1,100,10|0,0:0|0:0,0:0:0:0:
339,107,20173,5,0,1:0:0:0:
293,259,20380,2,0,L|279:147,1,100,2|8,0:0|0:0,0:0:0:0:
163,56,20794,1,2,1:2:0:0:
47,176,21001,5,2,0:0:0:0:
125,160,21208,1,0,1:0:0:0:
213,236,21414,1,10,0:0:0:0:
368,11,21828,6,0,B|445:-12|435:66|507:42,1,150,2|0,1:2|0:0,0:0:0:0:
512,36,22242,1,10,0:0:0:0:
388,90,22449,1,8,0:0:0:0:
311,70,22656,6,0,P|250:36|216:95,1,150,2|0,0:0|0:0,0:0:0:0:
210,101,23070,2,0,P|181:64|134:75,1,100,10|0,0:0|0:0,0:0:0:0:
1,238,23483,5,0,1:0:0:0:
124,154,23690,2,0,B|77:135|77:135|40:169,1,100,2|8,0:0|0:0,0:0:0:0:
53,297,24104,1,2,1:2:0:0:
199,185,24311,5,2,0:0:0:0:
268,225,24518,1,0,1:0:0:0:
384,181,24725,1,10,0:0:0:0:
182,26,25139,6,0,P|110:20|72:87,1,150,2|0,1:2|0:0,0:0:0:0:
65,87,25553,1,10,0:0:0:0:
199,185,25760,1,8,0:0:0:0:
138,236,25966,6,0,P|210:218|209:295,1,150,2|0,0:0|0:0,0:0:0:0:
227,285,26380,2,0,P|256:248|303:259,1,100,10|0,0:0|0:0,0:0:0:0:
188,350,26794,5,0,1:0:0:0:
272,170,27001,2,0,L|258:58,1,100,2|8,0:0|0:0,0:0:0:0:
125,5,27415,1,2,1:2:0:0:
13,100,27622,5,2,0:0:0:0:
88,74,27829,1,0,1:0:0:0:
191,143,28035,1,10,0:0:0:0:
491,230,28449,6,0,P|419:238|372:359,1,200,2|10,1:2|0:0,0:0:0:0:
442,375,29070,1,8,0:0:0:0:
312,235,29277,5,2,0:0:0:0:
341,161,29483,1,0,1:0:0:0:
238,121,29690,1,10,0:0:0:0:
0,284,30104,6,0,B|-7:223|56:186|56:186|109:238|87:294,1,240,2|0,1:2|0:0,0:0:0:0:
176,384,30932,2,0,L|166:304,1,80,4|0,1:2|0:0,0:0:0:0:
375,19,31759,6,0,L|365:98,1,80,4|2,1:0|0:0,0:0:0:0:
361,111,32070,1,2,0:0:0:0:
360,111,32173,1,10,0:0:0:0:
409,173,32380,1,10,0:0:0:0:
333,289,32587,5,2,0:0:0:0:
376,356,32794,1,2,1:2:0:0:
443,313,33001,2,0,B|483:306|483:306|513:333,1,80,10|2,0:0|0:0,0:0:0:0:
290,222,33414,6,0,L|299:142,1,80,0|2,1:0|0:0,0:0:0:0:
164,28,33828,1,10,0:0:0:0:
181,106,34035,1,2,1:2:0:0:
35,187,34242,5,2,0:0:0:0:
68,81,34449,1,2,1:2:0:0:
174,114,34656,1,10,0:0:0:0:
141,220,34863,1,2,0:0:0:0:
203,269,35070,6,0,L|282:259,1,80,0|2,1:0|0:0,0:0:0:0:
293,254,35379,1,2,0:0:0:0:
293,253,35484,1,10,0:0:0:0:
358,299,35691,1,10,0:0:0:0:
499,233,35898,5,2,0:0:0:0:
420,243,36105,1,2,1:2:0:0:
409,164,36311,2,0,B|379:137|379:137|339:144,1,80,10|2,0:0|0:0,0:0:0:0:
290,11,36725,6,0,L|281:91,1,80,0|2,1:0|0:0,0:0:0:0:
124,199,37139,1,10,0:0:0:0:
109,120,37345,1,2,0:0:0:0:
247,160,37552,5,2,1:2:0:0:
201,226,37759,1,0,0:0:0:0:
199,239,37862,1,8,0:0:0:0:
198,252,37966,2,0,B|236:239|236:239|270:262,1,80,10|0,0:0|0:0,0:0:0:0:
356,359,38380,6,0,B|346:281|346:281|349:277|349:277|339:200,1,160,4|8,1:2|0:0,0:0:0:0:
493,281,39001,2,0,P|465:253|426:255,1,80,8|0,0:0|0:0,0:0:0:0:
271,324,39414,5,0,1:0:0:0:
212,269,39621,2,0,L|221:189,1,80,8|0,0:0|0:0,0:0:0:0:
17,99,40035,6,0,B|98:74|88:157|163:132,1,160,0|8,1:0|0:0,0:0:0:0:
135,258,40656,2,0,P|119:222|82:209,1,80,0|0,1:0|0:0,0:0:0:0:
144,54,41070,5,0,1:0:0:0:
219,80,41277,1,8,0:0:0:0:
76,93,41483,1,0,0:0:0:0:
27,156,41690,5,0,1:0:0:0:
68,255,41897,2,0,P|68:235|77:217,2,40,0|0|8,0:0|0:0|0:0,0:0:0:0:
144,279,42311,2,0,P|152:261|153:241,2,40,8|0|0,0:0|0:0|0:0,0:0:0:0:
209,358,42725,5,0,1:0:0:0:
207,345,42828,1,0,0:0:0:0:
205,332,42932,1,8,0:0:0:0:
314,236,43139,1,0,0:0:0:0:
313,249,43242,1,0,0:0:0:0:
312,262,43345,5,0,1:0:0:0:
171,201,43552,1,0,0:0:0:0:
170,188,43655,1,0,0:0:0:0:
169,175,43759,2,0,L|161:111,1,40,8|0,0:0|0:0,0:0:0:0:
103,86,43966,2,0,L|110:22,1,40,0|0,1:0|0:0,0:0:0:0:
249,183,44173,5,0,0:0:0:0:
227,260,44380,1,0,1:0:0:0:
342,359,44587,5,8,0:0:0:0:
305,236,44794,1,0,0:0:0:0:
351,170,45001,6,0,P|414:171|462:92,1,160,0|8,1:0|0:0,0:0:0:0:
403,43,45621,1,8,0:0:0:0:
275,175,45828,5,0,0:0:0:0:
207,132,46035,1,0,1:0:0:0:
128,284,46242,1,8,0:0:0:0:
248,251,46449,1,0,0:0:0:0:
308,303,46656,6,0,B|385:313|385:313|389:310|389:310|466:320,1,160,0|8,1:0|0:0,0:0:0:0:
387,234,47277,1,0,1:0:0:0:
254,360,47483,5,0,0:0:0:0:
175,373,47690,1,0,1:0:0:0:
151,223,47897,1,8,0:0:0:0:
230,210,48104,1,0,0:0:0:0:
362,179,48311,6,0,B|332:152|332:152|292:159,1,80,0|0,1:0|0:0,0:0:0:0:
357,80,48725,1,8,0:0:0:0:
303,238,48932,1,8,0:0:0:0:
11,97,49346,5,0,1:0:0:0:
121,66,49552,1,8,0:0:0:0:
152,176,49759,1,0,1:0:0:0:
81,137,49966,5,0,1:0:0:0:
81,137,50794,6,0,L|77:168,7,22.4999993133545,2|2|2|2|2|2|2|2,0:3|0:3|0:3|0:3|0:3|0:3|0:3|0:3,0:0:0:0:
77,127,51621,6,0,B|85:199|85:199|83:202|83:202|92:275,1,150,6|0,1:2|0:0,0:0:0:0:
88,284,52035,1,10,0:0:0:0:
226,352,52242,1,8,0:0:0:0:
303,244,52449,6,0,B|268:278|268:278|157:264,1,150,2|0,0:0|0:0,0:0:0:0:
163,257,52863,2,0,P|116:246|87:283,1,100,10|0,0:0|0:0,0:0:0:0:
143,340,53277,5,0,1:0:0:0:
162,167,53483,2,0,P|208:156|237:193,1,100,2|8,0:0|0:0,0:0:0:0:
87,282,53897,1,2,1:2:0:0:
25,149,54104,5,2,0:0:0:0:
98,117,54311,1,0,1:0:0:0:
158,247,54517,1,10,0:0:0:0:
368,11,54932,6,0,B|445:-12|435:66|507:42,1,150,2|0,1:2|0:0,0:0:0:0:
512,36,55346,1,10,0:0:0:0:
388,90,55553,1,8,0:0:0:0:
318,128,55759,6,0,P|260:142|242:236,1,150,2|0,0:0|0:0,0:0:0:0:
230,231,56174,2,0,P|276:220|305:257,1,100,10|0,0:0|0:0,0:0:0:0:
501,272,56587,5,0,1:0:0:0:
358,316,56794,2,0,B|397:347|397:347|442:326,1,100,2|8,0:0|0:0,0:0:0:0:
468,200,57208,1,2,1:2:0:0:
305,257,57415,5,2,0:0:0:0:
233,220,57622,1,0,1:0:0:0:
115,274,57828,1,10,0:0:0:0:
43,237,58035,1,0,0:0:0:0:
140,345,58242,6,0,B|211:322|202:400|279:377,1,150,2|0,1:2|0:0,0:0:0:0:
287,370,58656,1,10,0:0:0:0:
395,254,58863,1,8,0:0:0:0:
334,305,59069,6,0,P|406:287|405:364,1,150,2|0,0:0|0:0,0:0:0:0:
423,354,59483,2,0,P|452:317|499:328,1,100,10|0,0:0|0:0,0:0:0:0:
356,201,59898,5,0,1:0:0:0:
269,348,60104,2,0,L|169:335,1,100,2|8,0:0|0:0,0:0:0:0:
28,317,60518,1,2,1:2:0:0:
110,184,60725,5,2,0:0:0:0:
177,226,60932,1,0,1:0:0:0:
95,359,61139,1,10,0:0:0:0:
371,150,61552,6,0,P|299:158|252:279,1,200,2|10,1:2|0:0,0:0:0:0:
322,295,62173,1,8,0:0:0:0:
192,155,62380,5,2,0:0:0:0:
221,81,62586,1,0,1:0:0:0:
118,41,62793,1,10,0:0:0:0:
340,271,63208,6,0,B|347:210|284:173|284:173|231:225|253:281,1,240,2|0,1:2|0:0,0:0:0:0:
164,371,64036,2,0,L|174:291,1,80,4|0,1:2|0:0,0:0:0:0:
392,52,64863,5,2,1:2:0:0:
368,47,64966,1,0,0:0:0:0:
348,60,65069,1,0,0:0:0:0:
434,157,65277,5,10,0:0:0:0:
450,138,65380,1,0,0:0:0:0:
449,114,65483,1,8,0:0:0:0:
323,141,65690,5,2,2:0:0:0:
330,164,65793,1,0,2:0:0:0:
351,175,65896,1,0,1:2:0:0:
454,245,66104,6,0,P|432:232|407:232,1,50,10|0,2:0|2:0,0:0:0:0:
390,309,66311,2,0,P|411:321|436:321,1,50,0|0,2:0|2:0,0:0:0:0:
208,212,66518,5,2,1:2:0:0:
203,236,66621,1,0,0:0:0:0:
216,256,66724,1,0,0:0:0:0:
313,170,66932,5,10,0:0:0:0:
294,154,67035,1,0,2:0:0:0:
270,155,67138,1,0,1:0:0:0:
297,281,67345,5,2,2:0:0:0:
320,274,67448,1,0,2:0:0:0:
331,253,67551,1,0,1:2:0:0:
401,150,67759,6,0,P|388:171|388:196,1,50,10|0,2:0|2:0,0:0:0:0:
465,214,67966,2,0,P|477:192|477:167,1,50,0|0,2:0|2:0,0:0:0:0:
350,91,68173,5,2,1:2:0:0:
346,63,68277,1,0,2:0:0:0:
343,36,68379,1,0,2:0:0:0:
286,140,68587,6,0,L|206:130,1,50,10|0,0:0|0:0,0:0:0:0:
192,69,68794,2,0,L|142:75,1,50,10|0,0:0|0:0,0:0:0:0:
154,206,69001,5,2,2:0:0:0:
158,178,69105,1,0,2:0:0:0:
161,151,69207,1,0,1:2:0:0:
218,255,69414,6,0,L|297:245,1,50,10|0,0:0|0:0,0:0:0:0:
312,184,69621,2,0,L|361:190,1,50,2|0,1:2|0:0,0:0:0:0:
349,304,69828,5,2,1:2:0:0:
346,284,69932,1,0,0:0:0:0:
344,265,70034,1,2,0:0:0:0:
294,364,70242,5,8,0:0:0:0:
235,314,70449,2,0,B|154:289|164:372|89:347,1,160,10|2,0:0|1:2,0:0:0:0:
40,250,71070,2,0,L|34:297,2,40,10|0|2,0:0|0:0|0:0,0:0:0:0:
37,124,71483,5,6,1:2:0:0:
32,148,71586,1,0,0:0:0:0:
45,168,71689,1,0,0:0:0:0:
155,229,71897,5,10,0:0:0:0:
136,212,72000,1,0,0:0:0:0:
112,213,72103,1,8,0:0:0:0:
6,279,72311,5,2,0:0:0:0:
29,271,72414,1,0,0:0:0:0:
40,250,72517,1,0,1:2:0:0:
0,154,72725,6,0,P|21:167|46:167,1,50,10|0,0:0|0:0,0:0:0:0:
64,90,72932,2,0,P|42:78|17:78,1,50,0|0,0:0|0:0,0:0:0:0:
112,213,73139,5,2,1:2:0:0:
136,218,73242,1,0,0:0:0:0:
156,205,73345,1,0,0:0:0:0:
217,95,73553,5,10,0:0:0:0:
200,114,73656,1,0,0:0:0:0:
201,138,73759,1,0,0:0:0:0:
267,244,73967,5,2,0:0:0:0:
259,221,74070,1,0,0:0:0:0:
238,210,74173,1,0,1:2:0:0:
142,250,74379,6,0,P|155:229|155:204,1,50,10|0,0:0|0:0,0:0:0:0:
78,186,74586,2,0,P|66:208|66:233,1,50,2|0,0:0|0:0,0:0:0:0:
214,353,74794,5,2,1:2:0:0:
210,325,74898,1,0,0:0:0:0:
207,298,75000,1,2,0:0:0:0:
328,204,75208,6,0,L|321:253,1,50,10|2,0:0|0:0,0:0:0:0:
288,323,75414,2,0,B|309:334|309:334|333:329,1,50,10|0,0:0|0:0,0:0:0:0:
249,195,75621,5,2,0:0:0:0:
245,167,75725,1,0,0:0:0:0:
242,140,75827,1,2,1:2:0:0:
372,46,76035,6,0,B|350:34|350:34|326:39,1,50,10|0,0:0|0:0,0:0:0:0:
316,117,76242,2,0,B|337:128|337:128|361:123,1,50,2|0,0:0|0:0,0:0:0:0:
473,180,76449,5,2,1:2:0:0:
452,166,76552,1,2,0:0:0:0:
429,169,76655,1,2,0:0:0:0:
459,259,76863,5,2,1:2:0:0:
428,263,76966,1,0,0:0:0:0:
401,245,77069,1,2,1:2:0:0:
346,335,77277,6,0,L|341:295,2,40,2|0|0,1:2|0:0|0:0,0:0:0:0:
281,382,77690,2,0,B|206:407|216:324|135:349,1,160,6|0,1:2|0:0,0:0:0:0:
361,94,83897,6,0,L|349:189,1,89.9999972534181,2|0,0:2|0:0,0:0:0:0:
164,31,84725,6,0,P|236:25|274:92,1,150,2|0,1:2|0:0,0:0:0:0:
281,92,85139,1,10,0:0:0:0:
147,190,85346,1,8,0:0:0:0:
208,241,85552,6,0,P|136:223|137:300,1,150,2|0,0:0|0:0,0:0:0:0:
119,290,85966,2,0,P|90:253|43:264,1,100,10|0,0:0|0:0,0:0:0:0:
278,280,86380,5,0,1:0:0:0:
179,137,86587,2,0,L|192:37,1,100,2|8,0:0|0:0,0:0:0:0:
103,152,87001,1,2,1:2:0:0:
263,101,87207,5,2,0:0:0:0:
330,143,87414,1,0,1:0:0:0:
248,276,87621,1,10,0:0:0:0:
59,16,88035,6,0,P|131:24|178:145,1,200,2|10,1:2|0:0,0:0:0:0:
108,161,88656,1,8,0:0:0:0:
263,101,88863,5,2,0:0:0:0:
337,130,89069,1,0,1:0:0:0:
377,27,89276,1,10,0:0:0:0:
150,293,89690,6,0,B|204:263|204:263|185:104,1,200,2|8,1:2|0:0,0:0:0:0:
115,90,90311,1,2,0:0:0:0:
304,34,90518,5,0,1:0:0:0:
269,152,90725,1,8,0:0:0:0:
235,271,90932,1,8,0:0:0:0:
297,224,91139,1,0,1:0:0:0:
446,369,91345,6,0,B|357:395|369:305|286:333,1,172.500003290176,6|0,1:2|0:0,0:0:0:0:
281,341,91759,1,10,0:0:0:0:
120,384,91966,1,8,0:0:0:0:
4,301,92173,6,0,P|44:330|61:236,1,172.500003290176,2|0,0:0|0:0,0:0:0:0:
79,235,92587,1,10,0:0:0:0:
110,161,92794,1,0,0:0:0:0:
47,43,93001,5,0,1:0:0:0:
233,67,93208,2,0,L|118:81,1,115.000002193451,2|8,0:0|0:0,0:0:0:0:
3,207,93621,1,2,1:2:0:0:
164,285,93828,5,2,0:0:0:0:
84,186,94035,1,0,1:0:0:0:
49,338,94242,5,10,0:0:0:0:
86,266,94449,1,0,0:0:0:0:
231,158,94656,6,0,B|241:242|241:242|239:246|239:246|248:329,1,172.500003290176,2|0,1:2|0:0,0:0:0:0:
246,338,95070,1,10,0:0:0:0:
79,260,95277,1,8,0:0:0:0:
0,376,95483,5,2,0:0:0:0:
125,325,95690,1,0,1:0:0:0:
231,158,95897,5,10,0:0:0:0:
159,121,96104,1,0,0:0:0:0:
251,233,96311,5,0,1:0:0:0:
323,68,96518,2,0,B|271:43|271:43|226:79,1,115.000002193451,2|8,0:0|0:0,0:0:0:0:
359,141,96932,1,2,1:2:0:0:
481,84,97139,5,2,0:0:0:0:
350,220,97345,1,0,1:0:0:0:
440,149,97552,5,10,0:0:0:0:
403,77,97759,1,0,0:0:0:0:
374,299,97966,6,0,B|285:325|297:235|214:263,1,172.500003290176,2|0,1:2|0:0,0:0:0:0:
209,271,98380,1,10,0:0:0:0:
41,382,98587,1,8,0:0:0:0:
0,181,98794,5,2,0:0:0:0:
131,267,99001,1,0,1:0:0:0:
253,166,99208,5,10,0:0:0:0:
178,195,99415,1,0,0:0:0:0:
29,252,99621,5,0,1:0:0:0:
160,117,99828,2,0,B|117:77|117:77|64:99,1,115.000002193451,2|8,0:0|0:0,0:0:0:0:
178,195,100242,1,2,1:2:0:0:
134,2,100449,5,2,0:0:0:0:
99,170,100656,1,0,1:0:0:0:
233,256,100863,5,10,0:0:0:0:
250,335,101070,1,0,0:0:0:0:
384,224,101277,6,0,P|361:155|301:222,1,172.500003290176,2|0,1:2|0:0,0:0:0:0:
287,201,101690,1,10,0:0:0:0:
401,86,101897,1,8,0:0:0:0:
207,14,102104,5,2,0:0:0:0:
236,140,102311,1,0,1:0:0:0:
143,236,102518,5,10,0:0:0:0:
160,157,102725,1,0,0:0:0:0:
301,93,102932,5,2,1:2:0:0:
309,173,103139,1,0,0:0:0:0:
321,277,103345,1,8,0:0:0:0:
296,86,103552,5,2,1:2:0:0:
253,233,103759,2,0,L|138:219,1,115.000002193451,8|8,0:0|0:0,0:0:0:0:
135,213,104070,1,8,0:0:0:0:
135,213,104173,1,0,1:0:0:0:
31,371,104380,1,8,0:0:0:0:
32,356,104483,1,8,0:0:0:0:
34,342,104587,6,0,B|123:368|111:278|194:306,1,172.500003290176,6|0,1:2|0:0,0:0:0:0:
199,314,105001,1,10,0:0:0:0:
354,364,105208,1,8,0:0:0:0:
385,234,105415,6,0,P|345:205|328:299,1,172.500003290176,2|0,0:0|0:0,0:0:0:0:
310,300,105829,1,10,0:0:0:0:
279,374,106036,1,0,0:0:0:0:
217,232,106243,5,0,1:0:0:0:
308,124,106448,2,0,L|423:138,1,115.000002193451,2|8,0:0|0:0,0:0:0:0:
237,157,106863,1,2,1:2:0:0:
164,37,107070,5,2,0:0:0:0:
20,125,107277,1,0,1:0:0:0:
178,211,107484,5,10,0:0:0:0:
255,234,107691,1,0,0:0:0:0:
113,302,107898,6,0,B|103:218|103:218|105:214|105:214|96:131,1,172.500003290176,2|0,1:2|0:0,0:0:0:0:
98,122,108312,1,10,0:0:0:0:
252,22,108517,1,8,0:0:0:0:
176,111,108725,5,2,0:0:0:0:
51,60,108932,1,0,1:0:0:0:
179,189,109139,5,10,0:0:0:0:
248,148,109346,1,0,0:0:0:0:
356,240,109553,5,0,1:0:0:0:
284,75,109760,2,0,B|336:50|336:50|381:86,1,115.000002193451,2|8,0:0|0:0,0:0:0:0:
248,148,110174,1,2,1:2:0:0:
126,91,110379,5,2,0:0:0:0:
257,227,110587,1,0,1:0:0:0:
167,156,110794,5,10,0:0:0:0:
204,84,111001,1,0,0:0:0:0:
178,236,111208,6,0,B|96:212|107:294|31:268,1,157.499995193482,2|0,1:2|0:0,0:0:0:0:
25,274,111621,1,10,0:0:0:0:
0,115,111828,1,8,0:0:0:0:
192,159,112035,5,2,0:0:0:0:
157,314,112242,1,0,1:0:0:0:
278,198,112449,2,0,L|265:93,1,104.999996795654,10|0,0:0|0:0,0:0:0:0:
360,203,112863,5,0,1:0:0:0:
178,140,113070,2,0,L|190:35,1,104.999996795654,2|8,0:0|0:0,0:0:0:0:
110,182,113483,1,2,1:2:0:0:
265,93,113690,5,2,0:0:0:0:
286,236,113897,1,0,1:0:0:0:
421,160,114104,2,0,B|384:121|384:121|334:137,1,104.999996795654,10|0,0:0|0:0,0:0:0:0:
358,271,114518,6,0,P|411:236|443:292,1,142.49999619484,2|0,1:2|0:0,0:0:0:0:
448,300,114932,1,10,0:0:0:0:
421,160,115139,1,8,0:0:0:0:
299,95,115345,5,2,0:0:0:0:
320,0,115552,1,0,1:0:0:0:
220,119,115759,2,0,L|231:213,1,94.9999974632264,10|0,0:0|0:0,0:0:0:0:
209,384,116173,5,2,1:2:0:0:
264,286,116380,2,0,B|220:306|220:306|183:276,1,94.9999974632264,0|8,1:0|0:0,0:0:0:0:
309,218,116794,1,2,0:0:0:0:
383,251,117001,5,0,1:0:0:0:
256,160,117208,1,8,0:0:0:0:
335,48,117414,1,8,0:0:0:0:
328,126,117621,1,0,1:0:0:0:
184,194,117828,6,0,B|190:251|190:251|188:253|188:253|195:311,1,120,6|0,1:2|0:0,0:0:0:0:
189,319,118242,1,10,0:0:0:0:
303,376,118449,1,8,0:0:0:0:
269,248,118655,6,0,P|292:297|344:279,1,120,2|0,0:0|0:0,0:0:0:0:
344,269,119070,2,0,P|374:283|410:251,1,80,10|0,0:0|0:0,0:0:0:0:
512,278,119483,5,0,1:0:0:0:
471,210,119690,2,0,L|482:114,1,80,2|8,0:0|0:0,0:0:0:0:
430,68,120104,1,2,1:2:0:0:
307,140,120311,6,0,P|343:151|373:126,1,80,2|0,0:0|1:0,0:0:0:0:
353,49,120725,2,0,P|316:37|286:62,1,80,10|0,0:0|0:0,0:0:0:0:
264,208,121139,6,0,P|206:219|178:270,1,120,2|0,1:2|0:0,0:0:0:0:
183,278,121552,1,10,0:0:0:0:
241,376,121759,1,8,0:0:0:0:
98,307,121966,6,0,L|113:179,1,120,2|0,0:0|0:0,0:0:0:0:
108,179,122380,2,0,P|78:203|41:192,1,80,10|0,0:0|0:0,0:0:0:0:
184,251,122794,5,0,1:0:0:0:
225,183,123001,2,0,L|214:87,1,80,2|8,0:0|0:0,0:0:0:0:
266,41,123415,1,2,1:2:0:0:
140,20,123622,6,0,P|151:56|126:86,1,80,2|0,0:0|1:0,0:0:0:0:
49,66,124036,2,0,P|37:29|62:-1,1,80,10|0,0:0|0:0,0:0:0:0:
156,161,124449,6,0,B|227:140|218:211|284:188,1,139.999995727539,2|2,1:2|0:0,0:0:0:0:
359,217,125070,1,2,0:0:0:0:
449,112,125277,5,10,0:0:0:0:
436,189,125483,1,0,0:0:0:0:
423,266,125690,1,0,0:0:0:0:
301,330,125897,6,0,B|334:338|334:338|363:318,1,69.9999978637696,2|0,0:0|0:0,0:0:0:0:
349,240,126311,2,0,B|315:231|315:231|286:251,1,69.9999978637696,2|0,1:2|0:0,0:0:0:0:
240,377,126725,5,2,1:2:0:0:
184,322,126932,2,0,P|122:312|88:240,1,139.999995727539,10|2,0:0|0:0,0:0:0:0:
192,104,127759,6,0,L|203:8,1,69.9999978637696,2|0,1:2|0:0,0:0:0:0:
271,113,128173,2,0,L|282:17,1,69.9999978637696,2|0,0:0|0:0,0:0:0:0:
121,175,128587,6,0,L|109:79,1,69.9999978637696,10|0,0:0|0:0,0:0:0:0:
42,184,129001,2,0,L|30:88,1,69.9999978637696,2|0,0:0|0:0,0:0:0:0:
186,228,129414,5,2,0:0:0:0:
263,246,129621,1,0,1:2:0:0:
245,323,129828,1,2,0:0:0:0:
168,305,130035,1,0,1:2:0:0:
271,239,130242,6,0,L|259:143,1,69.9999978637696,10|0,0:0|0:0,0:0:0:0:
350,230,130656,2,0,L|338:134,1,69.9999978637696,2|0,0:0|0:0,0:0:0:0:
389,62,131070,6,0,B|318:41|327:112|261:89,1,139.999995727539,2|0,1:2|0:0,0:0:0:0:
193,132,131691,1,2,0:0:0:0:
139,73,131897,2,0,P|78:52|49:109,1,139.999995727539,8|0,0:0|0:0,0:0:0:0:
212,209,132725,5,2,0:0:0:0:
193,132,132932,2,0,B|227:123|227:123|256:143,1,69.9999978637696,0|0,1:2|0:0,0:0:0:0:
371,135,133345,5,2,1:2:0:0:
326,69,133552,2,0,L|343:211,1,139.999995727539,10|2,0:0|0:0,0:0:0:0:
259,292,134380,5,0,1:2:0:0:
234,374,134587,1,2,0:0:0:0:
250,296,134794,1,2,0:0:0:0:
266,218,135001,1,2,0:0:0:0:
176,154,135208,6,0,B|243:177|234:106|305:127,1,139.999995727539,10|2,0:0|0:0,0:0:0:0:
137,223,136035,5,2,0:0:0:0:
60,241,136242,1,0,1:0:0:0:
78,318,136449,1,2,0:0:0:0:
155,300,136656,1,2,1:2:0:0:
52,234,136863,6,0,L|68:94,1,139.999995727539,10|2,0:0|0:0,0:0:0:0:
129,44,137483,1,2,0:0:0:0:
191,92,137690,5,0,1:2:0:0:
254,44,137897,2,0,B|325:23|316:94|383:71,1,139.999995727539,2|2,0:0|0:0,0:0:0:0:
458,45,138518,2,0,P|416:60|419:147,1,139.999995727539,10|0,0:0|0:0,0:0:0:0:
373,211,139139,6,0,L|277:199,1,69.9999978637696,2|0,0:0|0:0,0:0:0:0:
261,135,139552,2,0,L|191:143,1,69.9999978637696,2|0,1:2|0:0,0:0:0:0:
130,92,139966,5,0,1:2:0:0:
66,139,140173,2,0,L|48:277,1,139.999995727539,10|2,0:0|0:0,0:0:0:0:
292,268,141001,6,0,L|303:364,1,69.9999978637696,2|0,1:2|0:0,0:0:0:0:
371,259,141415,2,0,L|382:355,1,69.9999978637696,2|0,0:0|0:0,0:0:0:0:
221,197,141829,6,0,L|209:293,1,69.9999978637696,10|0,0:0|0:0,0:0:0:0:
142,188,142243,2,0,L|130:284,1,69.9999978637696,2|0,0:0|0:0,0:0:0:0:
286,144,142656,5,2,0:0:0:0:
305,67,142863,2,0,B|271:58|271:58|242:78,1,69.9999978637696,0|0,1:2|0:0,0:0:0:0:
362,121,143277,5,2,1:2:0:0:
352,197,143483,2,0,B|419:220|410:149|481:170,2,139.999995727539,8|0|0,0:0|0:0|0:0,0:0:0:0:
