osu file format v14

[General]
AudioFilename: audio.mp3
AudioLeadIn: 0
PreviewTime: 104277
Countdown: 0
SampleSet: Soft
StackLeniency: 0.3
Mode: 0
LetterboxInBreaks: 0
WidescreenStoryboard: 0

[Editor]
Bookmarks: 5277,18518,31759,38380,51621,64863,78104,91345,104587,117828,131070
DistanceSpacing: 1
BeatDivisor: 4
GridSize: 32
TimelineZoom: 1.3

[Metadata]
Title:Cabo
TitleUnicode:Cabo
Artist:Ricky Montgomery
ArtistUnicode:Ricky Montgomery
Creator:[Mad]
Version:Expert
Source:osu!
Tags:alternative rock indie the honeysticks english creamy candy xen xehn xenon- featured artist fa
BeatmapID:2165905
BeatmapSetID:1035982

[Difficulty]
HPDrainRate:5
CircleSize:4.2
OverallDifficulty:8.5
ApproachRate:8.8
SliderMultiplier:1.4
SliderTickRate:1

[Events]
//Background and Video events
0,0,"bg.jpg",0,0
//Break Periods
2,78303,83070
//Storyboard Layer 0 (Background)
//Storyboard Layer 1 (Fail)
//Storyboard Layer 2 (Pass)
//Storyboard Layer 3 (Foreground)
//Storyboard Layer 4 (Overlay)
//Storyboard Sound Samples

[TimingPoints]
311,413.793103448276,4,2,1,70,1,0
3621,-133.333333333333,4,2,1,70,0,0
5276,-100,4,2,1,70,0,0
17689,-66.6666666666667,4,2,1,70,0,0
18517,-66.6666666666667,4,2,1,80,0,1
20379,-133.333333333333,4,2,1,80,0,1
21827,-66.6666666666667,4,2,1,80,0,1
23689,-133.333333333333,4,2,1,80,0,1
25138,-66.6666666666667,4,2,1,80,0,1
27000,-100,4,2,1,80,0,1
28448,-66.6666666666667,4,2,1,80,0,1
31759,-100,4,2,1,70,0,0
37241,-100,4,2,1,10,0,0
37344,-100,4,2,1,70,0,0
37448,-100,4,2,1,10,0,0
37551,-100,4,2,1,70,0,0
38379,-100,4,2,1,70,0,0
50793,-100,4,2,1,70,0,0
51621,-66.6666666666667,4,2,1,80,0,1
53482,-133.333333333333,4,2,1,80,0,1
54931,-66.6666666666667,4,2,1,80,0,1
56793,-133.333333333333,4,2,1,80,0,1
58241,-66.6666666666667,4,2,1,80,0,1
60103,-100,4,2,1,80,0,1
61551,-66.6666666666667,4,2,1,80,0,1
64862,-80,4,2,1,80,0,0
68586,-57.1428571428571,4,2,1,80,0,0
69000,-80,4,2,1,80,0,0
69413,-50,4,2,1,80,0,0
69827,-100,4,2,1,80,0,0
71482,-80,4,2,1,80,0,0
74379,-66.6666666666667,4,2,1,80,0,0
75207,-57.1428571428571,4,2,1,80,0,0
75620,-66.6666666666667,4,2,1,80,0,0
76034,-40,4,2,1,80,0,0
77689,-133.333333333333,4,2,1,80,0,0
78103,-133.333333333333,4,2,1,20,0,0
83896,-200,4,2,1,80,0,0
84724,-66.6666666666667,4,2,1,80,0,1
86587,-100,4,2,1,80,0,1
88035,-66.6666666666667,4,2,1,80,0,1
91138,-66.6666666666667,4,2,1,80,0,0
91345,-66.6666666666667,4,2,1,80,0,1
93208,-133.333333333333,4,2,1,80,0,1
94656,-66.6666666666667,4,2,1,80,0,1
96518,-133.333333333333,4,2,1,80,0,1
99828,-100,4,2,1,80,0,1
101277,-66.6666666666667,4,2,1,80,0,1
104276,-66.6666666666667,4,2,1,80,0,0
104586,-66.6666666666667,4,2,1,80,0,1
106449,-133.333333333333,4,2,1,80,0,1
107897,-66.6666666666667,4,2,1,80,0,1
109759,-133.333333333333,4,2,1,80,0,1
113070,-100,4,2,1,80,0,1
114518,-66.6666666666667,4,2,1,80,0,1
117621,-66.6666666666667,4,2,1,80,0,0
117828,-66.6666666666667,4,2,1,80,0,1
119690,-133.333333333333,4,2,1,80,0,1
121139,-66.6666666666667,4,2,1,80,0,1
123001,-133.333333333333,4,2,1,80,0,1
124448,-80,4,2,2,75,0,0
125897,-86.9565217391304,4,2,2,70,0,0
126932,-95.2380952380952,4,2,2,70,0,0
131070,-100,4,2,2,70,0,0

[Colours]
Combo1 : 38,91,217
Combo2 : 148,148,148
Combo3 : 147,220,236
Combo4 : 106,106,106

[HitObjects]
132,236,3622,6,0,L|216:250,1,78.7500030040742,0|0,1:0|1:0,0:0:0:0:
288,264,4035,1,0,3:0:0:0:
175,146,4242,1,8,0:0:0:0:
376,256,4449,1,8,0:0:0:0:
296,96,4656,1,0,1:0:0:0:
286,113,4759,1,0,1:0:0:0:
371,105,4863,1,8,0:0:0:0:
156,150,5070,1,8,0:0:0:0:
197,14,5277,6,0,P|208:51|210:92,1,70,4|0,1:0|0:0,0:0:0:0:
185,242,5690,1,8,0:0:0:0:
16,11,5897,2,0,P|69:16|130:73,1,140,8|0,0:0|1:0,0:0:0:0:
328,193,6518,2,0,P|293:196|259:206,1,70,8|0,0:0|0:0,0:0:0:0:
107,334,6932,6,0,P|176:310|249:310,1,140,0|8,1:0|0:0,0:0:0:0:
422,170,7552,2,0,P|407:201|406:249,1,70,0|0,1:0|0:0,0:0:0:0:
482,115,7966,1,0,1:0:0:0:
493,257,8173,2,0,P|508:225|512:191,1,70,8|0,0:0|0:0,0:0:0:0:
404,72,8587,5,0,1:0:0:0:
326,220,8794,2,0,P|323:185|308:153,1,70,0|8,0:0|0:0,0:0:0:0:
201,123,9208,1,8,0:0:0:0:
222,285,9414,2,0,P|224:250|239:218,1,70,0|0,0:0|1:0,0:0:0:0:
216,363,9725,1,0,0:0:0:0:
195,359,9828,2,0,P|166:339|146:310,1,70,8|0,0:0|0:0,0:0:0:0:
108,180,10242,6,0,P|140:238|145:315,1,140,0|8,1:0|0:0,0:0:0:0:
47,126,10863,2,0,P|31:157|28:192,1,70,0|0,1:0|0:0,0:0:0:0:
66,342,11277,1,0,1:0:0:0:
124,82,11483,2,0,P|179:69|246:92,1,105,8|0,0:0|0:0,0:0:0:0:
289,133,11897,6,0,P|328:130|364:108,1,70,0|0,1:0|0:0,0:0:0:0:
491,244,12311,1,8,0:0:0:0:
452,173,12517,1,8,0:0:0:0:
274,371,12725,2,0,P|304:329|312:277,1,105,0|0,0:0|0:0,0:0:0:0:
262,219,13139,1,8,0:0:0:0:
4,297,13345,1,0,0:0:0:0:
68,371,13552,6,0,P|71:332|93:296,1,70,0|0,1:0|0:0,0:0:0:0:
0,150,13966,2,0,P|30:134|65:131,1,70,8|0,0:0|1:0,0:0:0:0:
385,175,14380,2,0,P|334:172|260:220,1,140,0|8,0:0|0:0,0:0:0:0:
173,334,15001,1,0,0:0:0:0:
204,61,15208,6,0,P|227:92|233:132,1,70,0|0,1:0|0:0,0:0:0:0:
177,315,15621,1,8,0:0:0:0:
346,57,15828,2,0,P|273:74|228:135,1,140,8|0,0:0|1:0,0:0:0:0:
498,326,16449,1,8,0:0:0:0:
435,95,16656,1,0,1:0:0:0:
496,32,16863,1,0,1:0:0:0:
496,32,17690,6,0,B|459:48|418:36|418:36|406:50|406:50|352:23|292:42,1,210.000008010865,4|0,1:2|0:0,0:0:0:0:
338,110,18518,6,0,P|289:87|232:86,1,105.000004005432,6|0,1:2|0:0,0:0:0:0:
46,169,18932,1,10,0:0:0:0:
200,231,19139,1,8,0:0:0:0:
169,327,19345,2,0,P|218:304|275:303,1,105.000004005432,2|0,0:0|1:0,0:0:0:0:
452,351,19759,1,10,0:0:0:0:
362,273,19966,1,0,0:0:0:0:
465,77,20173,1,0,1:0:0:0:
511,156,20380,6,0,P|485:156|445:186,1,52.5000020027161,2|8,0:0|0:0,0:0:0:0:
498,235,20794,1,2,1:2:0:0:
222,82,21001,2,0,P|256:88|281:108,1,52.5000020027161,2|0,0:0|1:0,0:0:0:0:
434,3,21414,2,0,P|412:18|386:67,1,78.7500030040742,10|0,0:0|0:0,0:0:0:0:
386,209,21828,6,0,P|385:261|365:309,1,105.000004005432,2|0,1:2|0:0,0:0:0:0:
112,142,22242,1,10,0:0:0:0:
21,297,22449,1,8,0:0:0:0:
111,325,22656,2,0,P|90:277|89:225,1,105.000004005432,2|0,0:0|1:0,0:0:0:0:
196,303,23070,2,0,P|195:250|174:203,1,105.000004005432,10|0,0:0|0:0,0:0:0:0:
62,26,23483,1,0,1:0:0:0:
27,102,23690,6,0,P|57:101|94:116,1,52.5000020027161,2|8,0:0|0:0,0:0:0:0:
45,174,24104,1,2,1:2:0:0:
358,69,24311,2,0,P|324:81|302:102,1,52.5000020027161,2|0,0:0|1:0,0:0:0:0:
72,273,24725,1,10,0:0:0:0:
72,273,25139,6,0,P|123:299|177:298,1,105.000004005432,2|0,1:2|0:0,0:0:0:0:
455,186,25552,5,10,0:0:0:0:
430,258,25759,1,8,0:0:0:0:
155,212,25966,5,2,0:0:0:0:
280,306,26173,1,0,1:0:0:0:
512,136,26380,5,10,0:0:0:0:
361,304,26587,1,0,0:0:0:0:
232,154,26794,1,0,1:0:0:0:
223,243,27001,6,0,P|259:225|304:225,1,70,2|8,0:0|0:0,0:0:0:0:
427,251,27414,1,2,1:2:0:0:
239,17,27621,1,2,0:0:0:0:
180,90,27828,1,0,1:0:0:0:
280,306,28035,1,10,0:0:0:0:
280,306,28449,6,0,P|234:340|211:402,1,105,2|0,1:2|0:0,0:0:0:0:
24,159,28863,2,0,P|70:193|93:255,1,105.000004005432,10|8,0:0|0:0,0:0:0:0:
358,244,29277,2,0,P|239:231|172:290,1,210.000008010865,2|10,0:0|0:0,0:0:0:0:
512,0,30104,1,2,1:2:0:0:
134,116,30932,6,0,B|176:142|226:125|226:125|249:141|249:141|295:126|341:162,1,210.000008010865,4|0,1:2|0:0,0:0:0:0:
277,218,31759,6,0,L|353:231,1,70,4|2,1:0|0:0,0:0:0:0:
423,221,32070,1,2,0:0:0:0:
410,301,32173,2,0,L|486:287,1,70,10|10,0:0|0:0,0:0:0:0:
327,314,32587,5,2,0:0:0:0:
415,121,32794,1,2,1:2:0:0:
250,84,33001,1,10,0:0:0:0:
312,150,33208,1,2,0:0:0:0:
485,50,33414,1,0,1:0:0:0:
421,2,33621,5,2,0:0:0:0:
250,84,33828,2,0,L|262:15,1,70,10|2,0:0|1:2,0:0:0:0:
107,125,34242,1,2,0:0:0:0:
219,243,34449,1,2,1:2:0:0:
66,283,34656,1,10,0:0:0:0:
127,212,34863,1,2,0:0:0:0:
306,273,35070,6,0,L|292:198,1,70,0|2,1:0|0:0,0:0:0:0:
311,130,35380,1,2,0:0:0:0:
382,181,35483,2,0,L|395:106,1,70,10|10,0:0|0:0,0:0:0:0:
432,264,35897,5,2,0:0:0:0:
226,354,36104,1,2,1:2:0:0:
232,202,36311,1,10,0:0:0:0:
274,283,36518,1,2,0:0:0:0:
116,93,36725,1,0,1:0:0:0:
184,41,36932,5,2,0:0:0:0:
114,200,37139,2,0,L|168:190,1,35,10|0,0:0|0:0,0:0:0:0:
264,91,37345,2,0,L|298:84,1,35,2|0,0:0|0:0,0:0:0:0:
399,208,37552,2,0,B|366:201|366:201|359:206|359:206|324:198,1,70,2|0,1:2|0:0,0:0:0:0:
259,172,37863,1,8,0:0:0:0:
201,257,37966,2,0,B|234:250|234:250|241:255|241:255|276:247,1,70,10|0,0:0|0:0,0:0:0:0:
267,248,38380,6,0,P|318:273|367:343,1,140,4|8,1:2|0:0,0:0:0:0:
497,158,39001,2,0,P|462:165|427:196,1,70,8|0,0:0|0:0,0:0:0:0:
151,79,39414,2,0,P|185:86|220:117,1,70,0|8,1:0|0:0,0:0:0:0:
152,156,39828,1,0,0:0:0:0:
422,119,40035,6,0,P|437:168|423:212,1,70,0|0,1:0|0:0,0:0:0:0:
293,277,40449,1,8,0:0:0:0:
380,27,40656,2,0,P|340:71|339:164,1,140,0|0,1:0|1:0,0:0:0:0:
358,231,41277,1,8,0:0:0:0:
261,167,41483,1,0,0:0:0:0:
46,253,41690,1,0,1:0:0:0:
213,312,41897,5,0,0:0:0:0:
198,239,42001,1,0,0:0:0:0:
128,251,42104,1,8,0:0:0:0:
143,324,42208,1,0,0:0:0:0:
194,316,42311,5,8,0:0:0:0:
202,257,42415,1,0,0:0:0:0:
146,246,42518,1,0,0:0:0:0:
138,305,42622,1,0,0:0:0:0:
178,313,42725,5,0,1:0:0:0:
201,271,42829,1,0,0:0:0:0:
162,249,42932,1,8,0:0:0:0:
139,291,43036,1,0,0:0:0:0:
167,308,43139,5,0,0:0:0:0:
196,282,43243,1,0,0:0:0:0:
173,254,43346,1,0,1:0:0:0:
144,280,43448,1,0,0:0:0:0:
161,300,43552,5,0,0:0:0:0:
189,289,43656,1,0,0:0:0:0:
179,262,43759,1,8,0:0:0:0:
151,273,43863,1,0,0:0:0:0:
158,293,43966,5,0,1:0:0:0:
182,292,44070,1,0,0:0:0:0:
85,224,44173,6,0,P|59:227|20:248,1,70,0|0,0:0|1:0,0:0:0:0:
331,328,44587,1,8,0:0:0:0:
186,82,44794,1,0,0:0:0:0:
122,153,45001,6,0,P|148:156|187:177,1,70,0|0,1:0|0:0,0:0:0:0:
343,249,45414,1,8,0:0:0:0:
269,278,45621,1,8,0:0:0:0:
314,29,45828,2,0,P|272:53|251:126,1,105,0|0,0:0|0:0,0:0:0:0:
268,177,46242,1,8,0:0:0:0:
227,344,46449,1,0,0:0:0:0:
206,50,46656,6,0,P|227:65|250:103,1,70,0|0,1:0|0:0,0:0:0:0:
477,189,47070,2,0,P|442:188|409:200,1,70,8|0,0:0|1:0,0:0:0:0:
88,209,47483,2,0,P|169:230|218:276,1,140,0|8,0:0|0:0,0:0:0:0:
158,377,48104,1,0,0:0:0:0:
15,90,48311,6,0,P|45:107|67:133,1,70,0|0,1:0|0:0,0:0:0:0:
89,315,48725,1,8,0:0:0:0:
269,138,48932,2,0,P|187:128|142:74,1,140,8|0,0:0|1:0,0:0:0:0:
430,27,49552,1,8,0:0:0:0:
355,266,49759,1,0,1:0:0:0:
437,320,49966,1,0,1:0:0:0:
436,307,50794,5,2,0:3:0:0:
441,338,50897,1,2,0:3:0:0:
444,307,51001,5,2,0:3:0:0:
432,337,51104,1,2,0:3:0:0:
450,312,51208,5,2,0:3:0:0:
426,332,51311,1,2,0:3:0:0:
454,320,51414,5,2,0:3:0:0:
422,325,51517,1,2,0:3:0:0:
492,247,51621,6,0,P|434:247|371:208,1,105.000004005432,6|0,1:2|0:0,0:0:0:0:
203,84,52035,1,10,0:0:0:0:
243,272,52242,1,8,0:0:0:0:
210,352,52449,2,0,P|267:352|330:313,1,105.000004005432,2|0,0:0|1:0,0:0:0:0:
174,213,52863,1,10,0:0:0:0:
255,172,53070,1,0,0:0:0:0:
73,25,53277,1,0,1:0:0:0:
4,75,53483,6,0,P|30:90|55:116,1,52.5000020027161,2|8,0:0|0:0,0:0:0:0:
76,179,53897,1,2,1:2:0:0:
310,20,54104,2,0,P|283:35|258:61,1,52.5000020027161,2|0,0:0|1:0,0:0:0:0:
80,261,54518,2,0,P|118:269|150:291,1,78.7500030040742,10|0,0:0|0:0,0:0:0:0:
289,351,54932,6,0,P|316:309|317:234,1,105.000004005432,2|0,1:2|0:0,0:0:0:0:
248,55,55345,1,10,0:0:0:0:
476,206,55552,1,8,0:0:0:0:
425,278,55759,2,0,P|398:236|397:161,1,105.000004005432,2|0,0:0|1:0,0:0:0:0:
295,178,56173,2,0,P|322:136|323:61,1,105.000004005432,10|0,0:0|0:0,0:0:0:0:
96,36,56587,1,0,1:0:0:0:
152,101,56794,6,0,P|123:110|93:127,1,52.5000020027161,2|8,0:0|0:0,0:0:0:0:
158,177,57208,1,2,1:2:0:0:
67,340,57414,2,0,P|38:331|8:314,1,52.5000020027161,2|0,0:0|1:0,0:0:0:0:
316,251,57828,1,10,0:0:0:0:
339,269,58035,1,0,0:0:0:0:
429,117,58242,5,2,1:2:0:0:
379,195,58449,1,0,0:0:0:0:
112,97,58656,5,10,0:0:0:0:
215,202,58863,1,8,0:0:0:0:
487,62,59070,5,2,0:0:0:0:
287,250,59277,1,0,1:0:0:0:
148,25,59483,5,10,0:0:0:0:
295,168,59690,1,0,0:0:0:0:
101,159,59897,1,0,1:0:0:0:
89,249,60104,6,0,P|123:234|176:233,1,70,2|8,0:0|0:0,0:0:0:0:
336,345,60518,1,2,1:2:0:0:
85,377,60725,1,2,0:0:0:0:
144,311,60932,1,0,1:0:0:0:
40,67,61139,1,10,0:0:0:0:
118,99,61345,1,0,0:0:0:0:
60,194,61552,6,0,P|132:211|174:257,1,105.000004005432,2|0,1:2|0:0,0:0:0:0:
358,37,61966,2,0,P|286:54|244:100,1,105.000004005432,10|8,0:0|0:0,0:0:0:0:
58,347,62380,2,0,P|151:264|237:263,1,210.000008010865,2|10,0:0|0:0,0:0:0:0:
0,0,63208,1,2,1:2:0:0:
350,179,64035,6,0,B|317:153|259:147|259:147|224:165|224:165|191:145|150:146,1,210.000008010865,4|0,1:2|0:0,0:0:0:0:
169,222,64863,5,2,1:2:0:0:
189,195,64966,1,0,0:0:0:0:
197,162,65070,2,0,L|187:109,1,43.75,0|0,0:0|0:0,0:0:0:0:
309,130,65277,5,10,0:0:0:0:
283,96,65380,1,0,0:0:0:0:
271,54,65483,2,0,L|280:1,1,43.75,8|0,0:0|0:0,0:0:0:0:
412,144,65690,5,2,2:0:0:0:
384,184,65793,1,0,2:0:0:0:
343,213,65897,2,0,L|282:223,1,43.75,0|0,1:2|2:0,0:0:0:0:
318,382,66105,5,10,2:0:0:0:
286,337,66208,1,0,2:0:0:0:
240,304,66311,2,0,L|172:292,1,43.75,0|0,2:0|2:0,0:0:0:0:
0,229,66518,5,2,1:2:0:0:
34,255,66621,1,0,0:0:0:0:
76,267,66724,2,0,L|128:257,1,43.75,0|0,0:0|0:0,0:0:0:0:
202,123,66932,5,10,0:0:0:0:
230,83,67035,1,0,2:0:0:0:
271,54,67138,2,0,L|331:43,1,43.75,0|0,1:0|2:0,0:0:0:0:
497,252,67345,5,2,2:0:0:0:
451,283,67448,1,0,2:0:0:0:
397,298,67552,2,0,L|329:286,1,43.75,0|0,1:2|2:0,0:0:0:0:
163,193,67759,5,10,2:0:0:0:
120,134,67862,1,0,2:0:0:0:
61,92,67966,2,0,L|-8:79,1,43.75,0|0,2:0|2:0,0:0:0:0:
180,206,68173,5,2,1:2:0:0:
113,176,68276,1,0,2:0:0:0:
41,169,68380,2,0,L|-25:193,1,43.75,0|0,2:0|2:0,0:0:0:0:
245,272,68587,6,0,B|275:276|275:276|255:300,1,61.2500005841255,10|0,0:0|0:0,0:0:0:0:
102,362,68794,2,0,B|71:357|71:357|92:334,1,61.2500005841255,10|0,0:0|0:0,0:0:0:0:
201,208,69001,5,2,2:0:0:0:
128,216,69104,1,0,2:0:0:0:
62,246,69208,2,0,L|16:300,1,43.75,0|0,1:2|2:0,0:0:0:0:
171,104,69414,6,0,B|152:100|137:107|137:107|141:124|158:137,1,70,10|0,0:0|0:0,0:0:0:0:
339,208,69621,2,0,B|357:211|372:204|372:204|368:187|351:174,1,70,2|0,1:2|0:0,0:0:0:0:
272,324,69828,5,2,1:2:0:0:
341,293,69932,1,0,0:0:0:0:
268,306,70035,2,0,L|199:293,1,70,2|8,0:0|0:0,0:0:0:0:
282,293,70449,2,0,L|213:280,1,70,10|0,0:0|0:0,0:0:0:0:
293,282,70863,2,0,L|244:273,1,35,2|0,1:2|0:0,0:0:0:0:
164,75,71070,5,10,0:0:0:0:
195,80,71173,1,0,0:0:0:0:
176,92,71277,1,2,0:0:0:0:
181,61,71380,1,0,0:0:0:0:
233,145,71483,5,6,1:2:0:0:
260,165,71586,1,0,0:0:0:0:
287,185,71690,2,0,L|340:175,1,43.75,0|0,0:0|0:0,0:0:0:0:
462,54,71897,5,10,0:0:0:0:
427,80,72000,1,0,0:0:0:0:
391,105,72104,2,0,L|321:91,1,43.75,8|0,0:0|0:0,0:0:0:0:
293,282,72311,5,2,0:0:0:0:
252,253,72414,1,0,0:0:0:0:
211,225,72518,2,0,L|133:239,1,43.75,0|0,1:2|0:0,0:0:0:0:
2,368,72725,5,10,0:0:0:0:
47,335,72828,1,0,0:0:0:0:
95,302,72932,2,0,L|158:314,1,43.75,0|0,0:0|0:0,0:0:0:0:
387,328,73139,5,2,1:2:0:0:
351,353,73242,1,0,0:0:0:0:
315,378,73346,2,0,L|245:364,1,43.75,0|0,0:0|0:0,0:0:0:0:
52,197,73552,5,10,0:0:0:0:
93,168,73655,1,0,0:0:0:0:
134,140,73759,2,0,L|211:154,1,43.75,0|0,0:0|0:0,0:0:0:0:
479,269,73966,5,2,0:0:0:0:
434,236,74069,1,0,0:0:0:0:
386,203,74173,2,0,L|322:215,1,43.75,0|0,1:2|0:0,0:0:0:0:
137,310,74380,5,10,0:0:0:0:
182,379,74483,1,0,0:0:0:0:
219,305,74587,2,0,B|221:278|221:278|211:244,1,52.5000020027161,2|0,0:0|0:0,0:0:0:0:
0,74,74794,5,2,1:2:0:0:
74,96,74897,1,0,0:0:0:0:
148,118,75001,2,0,B|172:125|172:125|199:123,1,52.5000020027161,2|0,0:0|0:0,0:0:0:0:
384,38,75208,5,10,0:0:0:0:
303,15,75311,1,2,0:0:0:0:
400,117,75414,2,0,B|431:107|431:107|459:78,1,61.2500005841255,10|0,0:0|0:0,0:0:0:0:
259,176,75621,5,2,0:0:0:0:
185,198,75724,1,0,0:0:0:0:
111,220,75828,1,2,1:2:0:0:
45,180,75931,1,2,0:0:0:0:
191,216,76035,6,0,B|202:237|202:237|184:261|184:261|177:310,1,87.5,10|0,0:0|0:0,0:0:0:0:
76,384,76242,1,2,0:0:0:0:
105,312,76345,1,0,0:0:0:0:
240,348,76449,5,2,1:2:0:0:
261,342,76552,1,2,0:0:0:0:
345,303,76656,5,2,0:0:0:0:
324,297,76759,1,2,0:0:0:0:
216,332,76863,6,0,B|203:348|181:356|181:356|205:355|224:365,1,87.5,2|0,1:2|0:0,0:0:0:0:
362,314,77070,2,0,B|374:297|396:289|396:289|372:290|353:280,1,87.5,2|0,1:2|0:0,0:0:0:0:
77,221,77277,6,0,P|159:249|336:185,1,262.5,2|0,1:2|0:0,0:0:0:0:
410,167,77690,6,0,P|374:201|315:195,1,105.000004005432,6|0,1:2|0:0,0:0:0:0:
142,89,83897,6,0,B|192:97|192:97|204:111|204:111|270:122,1,122.5,2|0,0:2|0:2,0:0:0:0:
250,281,84725,5,2,1:2:0:0:
313,220,84932,1,0,0:0:0:0:
152,246,85139,5,10,0:0:0:0:
43,120,85345,1,8,0:0:0:0:
236,198,85552,5,2,0:0:0:0:
402,25,85759,1,0,1:0:0:0:
250,281,85966,5,10,0:0:0:0:
142,97,86173,1,0,0:0:0:0:
331,142,86380,1,0,1:0:0:0:
430,131,86587,6,0,P|410:161|405:219,1,70,2|8,0:0|0:0,0:0:0:0:
428,269,87001,1,2,1:2:0:0:
214,24,87208,1,2,0:0:0:0:
287,67,87414,1,0,1:0:0:0:
189,288,87621,1,10,0:0:0:0:
274,271,87828,1,0,0:0:0:0:
161,191,88035,6,0,P|212:184|254:153,1,105.000004005432,2|0,1:2|0:0,0:0:0:0:
454,62,88449,2,0,P|402:55|360:24,1,105.000004005432,10|8,0:0|0:0,0:0:0:0:
64,89,88863,2,0,P|109:128|260:151,1,210.000008010865,2|10,0:0|0:0,0:0:0:0:
30,227,89483,1,0,0:0:0:0:
0,384,89690,5,2,1:2:0:0:
13,358,89897,1,0,0:0:0:0:
192,372,90104,1,8,0:0:0:0:
133,253,90311,1,2,0:0:0:0:
298,311,90518,1,0,1:0:0:0:
102,344,90725,1,8,0:0:0:0:
21,139,90932,1,8,0:0:0:0:
0,212,91139,1,0,1:0:0:0:
206,148,91345,6,0,P|263:167|297:218,1,105.000004005432,6|0,1:2|0:0,0:0:0:0:
377,363,91759,1,10,0:0:0:0:
326,67,91966,1,8,0:0:0:0:
449,103,92173,2,0,P|392:122|358:173,1,105.000004005432,2|0,0:0|1:0,0:0:0:0:
245,335,92587,1,10,0:0:0:0:
321,299,92794,1,0,0:0:0:0:
164,42,93001,1,0,1:0:0:0:
250,50,93208,6,0,P|230:80|220:113,1,52.5000020027161,2|8,0:0|0:0,0:0:0:0:
246,167,93621,1,2,1:2:0:0:
0,339,93828,2,0,P|19:369|29:402,1,52.5000020027161,2|0,0:0|1:0,0:0:0:0:
112,0,94242,2,0,P|92:27|83:74,1,78.7500030040742,10|0,0:0|0:0,0:0:0:0:
179,197,94656,6,0,P|169:255|130:299,1,105.000004005432,2|0,1:2|0:0,0:0:0:0:
153,119,95070,1,10,0:0:0:0:
372,198,95277,1,8,0:0:0:0:
339,270,95483,2,0,P|349:328|388:372,1,105.000004005432,2|0,0:0|1:0,0:0:0:0:
450,226,95897,2,0,P|480:268|487:319,1,105.000004005432,10|0,0:0|0:0,0:0:0:0:
288,83,96311,1,0,1:0:0:0:
233,151,96518,6,0,P|263:157|289:174,1,52.5000020027161,2|8,0:0|0:0,0:0:0:0:
233,229,96932,1,2,1:2:0:0:
512,0,97139,2,0,P|482:6|456:23,1,52.5000020027161,2|0,0:0|1:0,0:0:0:0:
87,69,97552,1,10,0:0:0:0:
155,105,97759,1,0,0:0:0:0:
159,250,97966,5,2,1:2:0:0:
209,179,98173,1,0,0:0:0:0:
157,25,98380,5,10,0:0:0:0:
217,193,98587,1,8,0:0:0:0:
40,351,98794,5,2,0:0:0:0:
134,178,99001,1,0,1:0:0:0:
39,17,99208,5,10,0:0:0:0:
142,165,99414,1,0,0:0:0:0:
253,4,99621,1,0,1:0:0:0:
165,42,99828,6,0,P|195:54|224:94,1,70,2|8,0:0|0:0,0:0:0:0:
241,162,100242,1,2,1:2:0:0:
430,72,100449,2,0,P|400:84|371:124,1,70,2|0,0:0|1:0,0:0:0:0:
229,309,100863,1,10,0:0:0:0:
299,354,101070,1,0,0:0:0:0:
512,177,101277,6,0,P|473:163|409:184,1,105.000004005432,2|0,1:2|0:0,0:0:0:0:
117,179,101690,2,0,P|166:192|200:231,1,105.000004005432,10|8,0:0|0:0,0:0:0:0:
511,90,102104,2,0,P|456:56|303:61,1,210,2|10,0:0|0:0,0:0:0:0:
203,249,102725,1,0,0:0:0:0:
512,384,102932,5,2,1:2:0:0:
499,358,103139,1,0,0:0:0:0:
285,322,103346,1,8,0:0:0:0:
478,252,103553,1,2,1:2:0:0:
342,379,103760,1,8,0:0:0:0:
189,209,103967,1,8,0:0:0:0:
170,224,104070,1,8,0:0:0:0:
262,230,104173,1,0,1:0:0:0:
366,121,104380,1,8,0:0:0:0:
385,136,104483,1,8,0:0:0:0:
293,142,104587,6,0,P|249:119|176:122,1,105.000004005432,6|0,1:2|0:0,0:0:0:0:
0,165,105001,1,10,0:0:0:0:
144,294,105208,1,8,0:0:0:0:
0,380,105414,2,0,P|44:357|117:360,1,105.000004005432,2|0,0:0|1:0,0:0:0:0:
285,383,105828,1,10,0:0:0:0:
148,200,106035,1,0,0:0:0:0:
382,241,106242,1,0,1:0:0:0:
338,316,106449,6,0,P|364:316|389:323,1,52.5000020027161,2|8,0:0|0:0,0:0:0:0:
457,361,106863,1,2,1:2:0:0:
512,138,107070,2,0,P|485:138|460:145,1,52.5000020027161,2|0,0:0|1:0,0:0:0:0:
227,175,107483,2,0,P|257:199|275:234,1,78.7500030040742,10|0,0:0|0:0,0:0:0:0:
61,321,107897,6,0,P|119:318|174:293,1,105.000004005432,2|0,1:2|0:0,0:0:0:0:
284,84,108311,1,10,0:0:0:0:
117,132,108518,1,8,0:0:0:0:
0,35,108725,2,0,P|58:38|113:63,1,105.000004005432,2|0,0:0|1:0,0:0:0:0:
0,231,109139,2,0,P|58:228|113:203,1,105.000004005432,10|0,0:0|0:0,0:0:0:0:
296,73,109552,1,0,1:0:0:0:
358,131,109759,6,0,P|329:144|305:171,1,52.5000020027161,2|8,0:0|0:0,0:0:0:0:
378,208,110173,1,2,1:2:0:0:
177,22,110380,2,0,P|206:35|230:62,1,52.5000020027161,2|0,0:0|1:0,0:0:0:0:
277,280,110794,1,10,0:0:0:0:
125,196,111001,1,0,0:0:0:0:
262,268,111208,5,2,1:2:0:0:
344,255,111414,1,0,0:0:0:0:
180,268,111621,5,10,0:0:0:0:
69,115,111828,1,8,0:0:0:0:
266,284,112035,5,2,0:0:0:0:
439,70,112242,1,0,1:0:0:0:
223,207,112449,5,10,0:0:0:0:
120,43,112656,1,0,0:0:0:0:
314,112,112863,1,0,1:0:0:0:
440,69,113070,6,0,P|408:91|387:140,1,70,2|8,0:0|0:0,0:0:0:0:
469,141,113483,1,2,1:2:0:0:
206,206,113690,1,2,0:0:0:0:
262,265,113897,1,0,1:0:0:0:
47,323,114104,2,0,P|15:300|-5:251,1,70,10|0,0:0|0:0,0:0:0:0:
0,275,114518,6,0,P|53:268|100:228,1,105.000004005432,2|0,1:2|0:0,0:0:0:0:
386,214,114932,2,0,P|333:207|286:167,1,105.000004005432,10|8,0:0|0:0,0:0:0:0:
22,149,115345,2,0,P|119:144|204:64,1,210.000008010865,2|10,0:0|0:0,0:0:0:0:
188,225,115966,1,0,0:0:0:0:
420,331,116173,5,2,1:2:0:0:
346,168,116380,1,0,1:0:0:0:
244,318,116587,1,8,0:0:0:0:
338,271,116794,1,2,0:0:0:0:
156,145,117001,1,0,1:0:0:0:
366,166,117208,1,8,0:0:0:0:
146,318,117414,1,8,0:0:0:0:
83,258,117621,1,0,1:0:0:0:
323,96,117828,6,0,P|274:114|236:150,1,105.000004005432,6|0,1:2|0:0,0:0:0:0:
69,341,118242,1,10,0:0:0:0:
109,83,118449,1,8,0:0:0:0:
0,123,118656,2,0,P|48:141|86:177,1,105.000004005432,2|0,0:0|1:0,0:0:0:0:
228,330,119070,1,10,0:0:0:0:
157,363,119277,1,0,0:0:0:0:
330,176,119483,1,0,1:0:0:0:
410,220,119690,6,0,P|386:232|368:251,1,52.5000020027161,2|8,0:0|0:0,0:0:0:0:
362,328,120104,1,2,1:2:0:0:
194,92,120311,2,0,P|216:104|234:122,1,52.5000020027161,2|0,0:0|1:0,0:0:0:0:
469,33,120725,2,0,P|437:42|403:76,1,78.7500030040742,10|0,0:0|0:0,0:0:0:0:
264,222,121139,6,0,P|211:211|159:162,1,105.000004005432,2|0,1:2|0:0,0:0:0:0:
330,176,121552,1,10,0:0:0:0:
132,338,121759,1,8,0:0:0:0:
32,284,121966,2,0,P|83:274|124:242,1,105.000004005432,2|0,0:0|1:0,0:0:0:0:
0,210,122380,2,0,P|41:178|92:168,1,105.000004005432,10|0,0:0|0:0,0:0:0:0:
294,363,122794,1,0,1:0:0:0:
267,291,123001,6,0,P|243:305|220:334,1,52.5000020027161,2|8,0:0|0:0,0:0:0:0:
179,384,123414,1,2,1:2:0:0:
120,95,123621,2,0,P|144:109|167:138,1,52.5000020027161,2|0,0:0|1:0,0:0:0:0:
99,327,124035,2,0,P|123:313|159:307,1,52.5000020027161,10|0,0:0|0:0,0:0:0:0:
148,308,124449,5,2,1:2:0:0:
46,135,124656,1,2,0:0:0:0:
261,208,124863,2,0,P|288:174|323:148,1,87.5,2|2,0:0|0:0,0:0:0:0:
171,226,125277,2,0,B|131:240|84:226|84:226|36:209|0:225,1,175,10|0,0:0|0:0,0:0:0:0:
53,298,125897,6,0,P|94:311|139:310,1,80.5000015354157,2|0,0:0|0:0,0:0:0:0:
211,298,126311,2,0,P|242:268|264:229,1,80.5000015354157,2|0,1:2|0:0,0:0:0:0:
233,157,126725,1,2,1:2:0:0:
360,220,126932,2,0,P|329:191|308:153,1,73.4999977569581,10|0,0:0|0:0,0:0:0:0:
399,149,127345,2,0,P|422:99|421:45,1,110.249996635437,2|0,0:0|0:0,0:0:0:0:
406,30,127759,6,0,P|369:31|316:55,1,73.4999977569581,2|0,1:2|0:0,0:0:0:0:
269,98,128173,2,0,P|234:109|197:110,1,73.4999977569581,2|0,0:0|0:0,0:0:0:0:
61,42,128587,6,0,P|97:42|132:54,1,73.4999977569581,10|0,0:0|0:0,0:0:0:0:
197,110,129001,2,0,P|231:121|268:122,1,73.4999977569581,2|0,0:0|0:0,0:0:0:0:
354,41,129414,5,2,0:0:0:0:
268,121,129621,2,0,P|234:132|197:133,1,73.4999977569581,0|2,1:2|0:0,0:0:0:0:
132,54,130035,1,0,1:2:0:0:
64,218,130242,2,0,B|98:230|137:214|137:214|177:202|212:219,1,146.999995513916,10|2,0:0|0:0,0:0:0:0:
420,145,131070,6,0,P|392:204|387:287,1,140,2|0,1:2|0:0,0:0:0:0:
399,356,131690,1,2,0:0:0:0:
284,249,131897,2,0,P|312:308|317:391,1,140,8|0,0:0|0:0,0:0:0:0:
318,381,132725,5,2,0:0:0:0:
223,295,132932,2,0,P|192:284|142:279,1,70,0|0,1:2|0:0,0:0:0:0:
78,298,133345,1,2,1:2:0:0:
122,208,133552,2,0,P|88:213|55:225,1,70,10|0,0:0|0:0,0:0:0:0:
0,284,133966,1,2,0:0:0:0:
199,204,134380,5,0,1:2:0:0:
168,131,134587,2,0,P|151:100|144:66,2,70,2|2|2,0:0|0:0|0:0,0:0:0:0:
197,0,135208,2,0,P|231:0|264:11,1,70,10|0,0:0|0:0,0:0:0:0:
250,144,135621,2,0,P|276:120|294:91,1,70,2|0,0:0|0:0,0:0:0:0:
343,25,136035,5,2,0:0:0:0:
431,137,136242,1,0,1:0:0:0:
393,207,136449,2,0,P|366:183|348:154,1,70,2|2,0:0|1:2,0:0:0:0:
377,287,136863,2,0,P|443:271|475:211,1,140,10|2,0:0|0:0,0:0:0:0:
306,239,137483,1,2,0:0:0:0:
374,367,137690,5,0,1:2:0:0:
269,312,137897,2,0,P|235:301|183:305,1,70,2|0,0:0|0:0,0:0:0:0:
90,360,138311,1,2,0:0:0:0:
74,219,138518,2,0,B|107:206|142:219|142:219|178:231|214:217,1,140,10|0,0:0|0:0,0:0:0:0:
197,80,139139,6,0,P|181:115|177:159,1,70,2|0,0:0|0:0,0:0:0:0:
259,135,139552,2,0,P|281:166|317:191,1,70,2|0,1:2|0:0,0:0:0:0:
345,117,139966,1,0,1:2:0:0:
390,214,140173,2,0,P|370:242|343:264,1,70,10|0,0:0|0:0,0:0:0:0:
229,281,140587,2,0,P|271:311|301:354,1,105,2|0,0:0|0:0,0:0:0:0:
320,374,141001,6,0,P|355:368|395:343,1,70,2|0,1:2|0:0,0:0:0:0:
443,297,141414,2,0,P|455:264|457:229,1,70,2|0,0:0|0:0,0:0:0:0:
245,310,141828,6,0,P|247:275|259:242,1,70,10|0,0:0|0:0,0:0:0:0:
318,187,142242,2,0,P|349:170|383:165,1,70,2|0,0:0|0:0,0:0:0:0:
174,242,142656,5,2,0:0:0:0:
102,141,142863,2,0,B|138:130|168:146|168:146|201:162|237:153,1,140,0|2,1:2|1:2,0:0:0:0:
439,35,143483,2,0,P|339:108|340:266,1,280,8|0,0:0|0:0,0:0:0:0:
