osu file format v14

[General]
AudioFilename: audio.mp3
AudioLeadIn: 0
PreviewTime: 104277
Countdown: 0
SampleSet: Soft
StackLeniency: 0.4
Mode: 0
LetterboxInBreaks: 0
WidescreenStoryboard: 0

[Editor]
Bookmarks: 5277,18518,31759,38380,51621,64863,78104,91345,104587,117828,127759,131070
DistanceSpacing: 1.2
BeatDivisor: 4
GridSize: 32
TimelineZoom: 1.3

[Metadata]
Title:Cabo
TitleUnicode:Cabo
Artist:Ricky Montgomery
ArtistUnicode:Ricky Montgomery
Creator:[Mad]
Version:Creamy's Hard
Source:osu!
Tags:alternative rock indie the honeysticks english creamy candy xen xehn xenon- featured artist fa
BeatmapID:2202785
BeatmapSetID:1035982

[Difficulty]
HPDrainRate:4
CircleSize:4
OverallDifficulty:6
ApproachRate:7.6
SliderMultiplier:1.4
SliderTickRate:1

[Events]
//Background and Video events
0,0,"bg.jpg",0,0
//Break Periods
2,78200,83915
//Storyboard Layer 0 (Background)
//Storyboard Layer 1 (Fail)
//Storyboard Layer 2 (Pass)
//Storyboard Layer 3 (Foreground)
//Storyboard Layer 4 (Overlay)
//Storyboard Sound Samples

[TimingPoints]
311,413.793103448276,4,2,1,70,1,0
3621,-100,4,2,1,70,0,0
5276,-100,4,2,1,70,0,0
18517,-100,4,2,1,80,0,1
31759,-100,4,2,1,70,0,0
37241,-100,4,2,1,10,0,0
37344,-100,4,2,1,70,0,0
37448,-100,4,2,1,10,0,0
37551,-100,4,2,1,70,0,0
38379,-100,4,2,1,70,0,0
50793,-100,4,2,1,70,0,0
51621,-100,4,2,1,80,0,1
64862,-100,4,2,1,80,0,0
78103,-100,4,2,1,20,0,0
83896,-100,4,2,1,80,0,0
84724,-100,4,2,1,80,0,1
91138,-100,4,2,1,80,0,0
91345,-100,4,2,1,80,0,1
104276,-100,4,2,1,80,0,0
104586,-100,4,2,1,80,0,1
117621,-100,4,2,1,80,0,0
117828,-100,4,2,1,80,0,1
124448,-100,4,2,2,75,0,0
125896,-100,4,2,2,70,0,0
126931,-100,4,2,2,70,0,0

[Colours]
Combo1 : 38,91,217
Combo2 : 148,148,148
Combo3 : 147,220,236
Combo4 : 106,106,106

[HitObjects]
242,323,5277,6,0,P|233:271|226:221,1,70,4|0,1:0|0:0,0:0:0:0:
265,169,5690,1,8,0:0:0:0:
349,213,5897,2,0,P|400:204|450:197,1,70,8|0,0:0|0:0,0:0:0:0:
475,130,6311,1,0,1:0:0:0:
475,130,6518,1,8,0:0:0:0:
333,244,6931,6,0,P|349:311|354:342,1,70,0|0,1:0|0:0,0:0:0:0:
425,362,7345,1,8,0:0:0:0:
425,362,7552,2,0,P|432:327|441:293,1,70,0|0,1:0|0:0,0:0:0:0:
509,233,7966,1,0,1:0:0:0:
509,233,8173,1,8,0:0:0:0:
345,312,8587,6,0,P|272:294|257:293,1,70,0|0,1:0|0:0,0:0:0:0:
223,220,9001,1,8,0:0:0:0:
146,305,9208,2,0,P|132:232|117:147,1,140,8|0,0:0|1:0,0:0:0:0:
46,114,9828,1,8,0:0:0:0:
208,31,10242,6,0,P|266:12|313:52,1,105,0|0,1:0|0:0,0:0:0:0:
327,69,10656,1,8,0:0:0:0:
409,30,10863,1,0,1:0:0:0:
409,30,11277,1,0,1:0:0:0:
474,92,11483,2,0,P|461:149|456:178,1,70,8|0,0:0|0:0,0:0:0:0:
404,233,11897,6,0,P|361:224|330:215,1,70,0|0,1:0|0:0,0:0:0:0:
260,268,12311,1,8,0:0:0:0:
177,229,12518,2,0,P|127:227|85:325,1,140,8|0,0:0|1:0,0:0:0:0:
20,365,13139,1,8,0:0:0:0:
188,320,13552,6,0,L|178:239,1,70,0|0,1:0|0:0,0:0:0:0:
234,177,13966,1,8,0:0:0:0:
234,177,14173,1,0,1:0:0:0:
115,38,14587,1,0,1:0:0:0:
40,91,14794,1,8,0:0:0:0:
217,48,15208,6,0,P|276:39|303:36,1,70,0|0,1:0|0:0,0:0:0:0:
360,89,15621,1,8,0:0:0:0:
454,13,15828,2,0,P|445:82|437:153,1,140,8|0,0:0|1:0,0:0:0:0:
496,221,16449,1,8,0:0:0:0:
392,286,16656,6,0,P|335:274|291:266,1,70,0|0,1:0|0:0,0:0:0:0:
252,316,17069,1,2,0:0:0:0:
252,316,17277,1,2,0:0:0:0:
278,156,17690,5,4,1:2:0:0:
497,361,18518,6,0,P|498:323|491:277,1,70,6|0,1:2|0:0,0:0:0:0:
443,223,18932,1,10,0:0:0:0:
443,223,19139,1,8,0:0:0:0:
320,289,19345,2,0,P|257:271|236:267,1,70,2|0,0:0|1:0,0:0:0:0:
171,292,19759,1,10,0:0:0:0:
18,363,20173,5,0,1:0:0:0:
69,296,20380,2,0,P|62:237|56:193,1,70,2|8,0:0|0:0,0:0:0:0:
106,155,20794,1,2,1:2:0:0:
6,68,21001,2,0,P|74:62|99:57,1,70,2|0,0:0|1:0,0:0:0:0:
137,5,21414,1,10,0:0:0:0:
273,103,21828,6,0,P|264:164|261:187,1,70,2|0,1:2|0:0,0:0:0:0:
294,250,22242,1,10,0:0:0:0:
294,250,22449,1,8,0:0:0:0:
386,176,22656,2,0,P|420:162|454:157,1,70,2|0,0:0|1:0,0:0:0:0:
506,222,23070,1,10,0:0:0:0:
446,65,23483,5,0,1:0:0:0:
376,17,23690,2,0,P|316:33|277:33,1,70,2|8,0:0|0:0,0:0:0:0:
244,88,24104,1,2,1:2:0:0:
173,42,24311,2,0,P|124:23|87:21,1,70,2|0,0:0|1:0,0:0:0:0:
34,64,24725,1,10,0:0:0:0:
112,212,25139,6,0,P|136:227|147:278,1,70,2|0,1:2|0:0,0:0:0:0:
109,349,25552,1,10,0:0:0:0:
109,349,25759,1,8,0:0:0:0:
27,370,25966,2,0,L|40:234,1,105,2|0,0:0|0:0,0:0:0:0:
14,229,26380,1,10,0:0:0:0:
174,277,26794,5,0,1:0:0:0:
225,210,27001,2,0,P|264:200|307:193,1,70,2|8,0:0|0:0,0:0:0:0:
367,234,27414,1,2,1:2:0:0:
431,145,27621,2,0,P|414:61|410:46,1,70,2|0,0:0|1:0,0:0:0:0:
465,6,28035,1,10,0:0:0:0:
319,90,28449,6,0,P|271:74|226:67,1,70,2|0,1:2|0:0,0:0:0:0:
180,114,28863,1,10,0:0:0:0:
180,114,29070,1,8,0:0:0:0:
102,82,29277,2,0,P|115:36|121:-2,1,70,2|0,0:0|1:0,0:0:0:0:
21,101,29690,2,0,P|34:163|37:182,1,70,10|0,0:0|0:0,0:0:0:0:
71,245,30104,5,2,1:2:0:0:
396,329,30932,5,4,1:2:0:0:
61,351,31759,6,0,P|41:301|27:272,1,70,4|2,1:0|0:0,0:0:0:0:
71,210,32173,1,10,0:0:0:0:
71,210,32380,2,0,P|121:190|152:199,1,70,10|2,0:0|0:0,0:0:0:0:
197,249,32794,1,2,1:2:0:0:
274,216,33001,2,0,P|261:177|241:53,1,140,10|0,0:0|1:0,0:0:0:0:
281,5,33621,1,2,0:0:0:0:
387,66,33828,6,0,P|426:50|486:43,2,70,10|2|2,0:0|1:2|0:0,0:0:0:0:
337,134,34449,1,2,1:2:0:0:
262,94,34656,2,0,P|215:78|198:61,1,70,10|2,0:0|0:0,0:0:0:0:
132,14,35070,5,0,1:0:0:0:
48,101,35277,1,2,0:0:0:0:
48,101,35380,1,2,0:0:0:0:
48,101,35483,1,10,0:0:0:0:
84,176,35690,2,0,P|67:225|49:316,1,140,10|2,0:0|1:2,0:0:0:0:
108,372,36311,1,10,0:0:0:0:
108,372,36518,6,0,P|154:359|254:346,1,140,2|2,0:0|0:0,0:0:0:0:
351,244,37139,1,10,0:0:0:0:
351,244,37345,1,2,0:0:0:0:
290,185,37552,2,0,P|271:217|269:260,1,70,2|0,1:2|0:0,0:0:0:0:
274,291,37863,1,8,0:0:0:0:
274,291,37966,1,10,0:0:0:0:
345,335,38173,1,0,0:0:0:0:
422,303,38380,5,4,1:2:0:0:
474,143,38794,1,8,0:0:0:0:
474,143,39001,1,8,0:0:0:0:
340,42,39414,1,0,1:0:0:0:
359,123,39621,1,8,0:0:0:0:
491,20,40035,5,0,1:0:0:0:
324,51,40449,1,8,0:0:0:0:
324,51,40656,1,0,1:0:0:0:
156,68,41070,1,0,1:0:0:0:
82,28,41277,1,8,0:0:0:0:
146,182,41690,5,0,1:0:0:0:
74,225,41897,1,0,0:0:0:0:
76,238,42001,1,0,0:0:0:0:
79,251,42104,1,8,0:0:0:0:
135,313,42311,1,8,0:0:0:0:
133,326,42415,1,0,0:0:0:0:
130,339,42518,1,0,0:0:0:0:
211,358,42725,2,0,L|218:303,2,35,0|0|8,1:0|0:0|0:0,0:0:0:0:
292,334,43139,2,0,L|296:299,2,35,0|0|0,0:0|0:0|1:0,0:0:0:0:
372,310,43552,6,0,L|376:275,2,35,0|0|8,0:0|0:0|0:0,0:0:0:0:
452,285,43966,1,0,1:0:0:0:
456,271,44070,1,0,0:0:0:0:
460,257,44173,1,0,0:0:0:0:
409,189,44380,1,0,1:0:0:0:
325,201,44587,1,8,0:0:0:0:
253,154,44794,1,0,0:0:0:0:
365,29,45208,5,0,0:0:0:0:
365,29,45414,1,8,0:0:0:0:
439,68,45621,1,8,0:0:0:0:
512,33,45828,2,0,P|471:56|461:138,1,140,0|8,0:0|0:0,0:0:0:0:
501,206,46449,1,0,0:0:0:0:
341,151,46863,5,0,0:0:0:0:
341,151,47070,1,8,0:0:0:0:
260,174,47277,1,0,1:0:0:0:
195,120,47483,2,0,P|167:85|70:92,1,140,0|8,0:0|0:0,0:0:0:0:
22,149,48104,1,0,0:0:0:0:
181,201,48518,5,0,0:0:0:0:
181,201,48725,1,8,0:0:0:0:
254,160,48932,2,0,P|286:127|323:111,1,70,8|0,0:0|0:0,0:0:0:0:
377,70,49345,1,0,1:0:0:0:
444,120,49552,1,8,0:0:0:0:
508,65,49759,1,0,1:0:0:0:
508,65,49966,5,0,1:0:0:0:
254,285,50794,5,2,0:3:0:0:
27,37,51621,6,0,P|73:7|114:14,1,70,6|0,1:2|0:0,0:0:0:0:
153,58,52035,1,10,0:0:0:0:
125,137,52242,1,8,0:0:0:0:
190,189,52449,2,0,P|250:171|276:172,1,70,2|0,0:0|0:0,0:0:0:0:
341,176,52863,1,10,0:0:0:0:
456,53,53277,5,0,1:0:0:0:
406,121,53483,2,0,P|426:166|423:192,1,70,2|8,0:0|0:0,0:0:0:0:
474,253,53897,1,2,1:2:0:0:
401,296,54104,2,0,P|339:284|318:282,1,70,2|0,0:0|0:0,0:0:0:0:
254,316,54518,1,10,0:0:0:0:
88,345,54932,6,0,P|102:296|107:265,1,70,2|0,1:2|0:0,0:0:0:0:
81,196,55345,1,10,0:0:0:0:
2,212,55552,1,8,0:0:0:0:
84,92,55759,2,0,P|144:115|162:178,1,105,2|0,0:0|0:0,0:0:0:0:
169,190,56173,1,10,0:0:0:0:
279,63,56587,5,0,1:0:0:0:
204,24,56794,2,0,P|155:42|130:47,1,70,2|8,0:0|0:0,0:0:0:0:
55,26,57208,1,2,1:2:0:0:
74,107,57414,2,0,P|82:192|92:236,1,105,2|0,0:0|0:0,0:0:0:0:
74,251,57828,1,10,0:0:0:0:
153,279,58035,1,0,0:0:0:0:
214,222,58242,6,0,P|239:200|287:199,1,70,2|0,1:2|0:0,0:0:0:0:
354,223,58656,1,10,0:0:0:0:
365,306,58863,1,8,0:0:0:0:
449,302,59070,2,0,P|490:290|511:241,1,70,2|0,0:0|0:0,0:0:0:0:
509,186,59483,1,10,0:0:0:0:
365,306,59897,5,0,1:0:0:0:
290,266,60104,2,0,P|248:253|198:238,1,70,2|8,0:0|0:0,0:0:0:0:
144,279,60518,1,2,1:2:0:0:
76,229,60725,2,0,P|80:187|83:134,1,70,2|0,0:0|0:0,0:0:0:0:
55,78,61139,1,10,0:0:0:0:
208,10,61552,6,0,P|263:10|278:80,1,105,2|0,1:2|0:0,0:0:0:0:
289,89,61966,1,10,0:0:0:0:
365,122,62173,1,8,0:0:0:0:
424,63,62380,2,0,P|421:15|419:-31,1,70,2|0,0:0|1:0,0:0:0:0:
502,99,62794,2,0,P|489:148|483:187,1,70,10|0,0:0|0:0,0:0:0:0:
497,250,63208,1,2,1:2:0:0:
174,342,64035,5,4,1:2:0:0:
82,18,64863,6,0,P|61:67|45:85,1,70,2|0,1:2|0:0,0:0:0:0:
19,157,65277,1,10,0:0:0:0:
19,157,65483,2,0,P|76:160|106:134,1,70,8|2,0:0|2:0,0:0:0:0:
151,101,65897,1,0,1:2:0:0:
231,123,66104,2,0,P|221:186|221:217,1,70,10|0,2:0|2:0,0:0:0:0:
147,296,66518,6,0,P|143:261|136:226,1,70,2|0,1:2|0:0,0:0:0:0:
194,165,66932,1,10,0:0:0:0:
262,214,67139,2,0,P|315:194|346:184,1,70,0|2,1:0|2:0,0:0:0:0:
400,231,67552,1,0,1:2:0:0:
467,181,67759,2,0,P|481:115|483:101,1,70,10|0,2:0|2:0,0:0:0:0:
434,42,68173,1,2,1:2:0:0:
479,203,68587,5,10,0:0:0:0:
400,231,68794,1,10,0:0:0:0:
298,96,69208,1,0,1:2:0:0:
223,134,69414,1,10,0:0:0:0:
223,134,69518,1,0,0:0:0:0:
223,134,69621,1,2,1:2:0:0:
148,95,69828,6,0,P|147:56|143:14,1,70,2|2,1:2|0:0,0:0:0:0:
62,4,70242,1,8,0:0:0:0:
10,70,70449,1,10,0:0:0:0:
119,197,70863,1,2,1:2:0:0:
199,173,71070,2,0,P|254:153|268:151,1,70,10|2,0:0|0:0,0:0:0:0:
370,58,71483,6,0,P|342:105|341:143,1,70,6|0,1:2|0:0,0:0:0:0:
378,194,71897,1,10,0:0:0:0:
461,183,72104,2,0,P|489:136|490:98,1,70,8|2,0:0|0:0,0:0:0:0:
452,46,72518,1,0,1:2:0:0:
370,58,72725,2,0,P|342:105|341:143,1,70,10|0,0:0|0:0,0:0:0:0:
378,194,73139,6,0,L|388:284,1,70,2|0,1:2|0:0,0:0:0:0:
334,329,73552,2,0,P|272:336|236:255,1,140,10|2,0:0|0:0,0:0:0:0:
233,192,74173,1,0,1:2:0:0:
119,249,74380,1,10,0:0:0:0:
119,249,74483,1,0,0:0:0:0:
119,249,74587,1,2,0:0:0:0:
49,201,74794,6,0,P|63:143|67:99,1,70,2|2,1:2|0:0,0:0:0:0:
61,48,75208,1,10,0:0:0:0:
177,99,75414,2,0,P|183:133|192:167,1,70,10|2,0:0|0:0,0:0:0:0:
257,221,75828,1,0,1:2:0:0:
335,190,76035,1,8,0:0:0:0:
475,282,76449,5,2,1:2:0:0:
475,282,76552,1,2,0:0:0:0:
475,282,76656,1,2,0:0:0:0:
405,328,76863,1,2,1:2:0:0:
405,328,76966,1,0,0:0:0:0:
405,328,77070,1,2,1:2:0:0:
332,285,77277,2,0,L|295:281,2,35,2|0|0,1:2|0:0|0:0,0:0:0:0:
243,362,77690,2,0,L|209:365,3,35,2|0|0|0,1:2|0:0|0:0|0:0,0:0:0:0:
158,272,84725,6,0,P|127:257|75:261,1,70,2|0,1:2|0:0,0:0:0:0:
29,312,85139,1,10,0:0:0:0:
106,342,85345,1,8,0:0:0:0:
158,272,85552,2,0,P|167:204|178:145,1,105,2|0,0:0|0:0,0:0:0:0:
197,133,85966,1,10,0:0:0:0:
40,194,86380,5,0,1:0:0:0:
89,125,86587,2,0,P|78:75|77:50,1,70,2|8,0:0|0:0,0:0:0:0:
9,5,87001,1,2,1:2:0:0:
89,29,87208,2,0,P|162:15|204:5,1,105,2|0,0:0|0:0,0:0:0:0:
231,20,87621,1,10,0:0:0:0:
387,82,88035,6,0,P|364:142|357:176,1,70,2|0,1:2|0:0,0:0:0:0:
399,223,88449,1,10,0:0:0:0:
475,188,88656,1,8,0:0:0:0:
506,265,88863,2,0,P|445:291|403:309,1,105,2|0,0:0|0:0,0:0:0:0:
394,345,89277,1,10,0:0:0:0:
240,278,89690,6,0,P|251:222|261:178,2,70,2|0|8,1:2|0:0|0:0,0:0:0:0:
170,326,90311,2,0,P|131:328|101:308,1,70,2|0,0:0|1:0,0:0:0:0:
63,239,90725,1,8,0:0:0:0:
117,175,90932,1,8,0:0:0:0:
117,175,91139,1,0,1:0:0:0:
44,41,91345,6,0,P|88:63|116:56,1,70,6|0,1:2|0:0,0:0:0:0:
182,22,91759,2,0,P|225:6|279:17,1,70,10|8,0:0|0:0,0:0:0:0:
322,46,92173,2,0,P|368:88|416:70,1,105,2|0,0:0|0:0,0:0:0:0:
435,50,92587,1,10,0:0:0:0:
330,181,93001,5,0,1:0:0:0:
416,240,93208,2,0,P|451:217|489:211,1,70,2|8,0:0|0:0,0:0:0:0:
507,290,93621,1,2,1:2:0:0:
414,358,93828,2,0,L|343:343,1,70,2|0,0:0|1:0,0:0:0:0:
211,373,94242,1,10,0:0:0:0:
112,236,94656,6,0,P|130:187|137:135,1,105,2|0,1:2|0:0,0:0:0:0:
112,100,95070,1,10,0:0:0:0:
183,55,95277,1,8,0:0:0:0:
113,8,95483,2,0,L|35:21,1,70,2|0,0:0|1:0,0:0:0:0:
7,95,95897,1,10,0:0:0:0:
173,72,96311,5,0,1:0:0:0:
241,23,96518,2,0,P|296:36|318:38,1,70,2|8,0:0|0:0,0:0:0:0:
390,15,96932,1,2,1:2:0:0:
464,54,97139,2,0,P|443:97|430:142,1,70,2|0,0:0|1:0,0:0:0:0:
368,168,97552,1,10,0:0:0:0:
368,168,97759,1,0,0:0:0:0:
426,228,97966,6,0,P|442:259|454:291,1,70,2|0,1:2|0:0,0:0:0:0:
425,371,98380,1,10,0:0:0:0:
343,352,98587,1,8,0:0:0:0:
311,274,98794,2,0,P|261:247|233:249,1,70,2|0,0:0|1:0,0:0:0:0:
181,296,99208,1,10,0:0:0:0:
76,165,99621,5,0,1:0:0:0:
126,97,99828,2,0,P|117:53|118:15,1,70,2|8,0:0|0:0,0:0:0:0:
197,53,100242,1,2,1:2:0:0:
271,13,100449,2,0,P|314:0|368:33,1,105,2|0,0:0|0:0,0:0:0:0:
395,56,100863,1,10,0:0:0:0:
486,196,101277,5,2,1:2:0:0:
325,146,101690,1,10,0:0:0:0:
261,200,101897,1,8,0:0:0:0:
177,190,102104,2,0,P|139:164|130:127,1,70,2|0,0:0|1:0,0:0:0:0:
153,61,102518,1,10,0:0:0:0:
57,199,102932,5,2,1:2:0:0:
77,280,103139,1,0,0:0:0:0:
155,308,103345,1,8,0:0:0:0:
155,308,103552,1,2,1:2:0:0:
268,219,103759,5,8,0:0:0:0:
239,298,103966,2,0,L|246:342,2,35,8|8|0,0:0|0:0|1:0,0:0:0:0:
187,223,104380,1,8,0:0:0:0:
187,223,104483,1,8,0:0:0:0:
187,223,104587,6,0,P|190:175|193:137,1,70,6|0,1:2|0:0,0:0:0:0:
252,94,105001,1,10,0:0:0:0:
193,33,105208,1,8,0:0:0:0:
274,15,105414,2,0,P|347:9|404:7,1,105,2|0,0:0|0:0,0:0:0:0:
412,32,105828,1,10,0:0:0:0:
493,179,106242,5,0,1:0:0:0:
427,126,106449,2,0,P|408:185|417:217,1,70,2|8,0:0|0:0,0:0:0:0:
462,256,106863,1,2,1:2:0:0:
462,256,107070,2,0,P|496:305|491:329,1,70,2|0,0:0|1:0,0:0:0:0:
436,372,107483,1,10,0:0:0:0:
284,298,107897,6,0,P|213:312|190:319,1,70,2|0,1:2|0:0,0:0:0:0:
147,260,108311,1,10,0:0:0:0:
193,189,108518,1,8,0:0:0:0:
142,121,108725,2,0,L|33:136,1,105,2|0,0:0|0:0,0:0:0:0:
3,111,109139,1,10,0:0:0:0:
145,23,109552,5,0,1:0:0:0:
216,67,109759,2,0,P|259:48|295:47,1,70,2|8,0:0|0:0,0:0:0:0:
358,79,110173,1,2,1:2:0:0:
428,32,110380,2,0,P|475:22|514:79,1,105,2|0,0:0|0:0,0:0:0:0:
510,101,110794,1,10,0:0:0:0:
389,218,111208,6,0,P|338:203|300:196,1,70,2|0,1:2|0:0,0:0:0:0:
248,240,111621,1,10,0:0:0:0:
206,313,111828,1,8,0:0:0:0:
122,302,112035,2,0,P|112:261|91:179,1,105,2|0,0:0|0:0,0:0:0:0:
69,167,112449,1,10,0:0:0:0:
201,63,112863,5,0,1:0:0:0:
265,117,113070,2,0,P|240:163|236:183,1,70,2|8,0:0|0:0,0:0:0:0:
170,231,113483,1,2,1:2:0:0:
108,173,113690,2,0,P|64:148|4:160,1,105,2|0,0:0|0:0,0:0:0:0:
2,196,114104,1,10,0:0:0:0:
81,47,114518,6,0,P|113:27|156:17,1,70,2|0,1:2|0:0,0:0:0:0:
214,64,114932,2,0,P|276:90|309:92,1,70,10|8,0:0|0:0,0:0:0:0:
358,64,115345,2,0,P|402:30|455:40,1,105,2|0,0:0|0:0,0:0:0:0:
483,58,115759,1,10,0:0:0:0:
396,202,116173,6,0,P|351:193|318:188,1,70,2|0,1:2|1:0,0:0:0:0:
260,240,116587,2,0,P|225:247|191:252,1,70,8|2,0:0|0:0,0:0:0:0:
126,198,117001,2,0,P|89:168|24:202,1,105,0|0,1:0|0:0,0:0:0:0:
18,219,117414,1,8,0:0:0:0:
81,273,117621,1,0,1:0:0:0:
126,198,117828,6,0,L|132:84,1,105,6|0,1:2|0:0,0:0:0:0:
104,60,118242,1,10,0:0:0:0:
181,27,118449,1,8,0:0:0:0:
254,68,118656,2,0,P|293:94|361:88,1,105,2|0,0:0|0:0,0:0:0:0:
381,65,119070,1,10,0:0:0:0:
496,186,119483,5,0,1:0:0:0:
440,249,119690,2,0,P|401:232|361:227,1,70,2|8,0:0|0:0,0:0:0:0:
300,186,120104,1,2,1:2:0:0:
233,237,120311,2,0,P|247:315|254:371,1,105,2|0,0:0|0:0,0:0:0:0:
274,375,120725,1,10,0:0:0:0:
119,309,121139,5,2,1:2:0:0:
177,151,121552,1,10,0:0:0:0:
108,102,121759,1,8,0:0:0:0:
31,135,121966,2,0,P|21:193|18:266,1,105,2|0,0:0|0:0,0:0:0:0:
44,271,122380,1,10,0:0:0:0:
189,187,122794,5,0,1:0:0:0:
224,110,123001,2,0,P|271:122|297:122,1,70,2|8,0:0|0:0,0:0:0:0:
365,81,123414,1,2,1:2:0:0:
430,27,123621,2,0,P|476:70|486:128,1,105,2|0,0:0|0:0,0:0:0:0:
465,145,124035,1,10,0:0:0:0:
327,240,124449,6,0,L|171:222,1,140,2|2,1:2|0:0,0:0:0:0:
116,269,125070,1,2,0:0:0:0:
65,201,125277,2,0,P|28:148|76:63,1,140,10|0,0:0|0:0,0:0:0:0:
119,34,125897,2,0,L|211:43,1,70,2|0,0:0|0:0,0:0:0:0:
207,123,126311,2,0,L|299:114,1,70,2|0,1:2|0:0,0:0:0:0:
338,58,126725,1,2,1:2:0:0:
338,58,126932,1,10,0:0:0:0:
464,167,127345,1,2,0:0:0:0:
362,300,127759,6,0,L|204:274,3,140,2|2|10|2,1:2|0:0|0:0|0:0,0:0:0:0:
137,133,129414,2,0,L|-21:159,3,140,2|2|10|2,0:0|0:0|0:0|0:0,0:0:0:0:
134,54,131070,2,0,P|193:73|216:145,1,140,2|0,1:2|0:0,0:0:0:0:
161,204,131690,2,0,P|129:251|131:277,1,70,2|8,0:0|0:0,0:0:0:0:
447,371,132725,6,0,L|433:217,1,140,2|0,0:0|0:0,0:0:0:0:
476,158,133345,1,2,1:2:0:0:
476,158,133552,2,0,P|466:113|443:105,1,70,10|0,0:0|0:0,0:0:0:0:
395,39,133966,2,0,P|345:51|247:69,1,140,2|0,0:0|1:2,0:0:0:0:
209,135,134587,5,2,0:0:0:0:
209,135,134794,1,2,0:0:0:0:
140,88,135001,1,2,0:0:0:0:
60,110,135208,2,0,P|36:153|36:183,1,70,10|0,0:0|0:0,0:0:0:0:
71,248,135621,1,2,0:0:0:0:
225,316,136035,5,2,0:0:0:0:
382,254,136449,1,2,0:0:0:0:
382,254,136656,1,2,1:2:0:0:
417,177,136863,2,0,P|382:170|349:179,1,70,10|0,0:0|0:0,0:0:0:0:
293,243,137277,1,2,0:0:0:0:
293,243,137483,1,2,0:0:0:0:
419,354,137897,1,2,0:0:0:0:
257,312,138311,1,2,0:0:0:0:
257,312,138518,2,0,P|200:334|186:340,1,70,10|0,0:0|0:0,0:0:0:0:
62,231,139139,5,2,0:0:0:0:
201,135,139552,1,2,1:2:0:0:
83,15,139966,1,0,1:2:0:0:
83,15,140173,2,0,P|74:61|65:90,1,70,10|0,0:0|0:0,0:0:0:0:
128,142,140587,2,0,P|187:154|207:131,1,70,2|0,0:0|0:0,0:0:0:0:
254,95,141001,6,0,P|318:63|394:98,3,140,2|2|10|2,1:2|0:0|0:0|0:0,0:0:0:0:
325,242,142656,2,0,L|171:226,1,140,2|0,0:0|0:0,0:0:0:0:
125,168,143277,1,2,1:2:0:0:
125,168,143483,1,8,0:0:0:0:
