osu file format v14

[General]
AudioFilename: audio.mp3
AudioLeadIn: 0
PreviewTime: 164651
Countdown: 0
SampleSet: Normal
StackLeniency: 0.7
Mode: 0
LetterboxInBreaks: 0
SkinPreference:Default
CountdownOffset: 1
WidescreenStoryboard: 0

[Editor]
DistanceSpacing: 1
BeatDivisor: 2
GridSize: 8
TimelineZoom: 1

[Metadata]
Title:Livin' La Vida Loca (Cut Ver.)
TitleUnicode:Livin' La Vida Loca (Cut Ver.)
Artist:Ricky Martin
ArtistUnicode:Ricky Martin
Creator:Flux3on
Version:Sweatin'
Source:
Tags:1999 luigihann english latin pop spanish puerto rico inis elite beat agents eba osu tatakae ouendan
BeatmapID:3108228
BeatmapSetID:1518426

[Difficulty]
HPDrainRate:6
CircleSize:3
OverallDifficulty:6
ApproachRate:5
SliderMultiplier:1.6
SliderTickRate:2

[Events]
//Background and Video events
0,0,"scrappedinissonglmao.jpg",0,0
//Break Periods
2,21929,25605
2,38109,49873
2,78354,87792
2,140373,148463
//Storyboard Layer 0 (Background)
//Storyboard Layer 1 (Fail)
//Storyboard Layer 2 (Pass)
//Storyboard Layer 3 (Foreground)
Sprite,Foreground,Centre,"ready.png",320,240 M,0,8246,,320,240 S,0,8246,,0.5142562 F,0,8246,8920,0,1 R,1,8246,8920,-1.562256,-5.960464E-07 F,0,8920,9257,1 F,0,9257,9426,1,0 F,0,9426,10437,0
Sprite,Foreground,TopLeft,"main3.png",320,240 M,0,9594,,-2.953857,-0.2461548 S,0,9594,,0.6258463 R,0,9594,,0 F,0,9594,9763,0,1 F,0,9763,10605,1 F,0,10605,10774,1,0
Sprite,Foreground,TopLeft,"main2.png",320,240 M,0,9931,,401.3948,0.4103088 S,0,9931,,0.6258461 F,0,9931,10100,0,1 F,0,10100,10605,1 F,0,10605,10774,1,0
Sprite,Foreground,Centre,"main1.png",320,240 S,0,10268,,0.6258461 F,0,10268,10437,0,1 F,0,10437,10605,1 F,0,10605,10774,1,0
Sprite,Foreground,Centre,"go.png",320,240 F,1,10605,10774,0,1 S,0,10605,10774,0.1,0.3756923 F,0,10774,10942,1 F,0,10942,11111,1,0
//Storyboard Layer 4 (Overlay)
//Storyboard Sound Samples
Sample,8583,3,"mainreadys.wav",100
Sample,9594,3,"main3s.wav",100
Sample,9931,3,"main2s.wav",100
Sample,10268,3,"main1s.wav",100
Sample,10605,3,"maingo.wav",100

[TimingPoints]
157,337.078651685393,4,1,2,100,1,0
12291,-100,4,1,1,100,0,0
13639,-100,4,1,2,100,0,0
13977,-100,4,1,1,100,0,0
16336,-100,4,1,2,100,0,0
17685,-100,4,1,1,100,0,0
19032,-100,4,1,2,100,0,0
19370,-100,4,1,1,100,0,0
21729,-100,4,1,2,100,0,0
28471,-100,4,1,1,100,0,0
29819,-100,4,1,2,100,0,0
30156,-100,4,1,1,100,0,0
32515,-100,4,1,2,100,0,0
33864,-100,4,1,1,100,0,0
35212,-100,4,1,2,100,0,0
35550,-100,4,1,1,100,0,0
37909,-100,4,1,2,100,0,0
51558,-100,4,1,1,100,0,0
54089,-100,4,1,2,100,0,0
54255,-100,4,1,1,100,0,0
56786,-100,4,1,2,100,0,0
56951,-100,4,1,1,100,0,0
59482,-100,4,1,2,100,0,0
59648,-100,4,1,1,100,0,0
62179,-100,4,1,2,100,0,0
62684,-100,4,1,1,100,0,0
64876,-100,4,1,2,100,0,0
65381,-100,4,1,1,100,0,0
67572,-100,4,1,2,100,0,0
68078,-100,4,1,1,100,0,0
77685,-100,4,1,2,100,0,0
89482,-100,4,1,1,50,0,0
91841,-100,4,1,1,100,0,0
94201,-100,4,1,2,100,0,0
95550,-100,4,1,1,100,0,0
97235,-100,4,1,2,100,0,0
97572,-100,4,1,1,100,0,0
113415,-100,4,1,2,100,0,0
113577,-100,4,1,1,100,0,0
116112,-100,4,1,2,100,0,0
116274,-100,4,1,1,100,0,0
118808,-100,4,1,2,100,0,0
118970,-100,4,1,1,100,0,0
121505,-100,4,1,2,100,0,0
121667,-100,4,1,1,100,0,0
124201,-100,4,1,2,100,0,0
124706,-100,4,1,1,100,0,0
126898,-100,4,1,2,100,0,0
127404,-100,4,1,1,100,0,0
129595,-100,4,1,2,100,0,0
130100,-100,4,1,1,100,0,0
139707,-100,4,1,2,100,0,0
153190,-100,4,1,1,100,0,0
163976,-100,4,1,2,100,0,0
164810,-100,4,1,1,100,0,0
167348,-100,4,1,2,100,0,0
167853,-100,4,1,1,100,0,0
170044,-100,4,1,2,100,0,0
170203,-100,4,1,1,100,0,0
172741,-100,4,1,2,100,0,0
173246,-100,4,1,1,100,0,0
175437,-100,4,1,2,100,0,0
175933,-100,4,1,1,100,0,0
178134,-100,4,1,2,100,0,0
178471,-100,4,1,1,100,0,0
185550,-100,4,1,2,100,0,0

[Colours]
Combo1 : 51,93,255
Combo2 : 248,40,0
Combo3 : 255,173,0
Combo4 : 0,248,37
SliderBorder : 255,255,255

[HitObjects]
176,40,11280,5,4,1:2:0:0:
336,40,11617,1,4,1:0:0:0:
256,264,12123,1,0,1:0:0:0:
256,184,12291,1,8,1:0:0:0:
256,184,12460,1,8,1:0:0:0:
256,24,12797,1,2,1:0:0:0:
96,24,13134,2,0,B|0:8|-52:120|0:184,1,240,2|8,1:0|1:0,1:0:0:0:
176,104,13977,5,8,1:0:0:0:
336,264,14314,1,8,1:0:0:0:
336,104,14651,1,8,1:0:0:0:
176,264,14988,1,8,1:0:0:0:
176,264,15156,1,2,1:0:0:0:
256,40,15494,2,0,P|422:54|344:208,1,400,2|2,1:0|1:0,1:0:0:0:
176,344,16673,5,4,1:2:0:0:
336,344,17010,1,4,1:0:0:0:
216,40,17685,1,8,1:0:0:0:
296,40,17853,1,2,1:0:0:0:
176,144,18190,1,2,1:0:0:0:
336,144,18527,2,0,B|432:128|484:240|432:304,1,240,2|2,1:0|2:0,1:0:0:0:
336,384,19370,5,8,1:0:0:0:
176,384,19707,1,8,1:0:0:0:
256,248,20044,1,0,1:0:0:0:
200,192,20213,1,0,1:0:0:0:
256,136,20381,1,2,1:0:0:0:
312,192,20550,1,0,1:0:0:0:
440,88,20887,2,0,P|256:21|72:88,1,400,2|8,1:0|2:0,1:0:0:0:
336,40,27460,5,4,1:2:0:0:
176,40,27797,1,4,1:0:0:0:
256,264,28303,1,0,1:0:0:0:
296,192,28471,1,8,1:0:0:0:
216,192,28640,1,8,1:0:0:0:
176,344,28977,1,2,1:0:0:0:
336,344,29314,2,0,B|432:360|484:248|432:184,1,240,2|8,1:0|1:0,1:0:0:0:
368,40,30156,5,8,1:0:0:0:
256,152,30494,1,8,1:0:0:0:
144,40,30831,1,8,1:0:0:0:
176,200,31168,1,8,1:0:0:0:
176,200,31336,1,2,1:0:0:0:
336,200,31673,2,0,P|322:366|176:280,1,400,2|2,1:0|1:0,1:0:0:0:
176,120,32853,5,4,1:2:0:0:
336,120,33190,1,4,1:0:0:0:
256,344,33696,1,0,1:0:0:0:
256,264,33864,1,8,1:0:0:0:
256,264,34033,1,8,1:0:0:0:
256,104,34370,1,2,1:0:0:0:
400,32,34707,2,0,B|496:16|548:128|496:192,1,240,2|2,1:0|2:0,1:0:0:0:
336,104,35550,5,8,1:0:0:0:
176,264,35887,1,8,1:0:0:0:
176,104,36224,1,8,1:0:0:0:
336,264,36561,1,8,1:0:0:0:
336,264,36730,1,2,1:0:0:0:
256,40,37067,2,0,P|90:54|168:208,1,400,2|8,1:0|2:0,1:0:0:0:
336,72,51392,6,0,L|176:72,1,160,4|0,1:0|1:0,1:0:0:0:
176,152,51898,2,0,L|336:152,1,160,2|0,1:0|1:0,1:0:0:0:
336,232,52404,2,0,L|176:232,1,160,8|0,1:0|1:0,1:0:0:0:
176,312,52909,2,0,L|336:312,2,160,2|2|0,1:0|1:0|1:0,1:0:0:0:
40,232,53921,5,0,1:0:0:0:
40,152,54089,2,0,B|40:72|88:40|216:40,1,240,8|2,1:0|1:0,1:0:0:0:
376,40,54932,1,10,1:0:0:0:
472,168,55269,1,10,1:0:0:0:
432,320,55606,2,0,B|344:428|256:320|168:211|80:320,1,400,10|2,1:0|1:0,1:0:0:0:
96,160,56786,6,0,L|96:0,1,160,4|0,1:0|1:0,1:0:0:0:
176,0,57291,2,0,L|176:160,1,160,2|0,1:0|1:0,1:0:0:0:
256,160,57797,2,0,L|256:0,1,160,8|0,1:0|1:0,1:0:0:0:
336,0,58303,2,0,L|336:160,1,160,2|0,1:0|1:0,1:0:0:0:
416,160,58808,2,0,L|416:0,1,160,6|0,1:0|1:0,1:0:0:0:
376,240,59482,6,0,L|136:240,1,240,2|0,1:0|1:0,1:0:0:0:
256,160,60325,1,10,1:0:0:0:
256,320,60662,1,10,1:0:0:0:
72,136,60999,2,0,P|256:69|440:136,1,400,2|14,1:0|1:0,1:0:0:0:
368,312,62179,6,0,C|312:336|256:321|200:336|144:312,1,240,4|2,1:0|1:0,1:0:0:0:
144,72,63190,2,0,C|200:47|256:62|312:47|368:72,2,240,2|2|2,1:0|1:0|1:0,1:0:0:0:
216,216,64539,5,0,1:0:0:0:
296,216,64707,1,0,1:0:0:0:
256,144,64876,1,2,2:0:0:0:
216,296,65213,1,0,1:0:0:0:
296,296,65381,1,2,1:0:0:0:
144,256,65718,1,0,1:0:0:0:
144,176,65887,1,0,1:0:0:0:
184,104,66055,1,2,1:0:0:0:
432,40,66392,2,0,B|344:149|256:40|168:-68|80:40,1,400,2|0,1:0|1:0,1:0:0:0:
136,192,67572,5,4,1:0:0:0:
136,352,67909,1,0,1:0:0:0:
216,352,68078,1,2,1:0:0:0:
216,192,68415,1,0,1:0:0:0:
296,192,68583,1,2,1:0:0:0:
296,352,68921,1,0,1:0:0:0:
376,352,69089,1,2,1:0:0:0:
376,192,69426,2,0,B|432:192|479:239|479:295,2,160,2|2|0,1:0|1:0|1:0,1:0:0:0:
296,192,70269,5,8,1:0:0:0:
216,192,70437,1,0,1:0:0:0:
216,112,70606,1,0,1:0:0:0:
296,112,70774,1,8,1:0:0:0:
136,112,71112,1,2,1:0:0:0:
256,8,71449,1,2,1:0:0:0:
376,112,71786,2,0,B|448:144|480:232|456:320,1,240,2|6,1:0|1:0,1:0:0:0:
216,192,72965,21,8,1:0:0:0:
296,192,73134,1,0,1:0:0:0:
296,112,73303,1,0,1:0:0:0:
216,112,73471,1,8,1:0:0:0:
376,112,73808,1,2,1:0:0:0:
256,8,74145,1,2,1:0:0:0:
136,112,74482,2,0,B|64:144|32:232|56:320,1,240,2|6,1:0|1:0,1:0:0:0:
256,192,75325,12,8,77685,2:0:0:0:
376,232,89482,37,0,2:0:0:0:
376,232,89819,1,0,2:0:0:0:
136,232,90325,1,0,2:0:0:0:
136,152,90494,1,8,2:0:0:0:
136,152,90662,1,8,2:0:0:0:
256,264,90999,1,0,2:0:0:0:
376,152,91336,2,8,B|472:136|524:248|472:312,1,240,0|0,2:0|1:0,2:0:0:0:
296,344,92179,5,2,1:0:0:0:
216,344,92348,1,0,1:0:0:0:
256,272,92516,1,2,1:0:0:0:
96,272,92853,1,8,1:0:0:0:
216,160,93190,1,8,1:0:0:0:
296,160,93359,1,2,1:0:0:0:
416,272,93696,2,0,B|512:288|564:176|512:112,1,240,2|2,1:0|1:0,1:0:0:0:
296,0,94707,5,0,1:0:0:0:
296,80,94876,1,4,1:2:0:0:
216,80,95044,1,0,1:0:0:0:
216,0,95213,1,4,1:0:0:0:
216,160,95550,21,8,1:0:0:0:
216,240,95718,1,0,1:0:0:0:
296,240,95887,1,8,1:0:0:0:
296,160,96055,1,2,1:0:0:0:
336,312,96392,1,2,1:0:0:0:
176,312,96730,2,0,B|80:328|28:216|80:152,1,240,2|2,1:0|2:0,1:0:0:0:
136,96,97404,5,0,1:0:0:0:
216,96,97572,1,8,1:0:0:0:
296,96,97741,1,0,1:0:0:0:
376,96,97909,1,8,1:0:0:0:
376,256,98246,21,8,1:0:0:0:
296,256,98415,1,0,1:0:0:0:
216,256,98583,1,8,1:0:0:0:
136,256,98752,1,2,1:0:0:0:
176,104,99089,2,0,L|336:104,1,160,2|0,1:0|1:0,1:0:0:0:
496,104,99763,5,0,1:0:0:0:
496,184,99932,2,0,P|484:263|416:272,1,160,8|0,1:0|1:0,1:0:0:0:
336,272,100437,5,2,1:0:0:0:
176,112,100774,1,0,1:0:0:0:
176,272,101112,1,2,1:0:0:0:
336,112,101449,1,0,1:0:0:0:
336,272,101786,1,2,1:0:0:0:
176,112,102123,1,0,1:0:0:0:
176,272,102460,1,2,1:0:0:0:
336,112,102797,1,0,1:0:0:0:
336,272,103134,1,2,1:0:0:0:
472,344,103471,1,0,1:0:0:0:
496,192,103808,2,0,L|96:192,1,400,2|2,1:0|1:0,1:0:0:0:
16,104,105156,5,0,1:0:0:0:
16,184,105325,2,0,P|28:263|96:272,1,160,8|0,1:0|1:0,1:0:0:0:
176,272,105831,5,2,1:0:0:0:
336,112,106168,1,0,1:0:0:0:
336,272,106505,1,2,1:0:0:0:
176,112,106842,1,0,1:0:0:0:
176,272,107179,1,2,1:0:0:0:
336,112,107516,1,0,1:0:0:0:
336,272,107853,1,2,1:0:0:0:
176,112,108190,1,0,1:0:0:0:
176,272,108527,1,2,1:0:0:0:
40,344,108864,1,0,1:0:0:0:
16,192,109201,2,0,L|416:192,1,400,0|0,1:0|1:0,1:0:0:0:
256,192,110381,12,8,112572,1:0:0:0:
176,72,113415,6,0,L|336:72,1,160,4|0,1:0|1:0,1:0:0:0:
336,152,113921,2,0,L|176:152,1,160,2|0,1:0|1:0,1:0:0:0:
176,232,114426,2,0,L|336:232,1,160,8|0,1:0|1:0,1:0:0:0:
336,312,114932,2,0,L|176:312,2,160,2|2|0,1:0|1:0|1:0,1:0:0:0:
472,232,115943,5,0,1:0:0:0:
472,152,116112,2,0,B|472:72|424:40|296:40,1,240,8|2,1:0|1:0,1:0:0:0:
136,40,116954,1,10,1:0:0:0:
40,168,117291,1,10,1:0:0:0:
80,320,117628,2,0,B|168:428|256:320|344:211|432:320,1,400,10|2,1:0|1:0,1:0:0:0:
416,160,118808,6,0,L|416:0,1,160,4|0,1:0|1:0,1:0:0:0:
336,0,119314,2,0,L|336:160,1,160,2|0,1:0|1:0,1:0:0:0:
256,160,119819,2,0,L|256:0,1,160,8|0,1:0|1:0,1:0:0:0:
176,0,120325,2,0,L|176:160,1,160,2|0,1:0|1:0,1:0:0:0:
96,160,120831,2,0,L|96:0,1,160,6|0,1:0|1:0,1:0:0:0:
136,240,121505,6,0,L|376:240,1,240,2|0,1:0|1:0,1:0:0:0:
256,160,122348,1,10,1:0:0:0:
256,320,122685,1,10,1:0:0:0:
440,136,123022,2,0,P|256:69|72:136,1,400,2|14,1:0|1:0,1:0:0:0:
144,312,124201,6,0,C|200:336|256:321|312:336|368:312,1,240,4|2,1:0|1:0,1:0:0:0:
368,72,125213,2,0,C|312:47|256:62|200:47|144:72,2,240,2|2|2,1:0|1:0|1:0,1:0:0:0:
296,216,126561,5,0,1:0:0:0:
216,216,126730,1,0,1:0:0:0:
256,144,126898,1,2,2:0:0:0:
296,296,127235,1,0,1:0:0:0:
216,296,127404,1,2,1:0:0:0:
368,256,127741,1,0,1:0:0:0:
368,176,127909,1,0,1:0:0:0:
328,104,128078,1,2,1:0:0:0:
80,40,128415,2,0,B|168:149|256:40|344:-68|432:40,1,400,2|0,1:0|1:0,1:0:0:0:
376,192,129595,5,4,1:0:0:0:
376,352,129932,1,0,1:0:0:0:
296,352,130100,1,2,1:0:0:0:
296,192,130437,1,0,1:0:0:0:
216,192,130606,1,2,1:0:0:0:
216,352,130943,1,0,1:0:0:0:
136,352,131112,1,2,1:0:0:0:
136,192,131449,2,0,B|80:192|33:239|33:295,2,160,2|2|0,1:0|1:0|1:0,1:0:0:0:
216,192,132291,5,8,1:0:0:0:
296,192,132460,1,0,1:0:0:0:
296,112,132628,1,0,1:0:0:0:
216,112,132797,1,8,1:0:0:0:
376,112,133134,1,2,1:0:0:0:
256,8,133471,1,2,1:0:0:0:
136,112,133808,2,0,B|64:144|32:232|56:320,1,240,2|6,1:0|1:0,1:0:0:0:
296,192,134988,21,8,1:0:0:0:
216,192,135156,1,0,1:0:0:0:
216,112,135325,1,0,1:0:0:0:
296,112,135494,1,8,1:0:0:0:
136,112,135831,1,2,1:0:0:0:
256,8,136168,1,2,1:0:0:0:
376,112,136505,2,0,B|448:144|480:232|456:320,1,240,2|6,1:0|1:0,1:0:0:0:
256,192,137348,12,8,139707,2:0:0:0:
256,192,151168,12,6,153190,1:0:0:0:
256,192,153864,12,6,155887,1:0:0:0:
256,192,156561,12,6,158583,1:0:0:0:
256,192,159258,12,6,161280,1:0:0:0:
80,240,161954,22,8,P|256:377|432:240,2,480,0|0|2,1:0|1:0|1:0,1:0:0:0:
312,32,164651,6,0,B|376:32|376:96|376:96|376:152,1,160,4|0,1:0|1:0,1:0:0:0:
360,232,165156,2,0,B|296:232|296:168|296:168|296:112,1,160,2|0,1:0|1:0,1:0:0:0:
216,112,165662,2,0,B|216:168|216:168|216:232|152:232,1,160,0|0,1:0|1:0,1:0:0:0:
136,152,166168,2,0,B|136:96|136:96|136:32|200:32,2,160,2|2|0,1:0|1:0|1:0,1:0:0:0:
176,304,167179,5,0,1:0:0:0:
256,304,167348,1,8,1:0:0:0:
336,304,167516,1,0,1:0:0:0:
296,376,167685,1,0,1:0:0:0:
216,376,167853,1,8,1:0:0:0:
176,224,168190,1,2,1:0:0:0:
336,224,168527,1,2,1:0:0:0:
432,96,168864,2,0,B|344:-13|256:96|168:204|80:96,1,400,2|0,1:0|1:0,1:0:0:0:
136,248,170044,6,0,B|136:312|200:312|200:312|256:312,1,160,4|0,1:0|1:0,1:0:0:0:
336,296,170550,2,0,B|336:232|272:232|272:232|216:232,1,160,2|0,1:0|1:0,1:0:0:0:
216,152,171055,2,0,B|216:88|280:88|280:88|336:88,1,160,0|0,1:0|1:0,1:0:0:0:
416,104,171561,2,0,B|416:168|352:168|352:168|296:168,1,160,2|0,1:0|1:0,1:0:0:0:
296,248,172067,2,0,B|352:248|352:248|416:248|416:312,1,160,2|0,1:0|1:0,1:0:0:0:
256,344,172741,5,2,1:0:0:0:
176,344,172909,1,0,1:0:0:0:
96,344,173078,1,0,1:0:0:0:
16,344,173246,1,8,1:0:0:0:
176,264,173583,1,2,1:0:0:0:
16,264,173921,1,2,1:0:0:0:
96,120,174258,2,0,P|255:18|416:120,1,400,2|2,1:0|1:0,1:0:0:0:
464,288,175437,6,0,C|360:344|256:288|152:344|48:288,2,480,4|2|2,1:0|1:0|1:0,1:0:0:0:
336,192,177797,5,0,1:0:0:0:
256,192,177965,1,0,1:0:0:0:
176,192,178134,1,2,2:0:0:0:
216,32,178471,1,8,1:0:0:0:
296,32,178640,1,2,1:0:0:0:
256,192,178977,1,8,1:0:0:0:
216,264,179145,1,0,1:0:0:0:
296,264,179314,1,2,1:0:0:0:
376,112,179651,2,0,L|136:112,1,240,2|8,1:0|1:0,1:0:0:0:
256,192,180831,12,8,185550,2:0:0:0:
