osu file format v14

[General]
AudioFilename: audio.mp3
AudioLeadIn: 0
PreviewTime: 164651
Countdown: 0
SampleSet: Normal
StackLeniency: 0.7
Mode: 0
LetterboxInBreaks: 0
SkinPreference:Default
CountdownOffset: 1
WidescreenStoryboard: 0

[Editor]
DistanceSpacing: 1
BeatDivisor: 2
GridSize: 8
TimelineZoom: 1

[Metadata]
Title:Livin' La Vida Loca (Cut Ver.)
TitleUnicode:Livin' La Vida Loca (Cut Ver.)
Artist:Ricky Martin
ArtistUnicode:Ricky Martin
Creator:Flux3on
Version:Hard ROCK!
Source:
Tags:1999 luigihann english latin pop spanish puerto rico inis elite beat agents eba osu tatakae ouendan
BeatmapID:3108227
BeatmapSetID:1518426

[Difficulty]
HPDrainRate:8
CircleSize:4
OverallDifficulty:8
ApproachRate:8
SliderMultiplier:1.6
SliderTickRate:2

[Events]
//Background and Video events
0,0,"scrappedinissonglmao.jpg",0,0
//Break Periods
2,21929,25605
2,38109,49873
2,78354,87792
2,140373,149642
//Storyboard Layer 0 (Background)
//Storyboard Layer 1 (Fail)
//Storyboard Layer 2 (Pass)
//Storyboard Layer 3 (Foreground)
Sprite,Foreground,Centre,"ready.png",320,240 M,0,8246,,320,240 S,0,8246,,0.5142562 F,0,8246,8920,0,1 R,1,8246,8920,-1.562256,-5.960464E-07 F,0,8920,9257,1 F,0,9257,9426,1,0 F,0,9426,10437,0
Sprite,Foreground,TopLeft,"ebd3.png",320,240 M,0,9594,,-2.953857,-0.2461548 S,0,9594,,0.6258463 R,0,9594,,0 F,0,9594,9763,0,1 F,0,9763,10605,1 F,0,10605,10774,1,0
Sprite,Foreground,TopLeft,"ebd2.png",320,240 M,0,9931,,401.3948,0.4103088 S,0,9931,,0.6258461 F,0,9931,10100,0,1 F,0,10100,10605,1 F,0,10605,10774,1,0
Sprite,Foreground,Centre,"ebd1.png",320,240 S,0,10268,,0.6258461 F,0,10268,10437,0,1 F,0,10437,10605,1 F,0,10605,10774,1,0
Sprite,Foreground,Centre,"go.png",320,240 F,1,10605,10774,0,1 S,0,10605,10774,0.1,0.3756923 F,0,10774,10942,1 F,0,10942,11111,1,0
//Storyboard Layer 4 (Overlay)
//Storyboard Sound Samples
Sample,8583,3,"ebdreadys.wav",100
Sample,9594,3,"ebd3s.wav",100
Sample,9931,3,"ebd2s.wav",100
Sample,10268,3,"ebd1s.wav",100
Sample,10605,3,"ebdgo.wav",100

[TimingPoints]
157,337.078651685393,4,1,2,100,1,0
12291,-100,4,1,1,100,0,0
13639,-100,4,1,3,100,0,0
13977,-100,4,1,1,100,0,0
16336,-100,4,1,3,100,0,0
16673,-100,4,1,2,100,0,0
17685,-100,4,1,1,100,0,0
19032,-100,4,1,3,100,0,0
19370,-100,4,1,1,100,0,0
21729,-100,4,1,3,100,0,0
27460,-100,4,1,2,100,0,0
28471,-100,4,1,1,100,0,0
29819,-100,4,1,3,100,0,0
30156,-100,4,1,1,100,0,0
32515,-100,4,1,3,100,0,0
32853,-100,4,1,2,100,0,0
33864,-100,4,1,1,100,0,0
35212,-100,4,1,3,100,0,0
35550,-100,4,1,1,100,0,0
37909,-100,4,1,3,100,0,0
51392,-100,4,1,2,100,0,0
51558,-100,4,1,1,100,0,0
54089,-100,4,1,3,100,0,0
54255,-100,4,1,1,100,0,0
56786,-100,4,1,2,100,0,0
56951,-100,4,1,1,100,0,0
59482,-100,4,1,3,100,0,0
59648,-100,4,1,1,100,0,0
62179,-100,4,1,2,100,0,0
62684,-100,4,1,1,100,0,0
64876,-100,4,1,3,100,0,0
65213,-100,4,1,1,100,0,0
67572,-100,4,1,2,100,0,0
68078,-100,4,1,1,100,0,0
77685,-100,4,1,3,100,0,0
89482,-100,4,1,1,50,0,0
91841,-100,4,1,3,100,0,0
92179,-100,4,1,1,100,0,0
94201,-100,4,1,3,100,0,0
94707,-100,4,1,2,100,0,0
95550,-100,4,1,1,100,0,0
97235,-100,4,1,3,100,0,0
97404,-100,4,1,1,100,0,0
113415,-100,4,1,2,100,0,0
113577,-100,4,1,1,100,0,0
116112,-100,4,1,3,100,0,0
116274,-100,4,1,1,100,0,0
118808,-100,4,1,2,100,0,0
118970,-100,4,1,1,100,0,0
121505,-100,4,1,3,100,0,0
121667,-100,4,1,1,100,0,0
124201,-100,4,1,2,100,0,0
124700,-100,4,1,1,100,0,0
126898,-100,4,1,3,100,0,0
127235,-100,4,1,1,100,0,0
129595,-100,4,1,2,100,0,0
130100,-100,4,1,1,100,0,0
139707,-100,4,1,3,100,0,0
153190,-100,4,1,1,100,0,0
161954,-100,4,1,3,100,0,0
164651,-100,4,1,2,100,0,0
164810,-100,4,1,1,100,0,0
167348,-100,4,1,3,100,0,0
167516,-100,4,1,1,100,0,0
170044,-100,4,1,2,100,0,0
170203,-100,4,1,1,100,0,0
172741,-100,4,1,3,100,0,0
172909,-100,4,1,1,100,0,0
175437,-100,4,1,2,100,0,0
175933,-100,4,1,1,100,0,0
178134,-100,4,1,3,100,0,0
178471,-100,4,1,1,100,0,0
185550,-100,4,1,3,100,0,0

[Colours]
Combo1 : 51,93,255
Combo2 : 248,40,0
Combo3 : 255,173,0
Combo4 : 0,248,37
SliderBorder : 255,255,255

[HitObjects]
336,344,11280,5,4,1:2:0:0:
176,344,11617,1,4,1:0:0:0:
256,120,12123,1,0,1:0:0:0:
260,204,12291,1,8,1:0:0:0:
256,200,12460,1,8,1:0:0:0:
256,360,12797,1,2,1:0:0:0:
416,360,13134,2,0,B|512:376|564:264|512:200,1,240,2|8,1:0|1:0,1:0:0:0:
336,280,13977,5,8,1:0:0:0:
176,120,14314,1,8,1:0:0:0:
176,280,14651,1,8,1:0:0:0:
340,124,14988,1,8,1:0:0:0:
336,120,15156,1,2,1:0:0:0:
256,344,15494,2,0,P|90:330|168:176,1,400,2|2,1:0|1:0,1:0:0:0:
336,40,16673,5,4,1:2:0:0:
176,40,17010,1,4,1:0:0:0:
296,344,17685,1,8,1:0:0:0:
216,344,17853,1,2,1:0:0:0:
336,240,18190,1,2,1:0:0:0:
176,240,18527,2,0,B|80:256|28:144|80:80,1,240,2|2,1:0|2:0,1:0:0:0:
176,0,19370,5,8,1:0:0:0:
336,0,19707,1,8,1:0:0:0:
256,136,20044,1,0,1:0:0:0:
312,192,20213,1,0,1:0:0:0:
256,248,20381,1,2,1:0:0:0:
200,192,20550,1,0,1:0:0:0:
72,296,20887,2,0,P|256:363|440:296,1,400,2|8,1:0|2:0,1:0:0:0:
176,344,27460,5,4,1:2:0:0:
336,344,27797,1,4,1:0:0:0:
256,120,28303,1,0,1:0:0:0:
216,192,28471,1,8,1:0:0:0:
296,192,28640,1,8,1:0:0:0:
336,40,28977,1,2,1:0:0:0:
176,40,29314,2,0,B|80:24|28:136|80:200,1,240,2|8,1:0|1:0,1:0:0:0:
144,344,30156,5,8,1:0:0:0:
256,232,30494,1,8,1:0:0:0:
368,344,30831,1,8,1:0:0:0:
352,264,30999,1,0,1:0:0:0:
340,188,31168,1,8,1:0:0:0:
336,184,31336,1,2,1:0:0:0:
176,184,31673,2,0,P|190:18|336:104,1,400,2|2,1:0|1:0,1:0:0:0:
336,264,32853,5,4,1:2:0:0:
176,264,33190,1,4,1:0:0:0:
256,40,33696,1,0,1:0:0:0:
260,124,33864,1,8,1:0:0:0:
256,120,34033,1,8,1:0:0:0:
256,280,34370,1,2,1:0:0:0:
112,352,34707,2,0,B|16:368|-36:256|16:192,1,240,2|2,1:0|2:0,1:0:0:0:
176,280,35550,5,8,1:0:0:0:
336,120,35887,1,8,1:0:0:0:
336,280,36224,1,8,1:0:0:0:
180,124,36561,1,8,1:0:0:0:
176,120,36730,1,2,1:0:0:0:
256,344,37067,2,0,P|422:330|344:176,1,400,2|8,1:0|2:0,1:0:0:0:
176,312,51392,6,0,L|336:312,1,160,4|0,1:0|1:0,1:0:0:0:
336,232,51898,2,0,L|176:232,1,160,2|0,1:0|1:0,1:0:0:0:
176,152,52404,2,0,L|336:152,1,160,8|0,1:0|1:0,1:0:0:0:
336,72,52909,2,0,L|176:72,2,160,2|2|0,1:0|1:0|1:0,1:0:0:0:
472,152,53921,5,0,1:0:0:0:
472,232,54089,2,0,B|472:312|424:344|296:344,1,240,8|2,1:0|1:0,1:0:0:0:
136,344,54932,1,10,1:0:0:0:
40,216,55269,1,10,1:0:0:0:
80,64,55606,2,0,B|168:-44|256:64|344:173|432:64,1,400,10|2,1:0|1:0,1:0:0:0:
416,224,56786,6,0,L|416:384,1,160,4|0,1:0|1:0,1:0:0:0:
336,384,57291,2,0,L|336:224,1,160,2|0,1:0|1:0,1:0:0:0:
256,224,57797,2,0,L|256:384,1,160,8|0,1:0|1:0,1:0:0:0:
176,384,58303,2,0,L|176:224,1,160,2|0,1:0|1:0,1:0:0:0:
96,224,58808,2,0,L|96:384,1,160,6|0,1:0|1:0,1:0:0:0:
136,144,59482,6,0,L|376:144,1,240,2|0,1:0|1:0,1:0:0:0:
256,224,60325,1,10,1:0:0:0:
256,64,60662,1,10,1:0:0:0:
440,248,60999,2,0,P|256:315|72:248,1,400,2|14,1:0|1:0,1:0:0:0:
144,72,62179,6,0,C|200:48|256:63|312:48|368:72,1,240,4|2,1:0|1:0,1:0:0:0:
368,312,63190,2,0,C|312:337|256:322|200:337|144:312,2,240,2|2|2,1:0|1:0|1:0,1:0:0:0:
296,168,64539,5,0,1:0:0:0:
216,168,64707,1,0,1:0:0:0:
256,240,64876,1,2,2:0:0:0:
296,88,65213,1,0,1:0:0:0:
216,88,65381,1,2,1:0:0:0:
368,128,65718,1,0,1:0:0:0:
368,208,65887,1,0,1:0:0:0:
328,280,66055,1,2,1:0:0:0:
80,344,66392,2,0,B|168:235|256:344|344:452|432:344,1,400,2|0,1:0|1:0,1:0:0:0:
376,192,67572,5,4,1:0:0:0:
376,32,67909,1,0,1:0:0:0:
296,32,68078,1,2,1:0:0:0:
296,192,68415,1,0,1:0:0:0:
216,192,68583,1,2,1:0:0:0:
216,32,68921,1,0,1:0:0:0:
136,32,69089,1,2,1:0:0:0:
136,112,69258,1,0,1:0:0:0:
136,192,69426,2,0,B|80:192|33:145|33:89,2,160,2|2|0,1:0|1:0|1:0,1:0:0:0:
216,192,70269,5,8,1:0:0:0:
296,192,70437,1,0,1:0:0:0:
296,272,70606,1,0,1:0:0:0:
216,272,70774,1,8,1:0:0:0:
376,272,71112,1,2,1:0:0:0:
256,376,71449,1,2,1:0:0:0:
136,272,71786,2,0,B|64:240|32:152|56:64,1,240,2|6,1:0|1:0,1:0:0:0:
256,120,72797,21,0,1:0:0:0:
296,192,72965,1,8,1:0:0:0:
216,192,73134,1,0,1:0:0:0:
216,272,73303,1,0,1:0:0:0:
296,272,73471,1,8,1:0:0:0:
136,272,73808,1,2,1:0:0:0:
256,376,74145,1,2,1:0:0:0:
376,272,74482,2,0,B|448:240|480:152|456:64,1,240,2|6,1:0|1:0,1:0:0:0:
256,192,75325,12,8,77685,2:0:0:0:
140,156,89482,37,0,2:0:0:0:
136,152,89819,1,0,2:0:0:0:
376,152,90325,1,0,2:0:0:0:
380,236,90494,1,8,2:0:0:0:
376,232,90662,1,8,2:0:0:0:
256,120,90999,1,0,2:0:0:0:
136,232,91336,2,0,B|40:248|-12:136|40:72,1,240,8|8,2:0|1:0,2:0:0:0:
216,40,92179,5,2,1:0:0:0:
296,40,92348,1,0,1:0:0:0:
256,112,92516,1,2,1:0:0:0:
416,112,92853,1,8,1:0:0:0:
296,224,93190,1,8,1:0:0:0:
216,224,93359,1,2,1:0:0:0:
96,112,93696,2,0,B|0:96|-52:208|0:272,1,240,2|2,1:0|1:0,1:0:0:0:
216,384,94707,5,0,1:0:0:0:
216,304,94876,1,4,1:2:0:0:
296,304,95044,1,0,1:0:0:0:
296,384,95213,1,4,1:0:0:0:
296,224,95550,21,8,1:0:0:0:
296,144,95718,1,0,1:0:0:0:
216,144,95887,1,8,1:0:0:0:
216,224,96055,1,2,1:0:0:0:
176,72,96392,1,2,1:0:0:0:
336,72,96730,2,0,B|432:56|484:168|432:232,1,240,2|2,1:0|2:0,1:0:0:0:
376,288,97404,5,0,1:0:0:0:
296,288,97572,1,8,1:0:0:0:
216,288,97741,1,0,1:0:0:0:
136,288,97909,1,8,1:0:0:0:
136,128,98246,21,8,1:0:0:0:
216,128,98415,1,0,1:0:0:0:
296,128,98583,1,8,1:0:0:0:
376,128,98752,1,2,1:0:0:0:
336,280,99089,2,0,L|176:280,1,160,2|0,1:0|1:0,1:0:0:0:
16,280,99763,5,0,1:0:0:0:
16,200,99932,2,0,P|28:121|96:112,1,160,8|0,1:0|1:0,1:0:0:0:
176,112,100437,5,2,1:0:0:0:
336,272,100774,1,0,1:0:0:0:
336,112,101112,1,2,1:0:0:0:
176,272,101449,1,0,1:0:0:0:
176,112,101786,1,2,1:0:0:0:
336,272,102123,1,0,1:0:0:0:
176,272,102460,1,2,1:0:0:0:
336,112,102797,1,0,1:0:0:0:
336,272,103134,1,2,1:0:0:0:
176,112,103471,1,0,1:0:0:0:
16,192,103808,2,0,L|416:192,1,400,2|2,1:0|1:0,1:0:0:0:
496,280,105156,5,0,1:0:0:0:
496,200,105325,2,0,P|484:121|416:112,1,160,8|0,1:0|1:0,1:0:0:0:
336,112,105831,5,2,1:0:0:0:
176,272,106168,1,0,1:0:0:0:
176,112,106505,1,2,1:0:0:0:
336,272,106842,1,0,1:0:0:0:
336,112,107179,1,2,1:0:0:0:
176,272,107516,1,0,1:0:0:0:
336,272,107853,1,2,1:0:0:0:
176,112,108190,1,0,1:0:0:0:
176,272,108527,1,2,1:0:0:0:
336,112,108864,1,0,1:0:0:0:
496,192,109201,2,0,L|96:192,1,400,2|2,1:0|1:0,1:0:0:0:
256,192,110381,12,8,112572,1:0:0:0:
336,312,113415,6,0,L|176:312,1,160,4|0,1:0|1:0,1:0:0:0:
176,232,113921,2,0,L|336:232,1,160,2|0,1:0|1:0,1:0:0:0:
336,152,114426,2,0,L|176:152,1,160,8|0,1:0|1:0,1:0:0:0:
176,72,114932,2,0,L|336:72,2,160,2|2|0,1:0|1:0|1:0,1:0:0:0:
40,152,115943,5,0,1:0:0:0:
40,232,116112,2,0,B|40:312|88:344|216:344,1,240,8|2,1:0|1:0,1:0:0:0:
376,344,116954,1,10,1:0:0:0:
472,216,117291,1,10,1:0:0:0:
432,64,117628,2,0,B|344:-44|256:64|168:173|80:64,1,400,10|2,1:0|1:0,1:0:0:0:
96,224,118808,6,0,L|96:384,1,160,4|0,1:0|1:0,1:0:0:0:
176,384,119314,2,0,L|176:224,1,160,2|0,1:0|1:0,1:0:0:0:
256,224,119819,2,0,L|256:384,1,160,8|0,1:0|1:0,1:0:0:0:
336,384,120325,2,0,L|336:224,1,160,2|0,1:0|1:0,1:0:0:0:
416,224,120831,2,0,L|416:384,1,160,6|0,1:0|1:0,1:0:0:0:
376,144,121505,6,0,L|136:144,1,240,2|0,1:0|1:0,1:0:0:0:
256,224,122348,1,10,1:0:0:0:
256,64,122685,1,10,1:0:0:0:
72,248,123022,2,0,P|256:315|440:248,1,400,2|14,1:0|1:0,1:0:0:0:
368,72,124201,6,0,C|312:48|256:63|200:48|144:72,1,240,4|2,1:0|1:0,1:0:0:0:
144,312,125213,2,0,C|200:337|256:322|312:337|368:312,2,240,2|2|2,1:0|1:0|1:0,1:0:0:0:
216,168,126561,5,0,1:0:0:0:
296,168,126730,1,0,1:0:0:0:
256,240,126898,1,2,2:0:0:0:
216,88,127235,1,0,1:0:0:0:
296,88,127404,1,2,1:0:0:0:
144,128,127741,1,0,1:0:0:0:
144,208,127909,1,0,1:0:0:0:
184,280,128078,1,2,1:0:0:0:
432,344,128415,2,0,B|344:235|256:344|168:452|80:344,1,400,2|0,1:0|1:0,1:0:0:0:
136,192,129595,5,4,1:0:0:0:
136,32,129932,1,0,1:0:0:0:
216,32,130100,1,2,1:0:0:0:
216,192,130437,1,0,1:0:0:0:
296,192,130606,1,2,1:0:0:0:
296,32,130943,1,0,1:0:0:0:
376,32,131112,1,2,1:0:0:0:
376,112,131280,1,0,1:0:0:0:
376,192,131449,2,0,B|432:192|479:145|479:89,2,160,2|2|0,1:0|1:0|1:0,1:0:0:0:
296,192,132291,5,8,1:0:0:0:
216,192,132460,1,0,1:0:0:0:
216,272,132628,1,0,1:0:0:0:
296,272,132797,1,8,1:0:0:0:
136,272,133134,1,2,1:0:0:0:
256,376,133471,1,2,1:0:0:0:
376,272,133808,2,0,B|448:240|480:152|456:64,1,240,2|6,1:0|1:0,1:0:0:0:
256,120,134819,21,0,1:0:0:0:
216,192,134988,1,8,1:0:0:0:
296,192,135156,1,0,1:0:0:0:
296,272,135325,1,0,1:0:0:0:
216,272,135494,1,8,1:0:0:0:
376,272,135831,1,2,1:0:0:0:
256,376,136168,1,2,1:0:0:0:
136,272,136505,2,0,B|64:240|32:152|56:64,1,240,2|6,1:0|1:0,1:0:0:0:
256,192,137348,12,8,139707,2:0:0:0:
256,192,151168,12,6,153190,1:0:0:0:
256,192,153864,12,6,155887,1:0:0:0:
256,192,156561,12,6,158583,1:0:0:0:
256,192,159258,12,6,161280,1:0:0:0:
432,144,161954,22,0,P|256:7|80:144,2,480,0|0|2,1:0|1:0|1:0,1:0:0:0:
200,352,164651,6,0,B|136:352|136:288|136:288|136:232,1,160,4|0,1:0|1:0,1:0:0:0:
152,152,165156,2,0,B|216:152|216:216|216:216|216:272,1,160,2|0,1:0|1:0,1:0:0:0:
296,272,165662,2,0,B|296:216|296:216|296:152|360:152,1,160,0|0,1:0|1:0,1:0:0:0:
376,232,166168,2,0,B|376:288|376:288|376:352|312:352,2,160,2|2|2,1:0|1:0|1:0,1:0:0:0:
336,80,167179,5,0,1:0:0:0:
256,80,167348,1,8,1:0:0:0:
176,80,167516,1,0,1:0:0:0:
216,8,167685,1,0,1:0:0:0:
296,8,167853,1,8,1:0:0:0:
336,160,168190,1,2,1:0:0:0:
256,160,168359,1,0,1:0:0:0:
176,160,168527,1,2,1:0:0:0:
80,288,168864,2,0,B|168:397|256:288|344:180|432:288,1,400,2|0,1:0|1:0,1:0:0:0:
376,136,170044,6,0,B|376:72|312:72|312:72|256:72,1,160,4|0,1:0|1:0,1:0:0:0:
176,88,170550,2,0,B|176:152|240:152|240:152|296:152,1,160,2|0,1:0|1:0,1:0:0:0:
296,232,171055,2,0,B|296:296|232:296|232:296|176:296,1,160,0|0,1:0|1:0,1:0:0:0:
96,280,171561,2,0,B|96:216|160:216|160:216|216:216,1,160,2|0,1:0|1:0,1:0:0:0:
216,136,172067,2,0,B|160:136|160:136|96:136|96:72,1,160,2|0,1:0|1:0,1:0:0:0:
256,40,172741,5,2,1:0:0:0:
336,40,172909,1,0,1:0:0:0:
416,40,173078,1,0,1:0:0:0:
496,40,173246,1,8,1:0:0:0:
336,120,173583,1,2,1:0:0:0:
416,120,173752,1,0,1:0:0:0:
496,120,173921,1,2,1:0:0:0:
416,264,174258,2,0,P|257:366|96:264,1,400,2|2,1:0|1:0,1:0:0:0:
48,96,175437,6,0,C|152:40|256:96|360:40|464:96,2,480,4|2|2,1:0|1:0|1:0,1:0:0:0:
176,192,177797,5,0,1:0:0:0:
256,192,177965,1,0,1:0:0:0:
336,192,178134,1,2,2:0:0:0:
296,352,178471,1,8,1:0:0:0:
216,352,178640,1,2,1:0:0:0:
256,192,178977,1,8,1:0:0:0:
296,120,179145,1,0,1:0:0:0:
216,120,179314,1,2,1:0:0:0:
136,272,179651,2,0,L|376:272,1,240,2|8,1:0|1:0,1:0:0:0:
256,192,180831,12,8,185550,2:0:0:0:
