osu file format v14

[General]
AudioFilename: audio.mp3
AudioLeadIn: 0
PreviewTime: 3142
Countdown: 0
SampleSet: None
StackLeniency: 0.2
Mode: 3
LetterboxInBreaks: 0
SpecialStyle: 0
WidescreenStoryboard: 1

[Editor]
DistanceSpacing: 0.9
BeatDivisor: 4
GridSize: 32
TimelineZoom: 1.7

[Metadata]
Title:Get Schwifty
TitleUnicode:Get Schwifty
Artist:Rick and Morty
ArtistUnicode:Rick and Morty
Creator:xi9w
Version:4K NM
Source:Rick and Morty
Tags:rick and morty adult swim get schwifty
BeatmapID:1419614
BeatmapSetID:671407

[Difficulty]
HPDrainRate:3.6
CircleSize:4
OverallDifficulty:3.4
ApproachRate:5
SliderMultiplier:1.1
SliderTickRate:1

[Events]
//Background and Video events
0,0,"20170427010427860.jpg",0,0
//Break Periods
//Storyboard Layer 0 (Background)
//Storyboard Layer 1 (Fail)
//Storyboard Layer 2 (Pass)
//Storyboard Layer 3 (Foreground)
//Storyboard Sound Samples

[TimingPoints]
0,571.428571428571,4,2,1,100,1,0
4285,-100,4,2,1,100,0,1
13428,-100,4,2,1,100,0,0
49999,-100,4,2,1,100,0,1
54571,-100,4,2,1,100,0,0

[HitObjects]
448,192,285,5,2,0:0:0:0:
192,192,285,128,0,1428:0:0:0:0:
448,192,1428,1,2,0:0:0:0:
320,192,1428,128,0,2571:0:0:0:0:
448,192,2571,128,2,3714:0:0:0:0:
64,192,3714,1,0,0:0:0:0:
192,192,3857,1,0,0:0:0:0:
320,192,3999,1,0,0:0:0:0:
448,192,4142,1,0,0:0:0:0:
320,192,4285,1,4,0:0:0:0:
192,192,4571,128,8,4857:0:0:0:0:
64,192,4857,1,0,0:0:0:0:
320,192,4999,1,0,0:0:0:0:
448,192,5142,1,6,0:0:0:0:
192,192,5142,1,8,0:0:0:0:
64,192,5285,1,0,0:0:0:0:
320,192,5428,1,0,0:0:0:0:
448,192,5571,1,0,0:0:0:0:
192,192,5714,1,8,0:0:0:0:
320,192,5857,1,0,0:0:0:0:
192,192,5999,1,0,0:0:0:0:
64,192,6142,1,0,0:0:0:0:
448,192,6285,1,6,0:0:0:0:
192,192,6285,1,8,0:0:0:0:
320,192,6571,1,0,0:0:0:0:
64,192,6571,128,0,6857:0:0:0:0:
192,192,6857,128,8,7142:0:0:0:0:
64,192,7142,1,0,0:0:0:0:
320,192,7285,1,0,0:0:0:0:
448,192,7428,1,6,0:0:0:0:
192,192,7428,1,8,0:0:0:0:
64,192,7571,1,0,0:0:0:0:
320,192,7714,1,0,0:0:0:0:
448,192,7857,1,0,0:0:0:0:
192,192,7999,1,8,0:0:0:0:
320,192,8142,1,0,0:0:0:0:
192,192,8285,1,0,0:0:0:0:
64,192,8428,1,0,0:0:0:0:
448,192,8571,1,6,0:0:0:0:
192,192,8571,1,8,0:0:0:0:
320,192,8857,1,0,0:0:0:0:
64,192,8857,128,0,9142:0:0:0:0:
192,192,9142,128,8,9428:0:0:0:0:
64,192,9428,1,0,0:0:0:0:
320,192,9571,1,0,0:0:0:0:
192,192,9714,1,8,0:0:0:0:
448,192,9714,1,6,0:0:0:0:
64,192,9857,1,0,0:0:0:0:
320,192,9999,1,0,0:0:0:0:
448,192,10142,1,0,0:0:0:0:
192,192,10285,1,8,0:0:0:0:
320,192,10428,1,0,0:0:0:0:
192,192,10571,1,0,0:0:0:0:
64,192,10714,1,0,0:0:0:0:
192,192,10857,1,8,0:0:0:0:
448,192,10857,1,6,0:0:0:0:
64,192,11142,128,0,11428:0:0:0:0:
320,192,11142,1,0,0:0:0:0:
192,192,11428,128,8,11714:0:0:0:0:
64,192,11714,1,0,0:0:0:0:
320,192,11857,1,0,0:0:0:0:
448,192,11999,1,6,0:0:0:0:
192,192,11999,1,8,0:0:0:0:
64,192,12142,1,0,0:0:0:0:
320,192,12285,1,0,0:0:0:0:
448,192,12428,1,0,0:0:0:0:
192,192,12571,1,8,0:0:0:0:
320,192,12714,1,0,0:0:0:0:
192,192,12857,1,0,0:0:0:0:
64,192,12999,1,0,0:0:0:0:
448,192,13142,1,6,0:0:0:0:
192,192,13142,1,8,0:0:0:0:
320,192,13428,1,0,0:0:0:0:
64,192,13428,128,0,13714:0:0:0:0:
192,192,13714,128,8,13999:0:0:0:0:
64,192,13999,1,0,0:0:0:0:
320,192,14142,1,0,0:0:0:0:
192,192,14285,1,8,0:0:0:0:
448,192,14285,1,6,0:0:0:0:
64,192,14428,1,0,0:0:0:0:
320,192,14571,1,0,0:0:0:0:
448,192,14714,1,0,0:0:0:0:
192,192,14857,1,8,0:0:0:0:
320,192,14999,1,0,0:0:0:0:
192,192,15142,1,0,0:0:0:0:
64,192,15285,1,0,0:0:0:0:
192,192,15428,1,8,0:0:0:0:
448,192,15428,1,6,0:0:0:0:
64,192,15714,128,0,15999:0:0:0:0:
320,192,15714,1,0,0:0:0:0:
192,192,15999,128,8,16285:0:0:0:0:
64,192,16285,1,0,0:0:0:0:
320,192,16428,1,0,0:0:0:0:
448,192,16571,1,6,0:0:0:0:
192,192,16571,1,8,0:0:0:0:
64,192,16714,1,0,0:0:0:0:
320,192,16857,1,0,0:0:0:0:
448,192,16999,1,0,0:0:0:0:
192,192,17142,1,8,0:0:0:0:
320,192,17285,1,0,0:0:0:0:
192,192,17428,1,0,0:0:0:0:
64,192,17571,1,0,0:0:0:0:
448,192,17714,1,6,0:0:0:0:
192,192,17714,1,8,0:0:0:0:
320,192,17999,1,0,0:0:0:0:
64,192,17999,128,0,18285:0:0:0:0:
192,192,18285,128,8,18571:0:0:0:0:
64,192,18571,1,0,0:0:0:0:
320,192,18714,1,0,0:0:0:0:
192,192,18857,1,8,0:0:0:0:
448,192,18857,1,6,0:0:0:0:
64,192,18999,1,0,0:0:0:0:
320,192,19142,1,0,0:0:0:0:
448,192,19285,1,0,0:0:0:0:
192,192,19428,1,8,0:0:0:0:
320,192,19571,1,0,0:0:0:0:
192,192,19714,1,0,0:0:0:0:
64,192,19857,1,0,0:0:0:0:
192,192,19999,1,8,0:0:0:0:
448,192,19999,1,6,0:0:0:0:
64,192,20285,128,0,20571:0:0:0:0:
320,192,20285,1,0,0:0:0:0:
192,192,20571,128,8,20857:0:0:0:0:
64,192,20857,1,0,0:0:0:0:
320,192,20999,1,0,0:0:0:0:
448,192,21142,1,6,0:0:0:0:
192,192,21142,1,8,0:0:0:0:
64,192,21285,1,0,0:0:0:0:
320,192,21428,1,0,0:0:0:0:
448,192,21571,1,0,0:0:0:0:
192,192,21714,1,8,0:0:0:0:
320,192,21857,1,0,0:0:0:0:
192,192,21999,1,0,0:0:0:0:
64,192,22142,1,0,0:0:0:0:
448,192,22285,1,6,0:0:0:0:
192,192,22285,1,8,0:0:0:0:
64,192,22571,128,0,22857:0:0:0:0:
448,192,22571,1,0,0:0:0:0:
320,192,22714,1,0,0:0:0:0:
192,192,22857,1,8,0:0:0:0:
448,192,22857,128,0,23142:0:0:0:0:
192,192,23142,1,0,0:0:0:0:
320,192,23285,128,0,23571:0:0:0:0:
64,192,23428,1,8,0:0:0:0:
448,192,23714,1,0,0:0:0:0:
192,192,23714,128,0,23999:0:0:0:0:
320,192,23999,1,8,0:0:0:0:
64,192,24285,1,0,0:0:0:0:
192,192,24571,1,8,0:0:0:0:
448,192,24857,1,0,0:0:0:0:
320,192,24999,1,0,0:0:0:0:
64,192,25142,1,0,0:0:0:0:
192,192,25142,1,8,0:0:0:0:
448,192,25142,128,0,25428:0:0:0:0:
192,192,25428,1,0,0:0:0:0:
320,192,25571,128,0,25857:0:0:0:0:
64,192,25714,1,8,0:0:0:0:
448,192,25999,1,0,0:0:0:0:
192,192,25999,128,0,26285:0:0:0:0:
320,192,26285,1,8,0:0:0:0:
64,192,26571,1,0,0:0:0:0:
192,192,26857,1,8,0:0:0:0:
448,192,27142,1,0,0:0:0:0:
320,192,27285,1,0,0:0:0:0:
448,192,27428,128,0,27714:0:0:0:0:
192,192,27428,1,8,0:0:0:0:
64,192,27428,1,0,0:0:0:0:
192,192,27714,1,0,0:0:0:0:
320,192,27857,128,0,28142:0:0:0:0:
64,192,27999,1,8,0:0:0:0:
192,192,28285,128,0,28571:0:0:0:0:
448,192,28285,1,0,0:0:0:0:
320,192,28571,1,8,0:0:0:0:
64,192,28857,1,0,0:0:0:0:
192,192,29142,1,8,0:0:0:0:
448,192,29428,1,0,0:0:0:0:
320,192,29571,1,0,0:0:0:0:
64,192,29714,1,0,0:0:0:0:
192,192,29714,1,8,0:0:0:0:
448,192,29714,128,0,29999:0:0:0:0:
192,192,29999,1,0,0:0:0:0:
320,192,30142,128,0,30428:0:0:0:0:
64,192,30285,1,8,0:0:0:0:
448,192,30571,1,0,0:0:0:0:
192,192,30571,128,0,30857:0:0:0:0:
320,192,30857,1,8,0:0:0:0:
64,192,31142,128,0,31428:0:0:0:0:
192,192,31428,1,8,0:0:0:0:
320,192,31714,1,2,0:0:0:0:
448,192,31999,128,0,32285:0:0:0:0:
192,192,31999,1,8,0:0:0:0:
64,192,31999,1,0,0:0:0:0:
192,192,32285,1,0,0:0:0:0:
320,192,32428,128,0,32714:0:0:0:0:
64,192,32571,1,8,0:0:0:0:
192,192,32857,128,0,33142:0:0:0:0:
448,192,32857,1,0,0:0:0:0:
320,192,33142,1,8,0:0:0:0:
64,192,33428,1,0,0:0:0:0:
192,192,33714,1,8,0:0:0:0:
320,192,33999,1,0,0:0:0:0:
64,192,34285,1,0,0:0:0:0:
192,192,34285,1,8,0:0:0:0:
448,192,34285,128,0,34571:0:0:0:0:
192,192,34571,1,0,0:0:0:0:
320,192,34714,128,0,34999:0:0:0:0:
64,192,34857,1,8,0:0:0:0:
448,192,35142,1,0,0:0:0:0:
192,192,35142,128,0,35428:0:0:0:0:
320,192,35428,1,8,0:0:0:0:
448,192,35571,1,0,0:0:0:0:
64,192,35714,1,0,0:0:0:0:
320,192,35857,1,0,0:0:0:0:
192,192,35999,1,8,0:0:0:0:
448,192,36142,1,0,0:0:0:0:
320,192,36285,1,0,0:0:0:0:
448,192,36571,128,0,36857:0:0:0:0:
192,192,36571,1,8,0:0:0:0:
64,192,36571,1,0,0:0:0:0:
192,192,36857,1,0,0:0:0:0:
320,192,36999,128,0,37285:0:0:0:0:
64,192,37142,1,8,0:0:0:0:
192,192,37428,128,0,37714:0:0:0:0:
448,192,37428,1,0,0:0:0:0:
320,192,37714,1,8,0:0:0:0:
64,192,37999,1,0,0:0:0:0:
320,192,38142,1,0,0:0:0:0:
192,192,38285,1,8,0:0:0:0:
320,192,38571,1,0,0:0:0:0:
64,192,38857,1,0,0:0:0:0:
192,192,38857,1,8,0:0:0:0:
448,192,38857,128,0,39142:0:0:0:0:
192,192,39142,1,0,0:0:0:0:
320,192,39285,128,0,39571:0:0:0:0:
64,192,39428,1,8,0:0:0:0:
448,192,39714,1,0,0:0:0:0:
192,192,39714,128,0,39999:0:0:0:0:
320,192,39999,1,8,0:0:0:0:
64,192,40285,128,0,40571:0:0:0:0:
192,192,40571,1,0,0:0:0:0:
448,192,40571,128,0,40857:0:0:0:0:
320,192,40857,1,2,0:0:0:0:
448,192,41142,128,0,41428:0:0:0:0:
192,192,41142,1,8,0:0:0:0:
64,192,41142,1,0,0:0:0:0:
192,192,41428,1,0,0:0:0:0:
320,192,41571,128,0,41857:0:0:0:0:
64,192,41714,1,8,0:0:0:0:
192,192,41999,128,0,42285:0:0:0:0:
448,192,41999,1,0,0:0:0:0:
320,192,42285,1,8,0:0:0:0:
64,192,42571,1,0,0:0:0:0:
192,192,42857,1,8,0:0:0:0:
320,192,43142,1,0,0:0:0:0:
64,192,43428,1,0,0:0:0:0:
192,192,43428,1,8,0:0:0:0:
448,192,43428,128,0,43714:0:0:0:0:
192,192,43714,1,0,0:0:0:0:
320,192,43857,128,0,44142:0:0:0:0:
64,192,43999,1,8,0:0:0:0:
448,192,44285,1,0,0:0:0:0:
192,192,44285,128,0,44571:0:0:0:0:
320,192,44571,1,8,0:0:0:0:
64,192,44857,1,0,0:0:0:0:
192,192,45142,1,8,0:0:0:0:
320,192,45428,1,0,0:0:0:0:
448,192,45714,128,0,45999:0:0:0:0:
192,192,45714,1,8,0:0:0:0:
64,192,45714,1,0,0:0:0:0:
192,192,45999,1,0,0:0:0:0:
320,192,46142,128,0,46428:0:0:0:0:
64,192,46285,1,8,0:0:0:0:
192,192,46571,128,0,46857:0:0:0:0:
448,192,46571,1,0,0:0:0:0:
320,192,46857,1,8,0:0:0:0:
64,192,47142,1,0,0:0:0:0:
192,192,47428,1,8,0:0:0:0:
320,192,47714,1,0,0:0:0:0:
64,192,47999,1,0,0:0:0:0:
192,192,47999,1,8,0:0:0:0:
448,192,47999,128,0,48285:0:0:0:0:
192,192,48285,1,0,0:0:0:0:
320,192,48428,128,0,48714:0:0:0:0:
64,192,48571,1,8,0:0:0:0:
448,192,48857,1,0,0:0:0:0:
192,192,48857,128,0,49142:0:0:0:0:
320,192,49142,5,8,0:0:0:0:
64,192,49428,1,0,0:0:0:0:
320,192,49571,1,0,0:0:0:0:
192,192,49714,1,0,0:0:0:0:
448,192,49857,1,0,0:0:0:0:
320,192,49999,1,0,0:0:0:0:
192,192,49999,1,4,0:0:0:0:
192,192,50285,128,8,50571:0:0:0:0:
64,192,50571,1,0,0:0:0:0:
320,192,50714,1,0,0:0:0:0:
448,192,50857,1,6,0:0:0:0:
192,192,50857,1,8,0:0:0:0:
64,192,50999,1,0,0:0:0:0:
320,192,51142,1,0,0:0:0:0:
192,192,51428,1,8,0:0:0:0:
320,192,51571,1,0,0:0:0:0:
192,192,51714,1,0,0:0:0:0:
64,192,51857,1,0,0:0:0:0:
448,192,51999,1,6,0:0:0:0:
192,192,51999,1,8,0:0:0:0:
64,192,52285,128,0,52571:0:0:0:0:
320,192,52285,1,0,0:0:0:0:
192,192,52571,128,8,52857:0:0:0:0:
64,192,52857,1,0,0:0:0:0:
320,192,52999,1,0,0:0:0:0:
448,192,53142,1,6,0:0:0:0:
192,192,53142,1,8,0:0:0:0:
64,192,53285,1,0,0:0:0:0:
320,192,53428,1,0,0:0:0:0:
64,192,53571,1,0,0:0:0:0:
192,192,53714,1,8,0:0:0:0:
320,192,53857,1,0,0:0:0:0:
192,192,53999,1,0,0:0:0:0:
64,192,54142,1,0,0:0:0:0:
448,192,54285,1,6,0:0:0:0:
192,192,54285,1,8,0:0:0:0:
320,192,54428,1,0,0:0:0:0:
64,192,54428,1,0,0:0:0:0:
192,192,54571,1,0,0:0:0:0:
448,192,54571,1,6,0:0:0:0:
