osu file format v14

[General]
AudioFilename: Get Schwifty Music Video - Rick and Morty - Adult Swim.mp3
AudioLeadIn: 0
PreviewTime: 8002
Countdown: 0
SampleSet: Soft
StackLeniency: 0.7
Mode: 0
LetterboxInBreaks: 0
WidescreenStoryboard: 0

[Editor]
Bookmarks: 40866
DistanceSpacing: 1.8
BeatDivisor: 4
GridSize: 4
TimelineZoom: 1.1

[Metadata]
Title:Get Schwifty
TitleUnicode:Get Schwifty
Artist:Rick and Morty
ArtistUnicode:Rick and Morty
Creator:CaffeAmericano
Version:Much Insane
Source:
Tags:
BeatmapID:835402
BeatmapSetID:376589

[Difficulty]
HPDrainRate:6.5
CircleSize:4
OverallDifficulty:7.5
ApproachRate:9
SliderMultiplier:2.4
SliderTickRate:1

[Events]
//Background and Video events
0,0,"Schwifty.jpg",0,0
//Break Periods
//Storyboard Layer 0 (Background)
//Storyboard Layer 1 (Fail)
//Storyboard Layer 2 (Pass)
//Storyboard Layer 3 (Foreground)
//Storyboard Sound Samples

[TimingPoints]
4010,571.412245364418,4,2,0,100,1,0
6295,-100,4,2,0,100,0,1
24580,-100,4,2,0,100,0,0
52008,-100,4,2,0,100,0,1
56579,-100,4,2,0,100,0,0

[HitObjects]
144,288,5438,6,0,P|184:276|220:296,1,60
253,330,5724,1,2,0:0:0:0:
315,273,5867,1,2,0:0:0:0:
331,179,6009,1,2,0:0:0:0:
268,90,6152,1,2,0:0:0:0:
161,106,6295,6,0,P|192:168|240:196,1,120,6|0,0:0|0:0,0:0:0:0:
222,31,6867,1,8,0:0:0:0:
152,196,7009,2,0,L|164:273,1,60
279,285,7295,1,0,0:0:0:0:
223,138,7438,2,0,P|170:107|81:137,1,120,2|0,0:0|0:0,0:0:0:0:
226,220,7867,2,0,P|257:212|287:190,1,60,0|8,0:0|0:0,0:0:0:0:
336,64,8152,2,0,P|368:48|408:48,2,60
400,188,8581,6,0,L|480:188,1,60,2|0,0:0|0:0,0:0:0:0:
376,301,8867,2,0,P|322:278|293:186,1,120,0|8,0:0|0:0,0:0:0:0:
336,64,9295,2,0,P|309:86|260:104,1,60
120,72,9581,1,0,0:0:0:0:
44,216,9724,2,0,P|100:252|172:244,1,120,2|0,0:0|0:0,0:0:0:0:
24,112,10152,1,0,0:0:0:0:
96,288,10295,2,0,L|168:308,1,60,8|0,0:0|0:0,0:0:0:0:
188,136,10581,2,0,L|130:152,1,60
252,228,10866,6,0,P|294:172|293:101,2,120,2|0|8,0:0|0:0|0:0,0:0:0:0:
130,152,11581,2,0,L|188:136,1,60
336,192,11866,1,0,0:0:0:0:
160,291,12009,2,0,P|210:332|284:335,1,120,2|0,0:0|0:0,0:0:0:0:
208,208,12438,1,0,0:0:0:0:
130,152,12581,1,8,0:0:0:0:
80,236,12724,1,0,0:0:0:0:
220,108,12866,2,0,P|197:78|155:50,1,60
28,148,13152,5,2,0:0:0:0:
351,248,13438,2,0,P|347:216|323:176,1,60
208,208,13724,1,8,0:0:0:0:
320,340,13866,2,0,P|395:336|438:291,1,120
208,208,14295,2,0,P|133:212|90:257,1,120,2|0,0:0|0:0,0:0:0:0:
292,244,14723,2,0,P|299:208|289:165,1,60,0|8,0:0|0:0,0:0:0:0:
120,104,15009,1,0,0:0:0:0:
174,292,15152,2,0,P|204:298|254:289,1,60
388,196,15438,6,0,P|412:132|388:68,2,120,6|0|8,0:0|0:0|0:0,0:0:0:0:
261,133,16152,2,0,L|349:133,1,60
500,192,16438,1,0,0:0:0:0:
383,305,16581,2,0,P|326:291|291:202,1,120,2|0,0:0|0:0,0:0:0:0:
416,140,17009,2,0,P|400:179|384:207,1,60,0|8,0:0|0:0,0:0:0:0:
261,133,17295,1,0,0:0:0:0:
385,58,17438,2,0,P|422:52|455:67,1,60
291,243,17723,6,0,P|230:244|159:180,2,120,2|0|8,0:0|0:0|0:0,0:0:0:0:
158,132,18438,2,0,P|122:152|100:196,1,60
124,328,18723,1,0,0:0:0:0:
292,244,18866,2,0,L|280:176,1,60,2|0,0:0|0:0,0:0:0:0:
224,344,19152,1,0,0:0:0:0:
316,212,19295,2,0,L|304:144,1,60,0|8,0:0|0:0,0:0:0:0:
224,32,19581,1,0,0:0:0:0:
156,132,19723,2,0,P|188:128|232:108,1,60
64,72,20009,6,0,P|45:121|80:207,2,120,6|0|8,0:0|0:0|0:0,0:0:0:0:
213,118,20723,2,0,P|185:128|156:132,1,60
224,32,21009,1,0,0:0:0:0:
311,143,21152,2,0,P|278:198|222:222,1,120,2|0,0:0|0:0,0:0:0:0:
89,313,21580,2,0,P|117:341|169:345,1,60,0|8,0:0|0:0,0:0:0:0:
84,216,21866,1,0,0:0:0:0:
196,313,22009,2,0,L|264:313,1,60
364,224,22295,6,0,L|297:235,1,60,2|0,0:0|0:0,0:0:0:0:
420,296,22580,2,0,P|453:238|429:158,1,120,0|8,0:0|0:0,0:0:0:0:
319,86,23009,2,0,P|307:126|327:166,1,60
364,224,23295,1,0,0:0:0:0:
244,340,23438,2,0,L|160:340,1,60,2|0,0:0|0:0,0:0:0:0:
272,248,23723,1,0,0:0:0:0:
204,364,23866,2,0,L|120:364,1,60,0|8,0:0|0:0,0:0:0:0:
84,216,24152,1,0,0:0:0:0:
232,136,24295,2,0,P|213:109|172:104,1,60
272,248,24580,6,0,P|324:211|348:144,2,120,6|0|8,0:0|0:0|0:0,0:0:0:0:
172,136,25295,2,0,L|268:136,1,60
232,136,25723,1,2,0:0:0:0:
380,304,26295,2,0,B|424:304|424:304|460:276,2,60,8|0|0,0:0|0:0|0:0,0:0:0:0:
272,248,26866,6,0,P|213:273|184:332,2,120,2|0|8,0:0|0:0|0:0,0:0:0:0:
277,345,27580,1,0,0:0:0:0:
184,248,27723,2,0,P|124:224|68:248,1,120,0|2,0:0|0:0,0:0:0:0:
440,44,28580,1,8,0:0:0:0:
360,116,28866,2,0,L|296:116,1,60
184,120,29152,6,0,P|206:185|262:226,2,120,2|0|8,0:0|0:0|0:0,0:0:0:0:
332,216,29866,2,0,P|324:256|300:284,1,60
48,328,30294,1,2,0:0:0:0:
56,48,30866,1,8,0:0:0:0:
152,104,31152,2,0,L|138:182,1,60
4,192,31437,6,0,L|14:132,1,60,2|0,0:0|0:0,0:0:0:0:
140,16,31723,1,0,0:0:0:0:
56,48,31866,1,0,0:0:0:0:
141,163,32009,2,0,P|208:156|264:100,1,120,8|0,0:0|0:0,0:0:0:0:
248,124,32580,1,2,0:0:0:0:
440,64,33152,1,8,0:0:0:0:
368,148,33437,1,0,0:0:0:0:
464,156,33723,6,0,L|512:156,2,30,2|0|0,0:0|0:0|0:0,0:0:0:0:
340,52,34009,2,0,P|291:83|269:148,1,120,0|8,0:0|0:0,0:0:0:0:
355,236,34437,2,0,P|331:256|289:264,2,60
208,220,34866,1,2,0:0:0:0:
208,220,35009,2,0,L|116:220,1,60
36,144,35294,1,0,0:0:0:0:
68,300,35437,2,0,P|93:320|140:332,1,60,8|0,0:0|0:0,0:0:0:0:
148,220,35723,2,0,P|123:200|76:188,1,60
204,296,36009,5,2,0:0:0:0:
355,236,36294,2,0,L|355:172,1,60
288,88,36580,2,0,P|256:72|236:40,2,60,8|0|2,0:0|0:0|0:0,0:0:0:0:
406,75,37009,2,0,P|449:115|467:190,1,120
448,268,37437,2,0,P|468:288|500:296,2,60,2|0|8,0:0|0:0|0:0,0:0:0:0:
355,176,37866,2,0,P|322:228|320:298,1,120
467,172,38294,6,0,P|448:115|281:89,1,240,2|8,0:0|0:0,0:0:0:0:
176,236,39437,1,2,0:0:0:0:
176,236,39580,2,0,L|260:236,1,60
356,176,39866,1,0,0:0:0:0:
220,336,40009,2,0,B|140:336|140:336|92:304,1,120,8|0,0:0|0:0,0:0:0:0:
242,153,40580,2,0,B|322:153|322:153|370:185,2,120,2|0|8,0:0|0:0|0:0,0:0:0:0:
384,268,41294,1,0,0:0:0:0:
268,232,41437,2,0,L|184:232,1,60
156,124,41723,5,2,0:0:0:0:
156,124,41866,2,0,P|175:96|207:67,1,60
340,156,42151,1,0,0:0:0:0:
236,236,42294,2,0,L|152:236,1,60,8|0,0:0|0:0,0:0:0:0:
8,184,42580,1,0,0:0:0:0:
242,93,42866,5,2,0:0:0:0:
194,314,43151,2,0,P|162:288|157:239,1,60
280,284,43437,1,8,0:0:0:0:
127,372,43580,2,0,P|86:320|69:257,1,120
156,124,44008,1,2,0:0:0:0:
242,93,44151,2,0,P|246:133|242:165,1,60
172,32,44437,1,0,0:0:0:0:
180,212,44580,2,0,P|108:202|69:152,1,120,8|0,0:0|0:0,0:0:0:0:
324,36,45151,5,2,0:0:0:0:
404,208,45437,2,0,P|372:224|332:224,1,60
242,93,45723,1,8,0:0:0:0:
424,120,45866,2,0,P|460:138|480:252,1,120
328,136,46294,1,2,0:0:0:0:
404,208,46437,2,0,L|336:240,1,60
184,192,46723,1,0,0:0:0:0:
284,296,46865,2,0,P|328:320|414:303,1,120,8|0,0:0|0:0,0:0:0:0:
272,208,47437,6,0,P|225:231|200:323,2,120,2|0|8,0:0|0:0|0:0,0:0:0:0:
482,248,48151,2,0,P|446:286|377:290,1,120
404,208,48580,1,2,0:0:0:0:
356,336,48723,2,0,L|276:336,1,60
164,232,49008,1,0,0:0:0:0:
284,132,49151,2,0,P|288:200|276:276,1,120,8|0,0:0|0:0,0:0:0:0:
231,78,49723,6,0,P|291:57|351:97,2,120,2|0|8,0:0|0:0|0:0,0:0:0:0:
113,209,50437,2,0,P|166:232|220:211,1,120
340,116,50865,1,2,0:0:0:0:
231,78,51008,2,0,B|200:108|200:108|192:136,2,60
221,210,51437,1,8,0:0:0:0:
340,116,51580,1,2,0:0:0:0:
304,256,51722,1,2,0:0:0:0:
420,160,51865,1,2,0:0:0:0:
268,148,52008,6,0,P|288:176|320:192,1,60,6|0,0:0|0:0,0:0:0:0:
384,301,52294,2,0,P|358:330|308:351,1,60
221,210,52580,1,8,0:0:0:0:
340,116,52722,2,0,P|346:154|336:190,1,60
272,64,53008,1,0,0:0:0:0:
420,160,53151,2,0,P|407:219|318:249,1,120,2|0,0:0|0:0,0:0:0:0:
221,210,53580,2,0,P|208:248|216:296,1,60,0|8,0:0|0:0,0:0:0:0:
320,340,53865,1,0,0:0:0:0:
160,340,54008,2,0,L|88:340,1,60
159,150,54294,6,0,P|222:125|291:161,2,120,2|0|8,0:0|0:0|0:0,0:0:0:0:
160,340,55008,1,0,0:0:0:0:
261,253,55151,2,0,P|235:220|197:197,1,60
348,232,55437,1,2,0:0:0:0:
360,136,55580,1,2,0:0:0:0:
296,60,55722,2,0,P|264:48|216:44,1,60,2|2,0:0|0:0,0:0:0:0:
256,144,56008,1,8,0:0:0:0:
420,184,56151,1,8,0:0:0:0:
384,32,56294,1,8,0:0:0:0:
336,164,56437,1,8,0:0:0:0:
488,88,56579,5,6,0:0:0:0:
