osu file format v14

[General]
AudioFilename: Get Schwifty Music Video - Rick and Morty - Adult Swim.mp3
AudioLeadIn: 0
PreviewTime: 8002
Countdown: 0
SampleSet: Soft
StackLeniency: 0.7
Mode: 0
LetterboxInBreaks: 0
WidescreenStoryboard: 0

[Editor]
Bookmarks: 40866
DistanceSpacing: 1.6
BeatDivisor: 4
GridSize: 4
TimelineZoom: 1.1

[Metadata]
Title:Get Schwifty
TitleUnicode:Get Schwifty
Artist:Rick and Morty
ArtistUnicode:Rick and Morty
Creator:CaffeAmericano
Version:Big Boy Hard
Source:
Tags:
BeatmapID:835608
BeatmapSetID:376589

[Difficulty]
HPDrainRate:6
CircleSize:4
OverallDifficulty:6.5
ApproachRate:8
SliderMultiplier:2.2
SliderTickRate:1

[Events]
//Background and Video events
0,0,"Schwifty.jpg",0,0
//Break Periods
//Storyboard Layer 0 (Background)
//Storyboard Layer 1 (Fail)
//Storyboard Layer 2 (Pass)
//Storyboard Layer 3 (Foreground)
//Storyboard Sound Samples

[TimingPoints]
4010,571.412245364418,4,2,0,100,1,0
6295,-100,4,2,0,100,0,1
24580,-100,4,2,0,100,0,0
52008,-100,4,2,0,100,0,1
56579,-100,4,2,0,100,0,0

[HitObjects]
371,247,4010,6,0,P|389:270|411:284,1,55,2|0,0:0|0:0,0:0:0:0:
456,340,4295,2,0,P|391:332|336:344,1,110
268,356,4724,2,0,P|258:323|261:274,1,55
299,244,5009,1,0,0:0:0:0:
299,244,5152,2,0,P|248:228|172:240,1,110,2|0,0:0|0:0,0:0:0:0:
132,276,5581,2,0,P|151:225|141:161,1,110
96,104,6009,2,0,P|115:77|147:60,1,55
242,46,6295,6,0,P|244:98|211:152,1,110,4|0,0:0|0:0,0:0:0:0:
68,221,6867,1,8,0:0:0:0:
148,144,7009,2,0,P|137:113|107:87,2,55
132,276,7438,2,0,P|143:307|173:333,2,55,2|0|0,0:0|0:0|0:0,0:0:0:0:
215,202,7867,1,0,0:0:0:0:
292,188,8009,2,0,L|352:188,1,55,8|0,0:0|0:0,0:0:0:0:
384,252,8295,1,0,0:0:0:0:
296,75,8581,6,0,P|328:76|356:68,1,55
412,12,8867,2,0,P|436:64|448:140,1,110,0|8,0:0|0:0,0:0:0:0:
472,184,9295,2,0,P|420:164|352:196,1,110
316,232,9724,2,0,P|368:252|436:220,1,110,2|0,0:0|0:0,0:0:0:0:
369,179,10152,2,0,P|336:164|296:152,1,55,0|8,0:0|0:0,0:0:0:0:
240,168,10438,1,0,0:0:0:0:
220,240,10581,1,0,0:0:0:0:
92,320,10866,6,0,P|96:288|88:252,1,55,2|0,0:0|0:0,0:0:0:0:
28,240,11152,2,0,P|88:240|156:208,1,110,0|8,0:0|0:0,0:0:0:0:
172,160,11581,2,0,P|208:148|236:152,1,55
288,200,11866,1,0,0:0:0:0:
288,200,12009,2,0,P|304:152|276:88,1,110,2|0,0:0|0:0,0:0:0:0:
204,76,12438,2,0,P|168:84|132:84,1,55,0|8,0:0|0:0,0:0:0:0:
68,68,12724,1,0,0:0:0:0:
128,12,12866,1,2,0:0:0:0:
48,172,13152,6,0,P|80:184|120:184,1,55,2|0,0:0|0:0,0:0:0:0:
160,144,13438,2,0,P|148:204|164:268,1,110,0|8,0:0|0:0,0:0:0:0:
228,292,13866,2,0,L|296:292,1,55
356,332,14152,1,0,0:0:0:0:
364,248,14295,2,0,P|347:223|322:208,1,55,2|0,0:0|0:0,0:0:0:0:
244,212,14581,1,0,0:0:0:0:
280,136,14723,2,0,P|296:114|340:94,1,55,0|8,0:0|0:0,0:0:0:0:
400,76,15009,1,0,0:0:0:0:
384,156,15152,1,2,0:0:0:0:
200,140,15438,6,0,P|172:84|192:36,2,110,6|0|8,0:0|0:0|0:0,0:0:0:0:
280,136,16152,2,0,P|304:160|320:200,1,55
244,212,16438,1,0,0:0:0:0:
308,260,16581,2,0,P|384:232|408:172,1,110,2|0,0:0|0:0,0:0:0:0:
376,132,17009,1,0,0:0:0:0:
388,56,17152,2,0,P|409:36|438:22,1,55,8|0,0:0|0:0,0:0:0:0:
458,102,17438,1,2,0:0:0:0:
280,136,17723,6,0,P|253:129|228:117,1,55,2|0,0:0|0:0,0:0:0:0:
232,36,18009,2,0,P|176:52|151:120,1,110,0|8,0:0|0:0,0:0:0:0:
168,176,18438,2,0,P|131:187|92:188,1,55
56,124,18723,1,0,0:0:0:0:
28,200,18866,2,0,P|52:248|104:276,1,110,2|0,0:0|0:0,0:0:0:0:
180,252,19295,1,0,0:0:0:0:
240,300,19438,2,0,P|250:330|244:364,1,55,8|0,0:0|0:0,0:0:0:0:
164,336,19723,1,2,0:0:0:0:
344,244,20009,6,0,P|348:212|344:188,1,55,6|0,0:0|0:0,0:0:0:0:
279,135,20295,2,0,P|333:148|387:138,1,110,0|8,0:0|0:0,0:0:0:0:
452,84,20723,2,0,P|469:118|467:157,1,55
424,212,21009,1,0,0:0:0:0:
344,244,21152,2,0,P|356:272|384:304,1,55,2|0,0:0|0:0,0:0:0:0:
432,348,21438,1,0,0:0:0:0:
432,348,21580,2,0,P|376:336|304:352,1,110
244,368,22009,1,2,0:0:0:0:
84,268,22295,6,0,P|108:252|136:244,1,55,2|0,0:0|0:0,0:0:0:0:
192,284,22580,2,0,P|172:224|200:168,1,110,0|8,0:0|0:0,0:0:0:0:
260,140,23009,2,0,P|240:112|212:92,1,55
144,80,23295,1,0,0:0:0:0:
196,16,23438,2,0,P|226:10|272:28,1,55,2|0,0:0|0:0,0:0:0:0:
304,76,23723,1,0,0:0:0:0:
304,76,23866,2,0,P|356:88|424:64,1,110
472,20,24295,1,2,0:0:0:0:
392,164,24580,6,0,P|376:213|411:271,2,110,6|0|8,0:0|0:0|0:0,0:0:0:0:
472,112,25295,2,0,P|492:132|504:172,1,55
472,308,25723,2,0,P|420:292|368:308,1,110,2|0,0:0|0:0,0:0:0:0:
224,364,26295,2,0,P|208:304|232:240,1,110,8|0,0:0|0:0,0:0:0:0:
348,175,26866,6,0,P|296:192|244:177,2,110,2|0|8,0:0|0:0|0:0,0:0:0:0:
224,104,27723,2,0,P|182:132|172:203,1,110,0|2,0:0|0:0,0:0:0:0:
168,187,28580,1,8,0:0:0:0:
256,300,28866,2,0,P|226:316|188:316,1,55
152,268,29152,6,0,B|76:268|76:268|44:248,2,110,2|0|8,0:0|0:0|0:0,0:0:0:0:
220,236,29866,2,0,P|253:227|276:229,1,55
360,344,30294,2,0,P|392:296|372:228,1,110,2|0,0:0|0:0,0:0:0:0:
280,136,30866,1,8,0:0:0:0:
432,120,31152,2,0,L|485:133,1,55
472,56,31437,2,0,L|418:42,1,55,2|0,0:0|0:0,0:0:0:0:
340,36,31723,2,0,P|284:64|252:108,1,110,0|8,0:0|0:0,0:0:0:0:
256,180,32152,2,0,P|196:196|136:172,1,110
140,108,32580,1,2,0:0:0:0:
88,320,33152,1,8,0:0:0:0:
292,292,33723,5,2,0:0:0:0:
396,192,34009,2,0,P|432:240|428:296,1,110,0|8,0:0|0:0,0:0:0:0:
404,356,34437,2,0,P|372:352|340:332,1,55
292,292,34723,1,0,0:0:0:0:
292,292,34866,2,0,P|240:272|168:300,1,110,2|0,0:0|0:0,0:0:0:0:
156,348,35294,1,0,0:0:0:0:
156,348,35437,2,0,P|108:308|92:252,1,110,8|0,0:0|0:0,0:0:0:0:
224,204,36009,5,2,0:0:0:0:
84,172,36294,2,0,P|94:143|96:108,1,55
44,68,36580,2,0,P|24:48|12:16,2,55,8|0|2,0:0|0:0|0:0,0:0:0:0:
116,52,37009,2,0,P|172:40|232:56,1,110
268,108,37437,2,0,P|280:136|316:164,2,55,2|0|8,0:0|0:0|0:0,0:0:0:0:
340,96,37866,2,0,P|400:104|456:84,1,110
492,32,38294,6,0,P|460:152|492:260,1,220,2|8,0:0|0:0,0:0:0:0:
482,242,39437,1,2,0:0:0:0:
412,268,39580,2,0,P|384:272|348:296,1,55
324,348,39866,1,0,0:0:0:0:
256,368,40009,2,0,P|200:320|196:280,1,110,8|0,0:0|0:0,0:0:0:0:
312,204,40580,6,0,P|292:160|220:144,2,110,2|0|8,0:0|0:0|0:0,0:0:0:0:
240,212,41294,1,0,0:0:0:0:
176,180,41437,2,0,P|164:128|212:68,1,110,0|2,0:0|0:0,0:0:0:0:
260,68,41866,2,0,L|336:68,1,55
380,36,42151,1,0,0:0:0:0:
380,108,42294,2,0,P|392:156|460:192,1,110,8|0,0:0|0:0,0:0:0:0:
376,320,42866,6,0,P|320:332|260:316,1,110,2|0,0:0|0:0,0:0:0:0:
204,192,43437,2,0,P|260:180|320:196,1,110,8|0,0:0|0:0,0:0:0:0:
204,284,44008,1,2,0:0:0:0:
116,316,44151,2,0,P|124:344|152:368,2,55
120,220,44580,2,0,P|84:176|24:160,1,110,8|0,0:0|0:0,0:0:0:0:
138,63,45151,6,0,P|194:51|254:67,1,110,2|0,0:0|0:0,0:0:0:0:
310,191,45722,2,0,P|254:203|194:187,1,110,8|0,0:0|0:0,0:0:0:0:
310,99,46293,1,2,0:0:0:0:
384,40,46437,2,0,P|404:20|448:8,2,55
456,96,46865,2,0,P|451:153|416:204,1,110,8|0,0:0|0:0,0:0:0:0:
376,332,47437,6,0,B|450:332|450:332|488:304,1,110,2|0,0:0|0:0,0:0:0:0:
352,248,48008,2,0,B|277:247|277:247|240:276,1,110,8|0,0:0|0:0,0:0:0:0:
140,364,48580,1,2,0:0:0:0:
232,348,48723,2,0,P|264:360|300:352,2,55
168,276,49151,2,0,P|132:232|56:212,1,110,8|0,0:0|0:0,0:0:0:0:
204,132,49723,6,0,P|254:111|268:56,1,110,2|0,0:0|0:0,0:0:0:0:
136,112,50294,2,0,P|144:172|197:202,1,110,8|0,0:0|0:0,0:0:0:0:
324,168,50865,1,2,0:0:0:0:
316,244,51008,2,0,P|338:265|380:268,2,55
256,196,51437,1,0,0:0:0:0:
196,244,51580,1,0,0:0:0:0:
244,304,51722,1,0,0:0:0:0:
192,364,51865,1,0,0:0:0:0:
120,340,52008,6,0,P|68:300|64:244,1,110,6|0,0:0|0:0,0:0:0:0:
180,144,52580,1,8,0:0:0:0:
72,156,52723,2,0,P|52:128|16:108,2,55
132,220,53151,2,0,P|152:248|188:268,2,55,2|0|8,0:0|0:0|0:0,0:0:0:0:
120,96,53580,2,0,P|167:68|236:88,1,110
260,148,54008,1,0,0:0:0:0:
408,76,54294,6,0,P|408:109|396:144,1,55,2|0,0:0|0:0,0:0:0:0:
332,176,54580,2,0,P|375:210|448:244,1,110,0|8,0:0|0:0,0:0:0:0:
504,248,55008,2,0,P|480:312|416:356,1,110
368,360,55437,2,0,L|308:344,3,55,2|0|0|0,0:0|0:0|0:0|0:0,0:0:0:0:
256,288,56008,1,8,0:0:0:0:
188,332,56151,1,0,0:0:0:0:
144,264,56294,2,0,P|104:260|72:272,1,55
40,332,56579,5,6,0:0:0:0:
