osu file format v14

[General]
AudioFilename: audio.mp3
AudioLeadIn: 0
PreviewTime: 34870
Countdown: 0
SampleSet: Normal
StackLeniency: 0.7
Mode: 1
LetterboxInBreaks: 0
WidescreenStoryboard: 1

[Editor]
DistanceSpacing: 1
BeatDivisor: 4
GridSize: 32
TimelineZoom: 1.4

[Metadata]
Title:Never Gonna Give You Up
TitleUnicode:Never Gonna Give You Up
Artist:Rick Astley
ArtistUnicode:Rick Astley
Creator:Niko-nyan
Version:Muzukashii
Source:
Tags:frans_niko rickroll english pop dance-pop soul whenever you need somebody advertisement insuraaance insurance
BeatmapID:3878053
BeatmapSetID:1883608

[Difficulty]
HPDrainRate:7
CircleSize:3
OverallDifficulty:4
ApproachRate:8
SliderMultiplier:1.4
SliderTickRate:1

[Events]
//Background and Video events
0,0,"InsurAAAnce-Rick-Astley-Never-Gonna-Give-You-Up-1024x576.jpg",0,120
//Break Periods
//Storyboard Layer 0 (Background)
//Storyboard Layer 1 (Fail)
//Storyboard Layer 2 (Pass)
//Storyboard Layer 3 (Foreground)
//Storyboard Layer 4 (Overlay)
//Storyboard Sound Samples

[TimingPoints]
205,529.371283372448,4,1,0,50,1,8
205,-100,4,1,0,50,0,0
1528,529.371283372448,4,1,0,60,1,0
1528,-100,4,1,0,60,0,0
9990,529.371283372448,4,1,0,50,1,0
35399,-100,4,1,0,60,0,1
52339,-100,4,1,0,60,0,0
61339,-100,4,1,0,50,0,0
62133,-100,4,1,0,40,0,0
62927,-100,4,1,0,30,0,0
63985,-100,4,1,0,20,0,0
64515,-100,4,1,0,10,0,0

[HitObjects]
272,198,205,5,8,0:0:0:0:
272,198,602,1,8,0:0:0:0:
288,197,1263,1,0,0:0:0:0:
285,197,1528,1,12,0:0:0:0:
274,200,2057,1,0,0:0:0:0:
276,193,2322,1,8,0:0:0:0:
276,193,2586,1,8,0:0:0:0:
276,193,3116,1,8,0:0:0:0:
276,193,3380,1,0,0:0:0:0:
276,193,3645,1,8,0:0:0:0:
276,193,4174,1,0,0:0:0:0:
276,193,4439,1,8,0:0:0:0:
276,193,4704,1,8,0:0:0:0:
276,193,5233,1,8,0:0:0:0:
276,193,5365,1,8,0:0:0:0:
276,193,5498,1,8,0:0:0:0:
276,193,5762,1,0,0:0:0:0:
276,193,6292,1,0,0:0:0:0:
276,193,6557,1,8,0:0:0:0:
276,193,6821,1,8,0:0:0:0:
276,193,7351,1,8,0:0:0:0:
276,193,7880,1,0,0:0:0:0:
276,193,8145,1,0,0:0:0:0:
276,193,8409,1,8,0:0:0:0:
276,193,8939,1,8,0:0:0:0:
285,192,9203,1,0,0:0:0:0:
276,193,9468,1,8,0:0:0:0:
276,193,9600,1,8,0:0:0:0:
276,193,9733,1,8,0:0:0:0:
276,193,9990,1,0,0:0:0:0:
276,193,10519,1,8,0:0:0:0:
276,193,10784,1,0,0:0:0:0:
276,193,11048,1,8,0:0:0:0:
276,193,11313,1,0,0:0:0:0:
276,193,11445,1,0,0:0:0:0:
276,193,11578,1,0,0:0:0:0:
276,193,11842,1,8,0:0:0:0:
276,193,12107,1,0,0:0:0:0:
276,193,12636,1,8,0:0:0:0:
276,193,12901,1,0,0:0:0:0:
276,193,13166,1,0,0:0:0:0:
276,193,13430,1,0,0:0:0:0:
276,193,13695,1,8,0:0:0:0:
276,193,14224,1,8,0:0:0:0:
276,193,14754,1,8,0:0:0:0:
276,193,15019,1,8,0:0:0:0:
276,193,15283,1,0,0:0:0:0:
276,193,15813,1,8,0:0:0:0:
276,193,16077,1,0,0:0:0:0:
276,193,16342,1,8,0:0:0:0:
276,193,16871,1,8,0:0:0:0:
276,193,17136,1,0,0:0:0:0:
276,193,17401,1,8,0:0:0:0:
276,193,17533,1,8,0:0:0:0:
276,193,17665,1,8,0:0:0:0:
276,193,17930,1,8,0:0:0:0:
276,193,18195,1,8,0:0:0:0:
276,193,18459,1,0,0:0:0:0:
276,193,18989,1,0,0:0:0:0:
276,193,19253,1,8,0:0:0:0:
276,193,19518,1,0,0:0:0:0:
276,193,19783,1,0,0:0:0:0:
276,193,20048,1,8,0:0:0:0:
276,193,20577,1,8,0:0:0:0:
276,193,20842,1,0,0:0:0:0:
276,193,21106,1,0,0:0:0:0:
276,193,21371,1,8,0:0:0:0:
276,193,21636,1,0,0:0:0:0:
276,193,22165,1,8,0:0:0:0:
276,193,22694,1,12,0:0:0:0:
285,195,23224,1,8,0:0:0:0:
285,195,23488,1,0,0:0:0:0:
285,195,23753,1,8,0:0:0:0:
285,195,24018,1,8,0:0:0:0:
285,195,24283,1,0,0:0:0:0:
261,182,24812,1,8,0:0:0:0:
261,182,25077,1,0,0:0:0:0:
261,182,25209,1,0,0:0:0:0:
261,182,25341,1,0,0:0:0:0:
268,187,25606,1,8,0:0:0:0:
268,187,25871,1,8,0:0:0:0:
268,187,26400,1,8,0:0:0:0:
268,187,26665,1,0,0:0:0:0:
268,187,26929,1,8,0:0:0:0:
268,187,27459,1,8,0:0:0:0:
268,187,27988,1,0,0:0:0:0:
268,187,28253,1,8,0:0:0:0:
268,187,28517,1,8,0:0:0:0:
268,187,28782,1,0,0:0:0:0:
268,187,29047,1,8,0:0:0:0:
268,187,29312,1,0,0:0:0:0:
268,187,29444,1,0,0:0:0:0:
268,187,29576,1,0,0:0:0:0:
268,187,29841,1,0,0:0:0:0:
268,187,30106,1,8,0:0:0:0:
268,187,30635,1,8,0:0:0:0:
268,187,30900,1,8,0:0:0:0:
268,187,31164,1,0,0:0:0:0:
268,187,31694,1,8,0:0:0:0:
268,187,31958,1,0,0:0:0:0:
268,187,32223,1,8,0:0:0:0:
268,187,32488,1,0,0:0:0:0:
268,187,32752,1,8,0:0:0:0:
276,197,33282,1,8,0:0:0:0:
276,197,33811,1,0,0:0:0:0:
276,197,34076,1,0,0:0:0:0:
262,178,34341,5,8,0:0:0:0:
262,178,34605,1,8,0:0:0:0:
270,182,34870,5,0,0:0:0:0:
262,178,35002,1,0,0:0:0:0:
262,178,35135,1,0,0:0:0:0:
270,182,35399,1,12,0:0:0:0:
256,183,35796,1,4,0:0:0:0:
256,183,36193,1,12,0:0:0:0:
256,183,36723,1,8,0:0:0:0:
256,183,36987,1,0,0:0:0:0:
256,183,37120,1,0,0:0:0:0:
272,187,37252,1,0,0:0:0:0:
272,187,37517,1,12,0:0:0:0:
272,187,37914,1,4,0:0:0:0:
272,187,38311,1,12,0:0:0:0:
272,187,38840,1,8,0:0:0:0:
272,187,39105,1,8,0:0:0:0:
272,187,39237,1,8,0:0:0:0:
272,187,39370,1,8,0:0:0:0:
272,187,39634,1,0,0:0:0:0:
272,187,40164,1,8,0:0:0:0:
272,187,40428,1,8,0:0:0:0:
272,187,40693,1,0,0:0:0:0:
272,187,41222,1,8,0:0:0:0:
272,187,41487,1,0,0:0:0:0:
272,187,41752,1,8,0:0:0:0:
272,187,41884,1,8,0:0:0:0:
272,187,42016,1,8,0:0:0:0:
272,187,42281,1,0,0:0:0:0:
272,187,42811,1,8,0:0:0:0:
272,187,43075,1,0,0:0:0:0:
272,187,43340,1,0,0:0:0:0:
272,187,43472,1,0,0:0:0:0:
272,187,43605,1,0,0:0:0:0:
272,187,43869,1,12,0:0:0:0:
272,187,44266,1,4,0:0:0:0:
272,187,44663,1,12,0:0:0:0:
272,187,45193,1,0,0:0:0:0:
272,187,45457,1,8,0:0:0:0:
272,201,45590,1,8,0:0:0:0:
272,187,45722,1,8,0:0:0:0:
272,187,45987,1,12,0:0:0:0:
269,193,46516,1,8,0:0:0:0:
269,193,46781,1,8,0:0:0:0:
269,194,47045,1,0,0:0:0:0:
269,194,47310,1,0,0:0:0:0:
269,193,47575,1,8,0:0:0:0:
269,193,47840,1,8,0:0:0:0:
269,194,47972,1,8,0:0:0:0:
269,194,48104,1,8,0:0:0:0:
269,193,48634,1,8,0:0:0:0:
269,194,48898,1,0,0:0:0:0:
269,194,49031,1,0,0:0:0:0:
269,193,49163,1,0,0:0:0:0:
283,194,49428,1,0,0:0:0:0:
269,194,49692,1,8,0:0:0:0:
269,193,49957,1,0,0:0:0:0:
269,193,50222,1,8,0:0:0:0:
269,193,50751,1,8,0:0:0:0:
277,184,51016,1,0,0:0:0:0:
269,193,51280,1,8,0:0:0:0:
269,193,51545,1,0,0:0:0:0:
269,193,51810,1,8,0:0:0:0:
269,193,51942,1,8,0:0:0:0:
269,193,52075,1,8,0:0:0:0:
269,193,52339,1,4,0:0:0:0:
269,193,52869,1,8,0:0:0:0:
269,193,53133,1,8,0:0:0:0:
269,193,53398,1,8,0:0:0:0:
269,193,53927,1,8,0:0:0:0:
269,193,54192,1,8,0:0:0:0:
269,193,54457,1,0,0:0:0:0:
269,193,54854,1,8,0:0:0:0:
269,193,55251,1,8,0:0:0:0:
269,193,55515,1,0,0:0:0:0:
269,193,56045,1,8,0:0:0:0:
269,193,56309,1,8,0:0:0:0:
269,193,56574,1,0,0:0:0:0:
281,191,57104,1,8,0:0:0:0:
281,191,57368,1,8,0:0:0:0:
281,191,57633,1,8,0:0:0:0:
281,191,58162,1,8,0:0:0:0:
281,191,58427,1,8,0:0:0:0:
281,191,58692,1,0,0:0:0:0:
281,191,59089,1,8,0:0:0:0:
281,191,59486,1,8,0:0:0:0:
281,191,59750,1,0,0:0:0:0:
281,191,60280,1,8,0:0:0:0:
281,191,60544,1,8,0:0:0:0:
267,191,60809,1,0,0:0:0:0:
256,192,61074,12,0,64515,0:0:0:0:
