osu file format v14

[General]
AudioFilename: audio.mp3
AudioLeadIn: 0
PreviewTime: 34870
Countdown: 0
SampleSet: Normal
StackLeniency: 0.7
Mode: 1
LetterboxInBreaks: 0
WidescreenStoryboard: 0

[Editor]
DistanceSpacing: 1
BeatDivisor: 4
GridSize: 32
TimelineZoom: 1.3

[Metadata]
Title:Never Gonna Give You Up
TitleUnicode:Never Gonna Give You Up
Artist:Rick Astley
ArtistUnicode:Rick Astley
Creator:Niko-nyan
Version:Kantan
Source:
Tags:frans_niko rickroll english pop dance-pop soul whenever you need somebody advertisement insuraaance insurance
BeatmapID:3878052
BeatmapSetID:1883608

[Difficulty]
HPDrainRate:9
CircleSize:3
OverallDifficulty:2
ApproachRate:8
SliderMultiplier:1.4
SliderTickRate:1

[Events]
//Background and Video events
0,0,"InsurAAAnce-Rick-Astley-Never-Gonna-Give-You-Up-1024x576.jpg",0,120
//Break Periods
//Storyboard Layer 0 (Background)
//Storyboard Layer 1 (Fail)
//Storyboard Layer 2 (Pass)
//Storyboard Layer 3 (Foreground)
//Storyboard Layer 4 (Overlay)
//Storyboard Sound Samples

[TimingPoints]
205,529.371283372448,4,1,0,50,1,8
205,-100,4,1,0,50,0,0
1528,529.371283372448,4,1,0,60,1,0
1528,-100,4,1,0,60,0,0
9990,529.371283372448,4,1,0,50,1,0
35399,-100,4,1,0,60,0,1
52339,-100,4,1,0,60,0,0
61339,-100,4,1,0,50,0,0
62133,-100,4,1,0,40,0,0
62927,-100,4,1,0,30,0,0
63985,-100,4,1,0,20,0,0
64515,-100,4,1,0,10,0,0

[HitObjects]
250,199,205,5,8,0:0:0:0:
251,198,1528,1,12,0:0:0:0:
251,198,2322,1,8,0:0:0:0:
251,198,3116,1,0,0:0:0:0:
251,198,3645,1,8,0:0:0:0:
251,198,4439,1,8,0:0:0:0:
251,198,5233,1,8,0:0:0:0:
251,198,5762,1,0,0:0:0:0:
251,198,6557,1,8,0:0:0:0:
251,198,7351,1,8,0:0:0:0:
251,198,7880,1,0,0:0:0:0:
251,198,8939,1,8,0:0:0:0:
251,198,9990,1,0,0:0:0:0:
251,198,11048,1,8,0:0:0:0:
251,198,11578,1,8,0:0:0:0:
251,198,12107,1,0,0:0:0:0:
251,198,13166,1,0,0:0:0:0:
251,198,14224,1,0,0:0:0:0:
251,198,14754,1,8,0:0:0:0:
251,198,15283,1,8,0:0:0:0:
251,198,16342,1,0,0:0:0:0:
251,198,16871,1,8,0:0:0:0:
251,198,17136,1,8,0:0:0:0:
251,198,18459,1,0,0:0:0:0:
251,198,18989,1,8,0:0:0:0:
251,198,19518,1,0,0:0:0:0:
251,198,20577,1,0,0:0:0:0:
251,198,21636,1,0,0:0:0:0:
251,198,22694,1,12,0:0:0:0:
251,198,23224,1,8,0:0:0:0:
251,198,23753,1,0,0:0:0:0:
251,198,24812,1,8,0:0:0:0:
251,198,25341,1,0,0:0:0:0:
251,198,25871,1,8,0:0:0:0:
251,198,26929,1,0,0:0:0:0:
251,198,28517,1,8,0:0:0:0:
251,198,29047,1,0,0:0:0:0:
251,198,29576,1,8,0:0:0:0:
251,198,30106,1,8,0:0:0:0:
251,198,30635,1,0,0:0:0:0:
249,193,32223,1,8,0:0:0:0:
249,193,32752,1,0,0:0:0:0:
260,188,33017,1,0,0:0:0:0:
249,193,33811,1,8,0:0:0:0:
249,193,35399,1,12,0:0:0:0:
249,193,35796,1,4,0:0:0:0:
249,193,36193,1,12,0:0:0:0:
249,193,36987,1,0,0:0:0:0:
249,193,37517,1,12,0:0:0:0:
249,193,37914,1,12,0:0:0:0:
249,193,38311,1,4,0:0:0:0:
249,193,39105,1,0,0:0:0:0:
249,193,39634,1,8,0:0:0:0:
249,193,40164,1,0,0:0:0:0:
249,193,40428,1,0,0:0:0:0:
249,193,41752,1,8,0:0:0:0:
249,193,42281,1,8,0:0:0:0:
249,192,43340,1,0,0:0:0:0:
249,192,43869,1,12,0:0:0:0:
249,192,44266,1,4,0:0:0:0:
249,192,44663,1,12,0:0:0:0:
249,192,45457,1,0,0:0:0:0:
249,192,45987,1,12,0:0:0:0:
249,192,46516,1,0,0:0:0:0:
249,192,46781,1,0,0:0:0:0:
249,192,47575,1,8,0:0:0:0:
249,192,48104,1,8,0:0:0:0:
249,192,48634,1,0,0:0:0:0:
249,192,48898,1,0,0:0:0:0:
249,192,50222,1,8,0:0:0:0:
249,192,50751,1,8,0:0:0:0:
249,192,52339,1,8,0:0:0:0:
249,192,53398,1,8,0:0:0:0:
249,192,53927,1,0,0:0:0:0:
249,192,54457,1,8,0:0:0:0:
257,188,54854,1,8,0:0:0:0:
257,188,55251,1,0,0:0:0:0:
249,192,56574,1,8,0:0:0:0:
249,192,57633,1,8,0:0:0:0:
249,192,58162,1,0,0:0:0:0:
249,192,58692,1,8,0:0:0:0:
258,198,59089,1,8,0:0:0:0:
249,192,59486,1,0,0:0:0:0:
245,192,60809,1,8,0:0:0:0:
256,192,61074,12,0,64515,0:0:0:0:
