osu file format v14

[General]
AudioFilename: audio.mp3
AudioLeadIn: 0
PreviewTime: 7040
Countdown: 0
SampleSet: Soft
StackLeniency: 0.7
Mode: 0
LetterboxInBreaks: 0
WidescreenStoryboard: 0

[Editor]
DistanceSpacing: 1.4
BeatDivisor: 8
GridSize: 16
TimelineZoom: 2

[Metadata]
Title:Root Beer Rag
TitleUnicode:Root Beer Rag
Artist:Richard Clayderman
ArtistUnicode:Richard Clayderman
Creator:buhei
Version:Insane
Source:
Tags:Live in Tokyo
BeatmapID:1522697
BeatmapSetID:721063

[Difficulty]
HPDrainRate:6
CircleSize:4.8
OverallDifficulty:7
ApproachRate:9.4
SliderMultiplier:1.8
SliderTickRate:1

[Events]
//Background and Video events
0,0,"Konachan.com - 123671 sample.jpg",0,0
//Break Periods
//Storyboard Layer 0 (Background)
//Storyboard Layer 1 (Fail)
//Storyboard Layer 2 (Pass)
//Storyboard Layer 3 (Foreground)
//Storyboard Sound Samples

[TimingPoints]
170,428.571428571429,4,2,1,0,1,0
4777,-83.3333333333333,4,2,1,0,0,0
5634,-66.6666666666667,4,2,1,0,0,0
7040,428.571428571429,4,2,1,0,1,0
7040,-100,4,2,1,0,0,0
8968,-83.3333333333333,4,2,1,0,0,0
9932,-71.4285714285714,4,2,1,0,0,0
10468,-100,4,2,1,0,0,0
12182,-83.3333333333333,4,2,1,0,0,0
13361,-66.6666666666667,4,2,1,0,0,0
13897,-100,4,2,1,0,0,0
15825,-83.3333333333333,4,2,1,0,0,0
16790,-66.6666666666667,4,2,1,0,0,0
17218,-100,4,2,1,0,0,0
25040,-83.3333333333333,4,2,1,0,0,0
25897,-66.6666666666667,4,2,1,0,0,0

[Colours]
Combo1 : 255,128,255
Combo2 : 255,255,0
Combo3 : 128,255,255
Combo4 : 255,128,0

[HitObjects]
3,41,170,6,0,B|46:52|46:52|93:42,1,90
109,114,491,2,0,B|152:103|152:103|199:113,1,90
259,73,812,1,0,0:0:0:0:
447,191,1027,1,0,0:0:0:0:
447,191,1134,2,0,B|404:202|404:202|357:192,1,90
286,178,1455,1,0,0:0:0:0:
290,202,1562,1,0,0:0:0:0:
294,226,1670,1,0,0:0:0:0:
298,250,1777,1,0,0:0:0:0:
256,310,1884,5,0,0:0:0:0:
460,193,2098,1,0,0:0:0:0:
238,336,2312,1,0,0:0:0:0:
238,336,2420,2,0,L|288:332,1,45
103,213,2634,1,0,0:0:0:0:
103,213,2741,2,0,L|53:209,1,45
166,366,2955,1,0,0:0:0:0:
166,366,3063,2,0,L|162:316,1,45
239,146,3277,1,0,0:0:0:0:
239,146,3385,2,0,L|235:196,1,45
256,342,3598,5,0,0:0:0:0:
347,296,3812,1,0,0:0:0:0:
347,296,3920,2,0,L|437:310,1,90
325,270,4241,1,0,0:0:0:0:
325,270,4348,1,0,0:0:0:0:
256,326,4455,5,0,0:0:0:0:
161,232,4670,1,0,0:0:0:0:
161,232,4778,2,0,L|55:248,1,107.999996704102
183,206,5099,1,0,0:0:0:0:
183,206,5206,1,0,0:0:0:0:
256,310,5312,5,0,0:0:0:0:
343,80,5527,1,0,0:0:0:0:
343,80,5635,2,0,L|481:101,1,135.000005149842
321,54,5956,1,0,0:0:0:0:
256,342,6170,5,0,0:0:0:0:
512,176,6384,1,0,0:0:0:0:
464,256,6491,1,0,0:0:0:0:
375,228,6598,1,0,0:0:0:0:
7,159,7040,6,0,L|-1:114,1,45
108,245,7254,2,0,L|100:290,1,45
209,159,7468,1,0,0:0:0:0:
209,159,7575,1,0,0:0:0:0:
209,159,7695,2,0,L|201:114,1,45
303,189,7897,6,0,L|311:234,1,45
404,103,8111,2,0,L|412:58,1,45
505,189,8325,1,0,0:0:0:0:
505,189,8432,1,0,0:0:0:0:
505,189,8540,2,0,L|513:234,1,45
422,351,8754,5,0,0:0:0:0:
439,243,8968,2,0,P|397:228|359:234,1,80.9999975280763
301,276,9182,2,0,P|276:277|245:266,1,53.9999983520508
195,220,9397,1,0,0:0:0:0:
115,366,9504,6,0,B|107:316|107:316|120:258,1,107.999996704102
195,220,9825,1,0,0:0:0:0:
270,179,9932,2,0,B|284:100|284:100|230:111|177:97,1,188.999994232178
505,159,10468,6,0,L|513:114,1,45
404,245,10682,2,0,L|412:290,1,45
303,159,10896,1,0,0:0:0:0:
303,159,11003,1,0,0:0:0:0:
303,159,11123,2,0,L|311:114,1,45
209,189,11325,6,0,L|201:234,1,45
108,103,11539,2,0,L|100:58,1,45
7,189,11753,1,0,0:0:0:0:
7,189,11860,1,0,0:0:0:0:
7,189,11968,2,0,L|-1:234,1,45
99,340,12182,6,0,P|134:350|180:345,1,80.9999975280763
189,208,12397,2,0,P|154:198|108:203,1,80.9999975280763
50,287,12611,2,0,P|74:275|100:270,1,53.9999983520508
189,208,12825,1,0,0:0:0:0:
255,261,12932,6,0,P|306:251|342:199,1,107.999996704102
353,131,13254,1,0,0:0:0:0:
268,187,13361,2,0,B|255:261|255:261|360:333,1,202.500007724762
0,119,13897,6,0,L|49:115,1,45
136,268,14111,2,0,L|87:264,1,45
206,151,14325,1,0,0:0:0:0:
206,151,14432,1,0,0:0:0:0:
206,151,14540,2,0,L|209:195,1,45
306,233,14754,6,0,L|302:188,1,45
376,116,14968,2,0,L|425:120,1,45
512,265,15182,1,0,0:0:0:0:
512,265,15290,1,0,0:0:0:0:
512,265,15397,2,0,L|463:269,1,45
374,318,15611,5,0,0:0:0:0:
163,316,15825,2,0,P|152:264|163:227,1,80.9999975280763
210,186,16040,2,0,L|210:131,1,53.9999983520508
149,54,16254,1,0,0:0:0:0:
210,186,16361,6,0,B|244:177|244:177|318:184,1,107.999996704102
450,318,16682,1,0,0:0:0:0:
450,318,16790,2,0,B|391:338|391:338|250:323,1,202.500007724762
177,357,17218,5,0,0:0:0:0:
388,230,17432,1,0,0:0:0:0:
388,230,17540,2,0,L|435:236,1,45
509,189,17754,5,0,0:0:0:0:
473,137,17861,1,0,0:0:0:0:
473,73,17968,1,0,0:0:0:0:
437,21,18075,1,0,0:0:0:0:
403,74,18182,5,0,0:0:0:0:
348,106,18290,1,0,0:0:0:0:
285,108,18397,1,0,0:0:0:0:
229,79,18503,1,0,0:0:0:0:
188,29,18611,5,0,0:0:0:0:
137,66,18718,1,0,0:0:0:0:
128,128,18825,1,0,0:0:0:0:
152,186,18932,1,0,0:0:0:0:
208,215,19040,5,0,0:0:0:0:
271,207,19148,1,0,0:0:0:0:
332,219,19255,1,0,0:0:0:0:
385,252,19362,1,0,0:0:0:0:
414,306,19468,5,0,0:0:0:0:
396,245,19575,1,0,0:0:0:0:
345,206,19682,1,0,0:0:0:0:
283,189,19790,1,0,0:0:0:0:
220,181,19897,5,0,0:0:0:0:
465,219,20111,1,0,0:0:0:0:
290,39,20325,1,0,0:0:0:0:
168,300,20540,1,0,0:0:0:0:
23,171,20700,1,0,0:0:0:0:
7,158,20754,6,0,P|72:134|138:139,1,135
241,257,21182,2,0,P|287:257|337:248,1,90
420,208,21504,1,0,0:0:0:0:
314,145,21611,5,0,0:0:0:0:
306,113,21718,2,0,B|299:72|299:72|310:22,1,90
423,119,22040,2,0,B|430:160|430:160|419:210,1,90
399,280,22361,1,0,0:0:0:0:
390,307,22468,5,0,0:0:0:0:
145,227,22682,1,0,0:0:0:0:
178,267,22790,1,0,0:0:0:0:
335,198,23004,1,0,0:0:0:0:
315,244,23112,1,0,0:0:0:0:
87,308,23325,5,0,0:0:0:0:
134,325,23433,1,0,0:0:0:0:
237,188,23647,1,0,0:0:0:0:
243,237,23755,1,0,0:0:0:0:
415,338,23968,1,0,0:0:0:0:
32,192,24182,5,0,0:0:0:0:
140,145,24397,1,0,0:0:0:0:
140,145,24504,2,0,P|130:126|113:109,1,45
140,239,24718,1,0,0:0:0:0:
140,239,24825,2,0,P|130:258|113:275,1,45
48,192,25040,5,0,0:0:0:0:
264,121,25254,1,0,0:0:0:0:
264,121,25361,2,0,L|213:106,1,53.9999983520508
264,263,25575,1,0,0:0:0:0:
264,263,25682,2,0,L|213:278,1,53.9999983520508
64,192,25897,5,0,0:0:0:0:
405,100,26111,1,0,0:0:0:0:
405,100,26218,2,0,B|388:102|371:98|371:98|358:106|340:110,1,67.5000025749208
405,284,26432,1,0,0:0:0:0:
405,284,26539,2,0,B|388:282|371:286|371:286|358:278|340:274,1,67.5000025749208
32,192,26754,5,0,0:0:0:0:
480,192,26968,1,0,0:0:0:0:
384,192,27075,1,0,0:0:0:0:
288,192,27182,1,0,0:0:0:0:
