osu file format v14

[General]
AudioFilename: pokemon go.mp3
AudioLeadIn: 0
PreviewTime: 120473
Countdown: 0
SampleSet: Soft
StackLeniency: 0.5
Mode: 0
LetterboxInBreaks: 0
WidescreenStoryboard: 0

[Editor]
Bookmarks: 60631,111157,161684,212210
DistanceSpacing: 1
BeatDivisor: 4
GridSize: 4
TimelineZoom: 1.6

[Metadata]
Title:Break The Silence
TitleUnicode:Break The Silence
Artist:Richard Caddock, WRLD, Nitro Fun, Slips & Slurs & Subtact
ArtistUnicode:Richard Caddock, WRLD, Nitro Fun, Slips & Slurs & Subtact
Creator:VINXIS
Version:Collab Extra
Source:Monstercat
Tags:deetz azer grumd aka battle hootowlstar hoot owl star hos delis edm dance music future bass chill trap 5 five years celebration
BeatmapID:1032083
BeatmapSetID:483760

[Difficulty]
HPDrainRate:6
CircleSize:4
OverallDifficulty:8.5
ApproachRate:9.2
SliderMultiplier:1.92
SliderTickRate:1

[Events]
//Background and Video events
0,0,"57946466_p0.png",0,0
//Break Periods
2,60811,68242
//Storyboard Layer 0 (Background)
//Storyboard Layer 1 (Fail)
//Storyboard Layer 2 (Pass)
//Storyboard Layer 3 (Foreground)
//Storyboard Sound Samples

[TimingPoints]
0,315.789473684211,4,2,1,30,1,0
0,-200,4,2,1,30,0,0
631,-200,4,2,1,13,0,0
789,-200,4,2,1,30,0,0
947,-200,4,2,1,13,0,0
1026,-200,4,2,1,30,0,0
1894,-200,4,2,1,13,0,0
2052,-200,4,2,1,30,0,0
2210,-200,4,2,1,13,0,0
2289,-200,4,2,1,30,0,0
3157,-200,4,2,1,13,0,0
3315,-200,4,2,1,30,0,0
3473,-200,4,2,1,13,0,0
3552,-200,4,2,1,30,0,0
4421,-200,4,2,1,13,0,0
4578,-200,4,2,1,30,0,0
4736,-200,4,2,1,13,0,0
4815,-200,4,2,1,30,0,0
5684,-200,4,2,1,13,0,0
5842,-200,4,2,1,30,0,0
6000,-200,4,2,1,13,0,0
6078,-200,4,2,1,30,0,0
6947,-200,4,2,1,13,0,0
7105,-200,4,2,1,30,0,0
7263,-200,4,2,1,13,0,0
7342,-200,4,2,1,30,0,0
8210,-200,4,2,1,13,0,0
8368,-200,4,2,1,30,0,0
8526,-200,4,2,1,13,0,0
8605,-200,4,2,1,30,0,0
9473,-200,4,2,1,13,0,0
9631,-200,4,2,1,30,0,0
9789,-200,4,2,1,13,0,0
10105,-200,4,2,1,30,0,0
14368,-166.666666666667,4,2,1,30,0,0
15157,-142.857142857143,4,2,1,30,0,0
16421,-125,4,2,1,30,0,0
20210,-100,4,2,1,20,0,0
40421,-133.333333333333,4,2,1,20,0,0
68842,-200,4,2,1,60,0,0
74526,-333.333333333333,4,2,1,60,0,0
75789,-476.190476190476,4,2,1,60,0,0
80842,-200,4,2,1,60,0,0
88421,-181.818181818182,4,2,1,60,0,0
89684,-166.666666666667,4,2,1,60,0,0
90947,-153.846153846154,4,2,1,60,0,0
93473,-142.857142857143,4,2,1,60,0,0
94736,-133.333333333333,4,2,1,60,0,0
97421,-117.647058823529,4,2,1,60,0,0
97736,-105.263157894737,4,2,1,60,0,0
98052,-95.2380952380952,4,2,1,60,0,0
100421,-95.2380952380952,4,2,0,60,0,0
100578,-133.333333333333,4,2,1,60,0,0
101052,-80,4,2,1,60,0,1
101684,-125,4,2,1,60,0,1
103578,-80,4,2,1,60,0,1
104210,-125,4,2,1,60,0,1
106105,-80,4,2,1,60,0,1
106736,-125,4,2,1,60,0,1
108631,-80,4,2,1,60,0,1
109263,-125,4,2,1,60,0,1
111157,-125,4,2,1,60,0,1
120631,-153.846153846154,4,2,1,60,0,1
121263,-125,4,2,1,60,0,1
121894,-153.846153846154,4,2,1,60,0,1
122210,-125,4,2,1,60,0,1
122842,-153.846153846154,4,2,1,60,0,1
123157,-125,4,2,1,60,0,1
126315,-105.263157894737,4,2,1,60,0,1
127736,-125,4,2,1,60,0,1
131368,-90.9090909090909,4,2,1,60,0,1
132157,-153.846153846154,4,2,1,60,0,1
133894,-105.263157894737,4,2,1,60,0,1
137684,-125,4,2,1,60,0,1
138947,-90.9090909090909,4,2,1,60,0,1
141473,-125,4,2,1,60,0,1
161684,-200,4,2,1,30,0,0
181894,-200,4,2,1,50,0,0
192000,-166.666666666667,4,2,1,55,0,0
197052,-133.333333333333,4,2,1,60,0,0
202105,-200,4,2,1,50,0,0
203368,-100,4,2,1,50,0,0
204000,-125,4,2,1,70,0,1
222315,-100,4,2,1,70,0,1
232421,-142.857142857143,4,2,1,60,0,0
242526,-166.666666666667,4,2,1,30,0,0
252000,-200,4,2,1,30,0,0
252631,-153.846153846154,4,2,1,30,0,0

[Colours]
Combo1 : 121,121,255
Combo2 : 140,240,240
Combo3 : 255,191,255
Combo4 : 0,138,138

[HitObjects]
217,123,0,6,0,P|212:166|203:223,1,96
277,69,473,2,0,P|292:96|302:122,1,48
353,182,789,2,0,P|368:147|379:125,1,48
372,138,1263,6,0,P|296:142|263:147,1,96
218,203,1736,2,0,P|208:251|206:262,1,48
128,231,2052,2,0,P|127:280|127:291,1,48
127,278,2526,6,0,P|164:287|237:288,1,96
50,325,3000,2,0,P|69:347|99:369,1,48
53,236,3315,2,0,P|73:215|86:196,1,48
218,92,3789,6,0,P|254:123|316:123,1,96
137,53,4263,2,0,P|111:59|90:72,1,48
146,135,4578,2,0,P|127:154|116:176,1,48
237,362,5052,6,0,P|223:304|201:258,1,96
208,270,5526,2,0,L|269:269,1,48
356,200,5842,2,0,L|295:198,1,48
292,214,6315,6,0,L|396:209,1,96
212,124,6789,2,0,P|184:111|170:98,1,48
116,156,7105,2,0,P|97:132|90:113,1,48
41,274,7578,6,0,L|54:392,1,96
186,304,8052,2,0,P|210:296|246:291,1,48
346,355,8368,2,0,P|322:350|300:343,1,48
300,343,8842,6,0,P|352:357|412:347,1,96
373,200,9315,2,0,P|390:239|402:259,1,48
296,154,9631,2,0,P|306:132|315:110,1,48
315,110,10105,6,0,L|255:117,1,48
186,176,10421,1,0,0:0:0:0:
73,120,10578,1,0,0:0:0:0:
73,120,10736,2,0,P|89:168|91:187,1,48
127,251,11052,2,0,L|121:305,1,48
1,249,11368,1,0,0:0:0:0:
1,249,11526,2,0,L|54:250,1,48
297,216,11842,6,0,P|289:250|284:282,1,48
199,137,12157,2,0,P|207:171|212:203,1,48
267,72,12473,1,0,0:0:0:0:
394,175,12631,2,0,P|440:175|497:167,1,96
394,175,13263,6,0,P|431:189|457:202,1,48
292,261,13578,2,0,P|314:251|336:243,1,48
420,278,13894,1,0,0:0:0:0:
315,166,14052,2,0,L|326:114,1,48
110,186,14368,2,0,P|141:198|180:223,1,57.5999982421876
248,45,14684,1,0,0:0:0:0:
248,45,14842,2,0,P|222:58|195:68,1,57.5999982421876
237,228,15157,6,0,P|246:181|257:155,1,67.1999979492188
102,110,15473,2,0,P|84:65|68:42,1,67.1999979492188
41,242,15789,2,0,P|79:231|125:230,1,67.1999979492188
376,225,16105,1,0,0:0:0:0:
302,327,16263,1,0,0:0:0:0:
302,327,16421,6,0,P|268:330|218:345,1,76.8
217,137,16736,1,0,0:0:0:0:
352,176,16894,1,0,0:0:0:0:
352,176,17052,2,0,P|386:157|429:140,1,76.8
204,257,17368,2,0,P|172:244|134:215,1,76.8
261,31,17684,5,0,0:0:0:0:
99,148,17842,1,0,0:0:0:0:
331,139,18000,1,0,0:0:0:0:
113,33,18157,1,0,0:0:0:0:
288,234,18315,6,0,L|327:229,1,38.4
397,324,18473,2,0,L|358:329,1,38.4
188,248,18631,2,0,L|221:269,1,38.4
480,288,18789,2,0,L|447:267,1,38.4
424,302,19578,5,0,0:0:0:0:
437,104,19736,1,0,0:0:0:0:
436,103,20210,6,0,B|368:136|304:68|224:100,1,192
370,222,20684,1,0,0:0:0:0:
172,128,20842,2,0,P|160:78|152:28,1,96
44,135,21157,1,0,0:0:0:0:
204,228,21315,1,0,0:0:0:0:
343,34,21473,5,0,0:0:0:0:
343,34,21631,2,0,P|388:26|450:23,1,96
359,255,21947,1,0,0:0:0:0:
261,190,22105,2,0,P|203:190|141:184,1,96
38,318,22421,1,0,0:0:0:0:
165,187,22578,1,0,0:0:0:0:
19,79,22736,5,0,0:0:0:0:
19,79,22894,2,0,P|27:140|35:182,1,96
325,105,23210,1,0,0:0:0:0:
260,204,23368,2,0,P|210:197|143:194,1,96
331,274,23684,1,0,0:0:0:0:
482,181,23842,1,0,0:0:0:0:
241,110,24000,5,0,0:0:0:0:
164,194,24157,2,0,P|174:246|189:298,1,96
417,94,24473,2,0,P|363:85|295:70,1,96
54,127,24789,2,0,P|101:117|148:109,1,96
309,289,25105,1,0,0:0:0:0:
309,289,25263,6,0,P|290:210|237:97,1,192
378,159,25736,1,0,0:0:0:0:
181,262,25894,1,0,0:0:0:0:
56,63,26052,1,0,0:0:0:0:
163,98,26210,2,0,P|213:86|266:80,1,96
439,312,26526,5,0,0:0:0:0:
439,312,26684,2,0,L|421:197,1,96
310,136,27000,1,0,0:0:0:0:
129,298,27157,2,0,P|182:293|243:289,1,96
163,59,27473,1,0,0:0:0:0:
257,209,27631,1,0,0:0:0:0:
39,177,27789,5,0,0:0:0:0:
39,177,27947,2,0,L|163:170,1,96
370,93,28263,1,0,0:0:0:0:
338,295,28421,2,0,P|326:243|324:179,1,96
441,281,28736,1,0,0:0:0:0:
232,232,28894,1,0,0:0:0:0:
418,168,29052,1,0,0:0:0:0:
283,346,29210,2,0,L|172:338,1,96
60,104,29526,5,0,0:0:0:0:
243,194,29684,1,0,0:0:0:0:
81,240,29842,1,0,0:0:0:0:
243,52,30000,1,0,0:0:0:0:
243,52,30315,5,0,0:0:0:0:
320,125,30473,2,0,L|310:227,1,96
100,273,30789,1,0,0:0:0:0:
313,322,30947,1,0,0:0:0:0:
174,177,31105,1,0,0:0:0:0:
127,359,31263,2,0,P|177:351|237:345,1,96
480,201,31578,5,0,0:0:0:0:
480,201,31736,2,0,P|419:195|361:186,1,96
175,111,32052,1,0,0:0:0:0:
366,69,32210,1,0,0:0:0:0:
248,255,32368,1,0,0:0:0:0:
75,118,32526,2,0,P|97:62|108:22,1,96
81,234,32842,5,0,0:0:0:0:
254,148,33000,2,0,P|307:139|368:141,1,96
301,343,33315,1,0,0:0:0:0:
160,167,33473,1,0,0:0:0:0:
308,244,33631,1,0,0:0:0:0:
159,271,33789,1,0,0:0:0:0:
278,140,33947,1,0,0:0:0:0:
429,299,34105,5,0,0:0:0:0:
429,299,34263,2,0,P|419:243|414:193,1,96
145,87,34578,1,0,0:0:0:0:
292,239,34736,1,0,0:0:0:0:
305,100,34894,1,0,0:0:0:0:
117,234,35052,2,0,P|93:290|84:330,1,96
372,349,35368,5,0,0:0:0:0:
372,349,35526,2,0,L|162:333,1,192
360,101,36000,1,0,0:0:0:0:
450,271,36157,1,0,0:0:0:0:
270,179,36315,2,0,P|215:175|165:178,1,96
74,357,36631,5,0,0:0:0:0:
74,357,36789,2,0,L|90:257,1,96
297,82,37105,1,0,0:0:0:0:
387,191,37263,2,0,L|274:204,1,96
35,64,37578,2,0,P|80:65|148:77,1,96
266,319,37894,5,0,0:0:0:0:
28,260,38052,2,0,P|59:217|228:216,1,192
412,156,38526,1,0,0:0:0:0:
378,333,38684,1,0,0:0:0:0:
208,271,38842,1,0,0:0:0:0:
475,274,39000,1,0,0:0:0:0:
251,148,39157,5,0,0:0:0:0:
251,148,39315,1,0,0:0:0:0:
391,57,39473,1,0,0:0:0:0:
344,252,39631,1,0,0:0:0:0:
135,150,39789,1,0,0:0:0:0:
257,298,39947,1,0,0:0:0:0:
45,246,40105,1,0,0:0:0:0:
247,118,40263,1,0,0:0:0:0:
351,267,40421,6,0,P|395:266|440:258,1,72.0000027465821
497,191,40736,1,0,0:0:0:0:
497,191,40894,1,0,0:0:0:0:
395,76,41052,2,0,L|386:155,1,72.0000027465821
251,182,41368,1,0,0:0:0:0:
386,147,41526,1,0,0:0:0:0:
248,52,41684,5,0,0:0:0:0:
248,52,41842,2,0,L|172:58,1,72.0000027465821
48,159,42157,1,0,0:0:0:0:
48,159,42315,2,0,P|98:164|124:165,1,72.0000027465821
212,140,42631,1,0,0:0:0:0:
98,62,42789,1,0,0:0:0:0:
23,254,42947,6,0,L|30:338,1,72.0000027465821
196,183,43263,1,0,0:0:0:0:
53,168,43421,1,0,0:0:0:0:
187,326,43578,6,0,P|189:246|195:182,1,144.000005493164
368,168,44052,2,0,L|276:156,1,72.0000027465821
424,88,44368,2,0,P|378:66|344:56,1,72.0000027465821
358,59,44684,1,0,0:0:0:0:
340,256,44842,2,0,L|411:261,1,72.0000027465821
274,356,45157,2,0,P|238:360|203:360,1,72.0000027465821
248,184,45473,5,0,0:0:0:0:
248,184,45631,2,0,P|234:122|206:37,1,144.000005493164
338,218,46105,2,0,P|326:269|319:317,1,72.0000027465821
100,188,46421,6,0,P|151:185|189:179,1,72.0000027465821
367,76,46736,2,0,P|322:101|290:123,1,72.0000027465821
204,302,47052,2,0,P|173:282|142:265,1,72.0000027465821
324,193,47368,2,0,L|408:188,1,72.0000027465821
230,139,47684,1,0,0:0:0:0:
133,197,47842,1,0,0:0:0:0:
75,82,48000,5,0,0:0:0:0:
75,82,48157,2,0,L|160:75,1,72.0000027465821
336,166,48473,1,0,0:0:0:0:
336,166,48631,2,0,P|323:124|317:79,1,72.0000027465821
458,180,48947,2,0,P|451:215|440:249,1,72.0000027465821
272,255,49263,5,0,0:0:0:0:
213,350,49421,2,0,P|329:348|363:353,1,144.000005493164
165,260,49894,2,0,P|116:271|89:280,1,72.0000027465821
237,173,50210,2,0,P|286:184|313:193,1,72.0000027465821
112,172,50526,5,0,0:0:0:0:
248,76,50684,1,0,0:0:0:0:
237,173,50842,1,0,0:0:0:0:
108,76,51000,1,0,0:0:0:0:
177,273,51157,6,0,P|225:270|265:267,1,72.0000027465821
405,127,51473,1,0,0:0:0:0:
337,239,51631,1,0,0:0:0:0:
337,239,51789,2,0,P|348:296|377:385,1,144.000005493164
405,127,52263,1,0,0:0:0:0:
259,168,52421,2,0,P|220:163|179:152,1,72.0000027465821
358,35,52736,2,0,P|392:26|428:22,1,72.0000027465821
475,229,53052,5,0,0:0:0:0:
363,148,53210,1,0,0:0:0:0:
471,129,53368,1,0,0:0:0:0:
360,256,53526,1,0,0:0:0:0:
360,256,53684,2,0,P|313:254|269:252,1,72.0000027465821
88,325,54000,2,0,P|135:323|221:309,1,108.000004119873
195,314,54315,6,0,L|188:226,1,72.0000027465821
311,70,54631,2,0,P|309:106|305:141,1,72.0000027465821
152,96,54947,2,0,P|147:60|145:24,1,72.0000027465821
124,192,55263,1,0,0:0:0:0:
232,128,55421,1,0,0:0:0:0:
365,235,55578,6,0,P|402:235|443:231,1,72.0000027465821
339,335,55894,1,0,0:0:0:0:
447,367,56052,1,0,0:0:0:0:
512,171,56210,6,0,L|500:93,1,72.0000027465821
270,147,56526,2,0,L|277:75,1,72.0000027465821
387,264,56842,6,0,L|389:193,1,72.0000027465821
142,215,57157,2,0,L|137:142,1,72.0000027465821
255,353,57473,6,0,P|262:289|264:260,1,72.0000027465821
248,169,57789,1,0,0:0:0:0:
161,282,57947,1,0,0:0:0:0:
361,252,58105,6,0,B|514:244,1,144.000005493164
466,158,58578,1,0,0:0:0:0:
363,342,58736,2,0,P|319:337|281:329,1,72.0000027465821
120,309,59052,2,0,P|155:302|191:298,1,72.0000027465821
314,100,59368,5,0,0:0:0:0:
314,100,59526,2,0,P|286:182|276:257,1,144.000005493164
178,104,60000,2,0,L|169:97,31,9.00000034332277
140,228,68842,6,0,P|158:273|172:328,1,96
316,120,69473,2,0,P|297:165|284:220,1,96
196,112,70105,2,0,P|191:60|180:0,1,96
472,241,70736,6,0,B|315:295|354:195|185:259,1,288
125,326,72000,5,0,0:0:0:0:
38,285,72315,1,0,0:0:0:0:
54,190,72631,1,0,0:0:0:0:
148,173,72947,1,0,0:0:0:0:
192,257,73263,5,0,0:0:0:0:
263,283,73578,1,0,0:0:0:0:
333,251,73894,1,0,0:0:0:0:
401,286,74210,1,0,0:0:0:0:
461,238,74526,6,0,P|465:204|474:177,1,57.5999982421876
403,153,75157,2,0,P|399:119|390:92,1,57.5999982421876
444,47,75789,6,0,B|423:23|364:6|333:49|322:71|322:71|277:148|167:118,1,322.55999015625
166,117,80842,6,0,L|51:128,1,96
70,126,81315,1,0,0:0:0:0:
131,193,81631,2,0,L|138:251,1,48
136,240,81947,1,0,0:0:0:0:
112,50,82263,2,0,L|106:2,1,48
131,193,82736,5,0,0:0:0:0:
110,5,83052,2,0,L|116:53,1,48
115,52,83368,6,0,L|121:100,1,48
131,193,83842,1,0,0:0:0:0:
244,85,84157,2,0,L|196:77,2,48
248,88,84631,6,0,L|308:81,1,48
348,191,85105,1,0,0:0:0:0:
359,33,85421,2,0,L|419:26,1,48
346,267,85894,6,0,L|461:256,1,96
441,257,86367,1,0,0:0:0:0:
381,191,86684,2,0,L|374:133,1,48
376,144,86999,1,0,0:0:0:0:
400,334,87315,2,0,L|406:382,1,48
381,191,87788,5,0,0:0:0:0:
409,384,88105,2,0,L|403:336,1,48
404,337,88420,6,0,L|398:289,1,48
381,191,88894,1,0,0:0:0:0:
268,299,89210,2,0,L|321:308,2,52.8000016113282
269,304,89684,6,0,L|207:311,1,57.5999982421876
164,193,90157,1,0,0:0:0:0:
153,351,90473,2,0,L|88:347,1,57.5999982421876
79,171,90947,6,0,L|85:233,1,62.3999971435548
253,128,91421,1,0,0:0:0:0:
253,128,91578,6,0,L|247:190,1,62.3999971435548
246,234,91894,1,0,0:0:0:0:
60,86,92210,6,0,L|-14:69,2,62.3999971435548
142,44,92684,2,0,L|148:110,1,62.3999971435548
89,171,93000,2,0,L|83:237,1,62.3999971435548
160,274,93315,1,0,0:0:0:0:
117,350,93473,6,0,L|38:358,3,67.1999979492188
194,267,94105,6,0,L|267:263,1,67.1999979492188
349,320,94421,2,0,L|353:389,1,67.1999979492188
452,298,94736,6,0,L|533:317,2,72.0000027465821
349,320,95210,2,0,L|342:245,1,72.0000027465821
446,202,95526,2,0,L|451:128,1,72.0000027465821
345,98,95841,1,0,0:0:0:0:
411,22,95999,6,0,L|468:15,7,36.0000013732911
339,75,96631,6,0,L|300:67,3,36.0000013732911
246,16,96947,2,0,L|212:37,3,36.0000013732911
138,40,97263,6,0,L|128:87,1,36.0000013732911
78,133,97421,6,0,L|109:179,3,40.8000007781983
101,241,97736,2,0,L|161:252,3,45.5999987823487
209,199,98052,2,0,L|274:186,3,50.3999984619141
312,251,98368,6,0,L|377:261,1,50.3999984619141
432,195,98526,5,0,0:0:0:0:
226,284,98684,2,0,L|251:381,1,100.799996923828
403,322,99000,5,0,0:0:0:0:
155,186,99157,2,0,L|180:89,1,100.799996923828
432,195,99473,5,0,0:0:0:0:
86,303,99631,1,0,0:0:0:0:
256,32,99789,5,0,0:0:0:0:
257,365,99947,1,0,0:0:0:0:
432,195,100105,6,0,L|454:72,1,100.799996923828
449,95,100421,5,0,0:0:0:0:
355,144,100578,2,0,P|320:152|279:151,1,72.0000027465821
489,315,101052,6,0,B|286:349|368:232|129:260,1,360
11,369,101684,6,0,P|57:376|100:390,1,76.8
64,226,102000,2,0,P|65:266|75:310,1,76.8
301,187,102315,5,0,0:0:0:0:
227,149,102473,2,0,P|225:112|215:70,1,76.8
76,139,102789,2,0,P|115:125|159:125,1,76.8
364,52,103105,2,0,P|304:150|301:201,1,153.6
108,342,103578,6,0,B|311:376|229:259|468:287,1,360
486,152,104210,6,0,P|480:95|484:57,1,76.8
330,107,104526,2,0,P|364:114|405:125,1,76.8
165,177,104842,5,0,0:0:0:0:
221,246,105000,2,0,P|187:253|146:264,1,76.8
143,98,105315,2,0,L|125:23,1,76.8
316,195,105631,2,0,P|303:247|302:360,1,153.6
57,360,106105,6,0,B|-20:178|185:225|106:29,1,360
123,315,106736,6,0,P|178:299|199:299,1,76.8
269,252,107052,2,0,P|271:290|288:341,1,76.8
34,111,107368,5,0,0:0:0:0:
113,135,107526,2,0,P|105:172|105:210,1,76.8
226,28,107842,2,0,P|189:40|156:59,1,76.8
375,196,108157,2,0,P|310:172|233:109,1,153.6
455,24,108631,6,0,B|532:205|327:159|405:354,1,360
512,316,109263,6,0,P|513:271|500:230,1,76.8
288,305,109578,5,0,0:0:0:0:
211,306,109736,1,0,0:0:0:0:
251,95,109894,5,0,0:0:0:0:
292,177,110052,2,0,P|331:165|378:157,1,76.8
151,70,110368,2,0,P|163:125|165:160,1,76.8
409,51,110684,1,0,0:0:0:0:
390,254,110842,1,0,0:0:0:0:
56,104,111157,6,0,P|108:60|268:40,1,230.4
368,244,111789,2,0,P|352:280|348:328,1,76.8
462,202,112105,1,0,0:0:0:0:
233,139,112263,1,0,0:0:0:0:
314,81,112421,6,0,L|400:90,1,76.8
256,231,112736,1,0,0:0:0:0:
173,61,112894,1,0,0:0:0:0:
42,196,113052,2,0,L|56:285,1,76.8
260,325,113368,2,0,L|274:243,1,76.8
178,110,113684,6,0,P|213:176|369:210,1,230.4
430,151,114315,1,0,0:0:0:0:
372,355,114473,1,0,0:0:0:0:
160,266,114631,1,0,0:0:0:0:
334,182,114789,1,0,0:0:0:0:
464,324,114947,6,0,L|480:238,1,76.8
417,29,115263,1,0,0:0:0:0:
310,172,115421,1,0,0:0:0:0:
494,230,115578,2,0,L|400:248,1,76.8
204,151,115894,1,0,0:0:0:0:
277,334,116052,1,0,0:0:0:0:
362,102,116210,6,0,P|297:23|165:42,1,230.4
115,213,116842,2,0,P|108:253|93:292,1,76.8
303,222,117157,2,0,P|289:187|280:146,1,76.8
399,52,117473,5,0,0:0:0:0:
459,251,117631,1,0,0:0:0:0:
296,134,117789,1,0,0:0:0:0:
105,277,117947,1,0,0:0:0:0:
188,328,118105,2,0,L|272:314,1,76.8
147,149,118421,2,0,L|231:163,1,76.8
377,79,118736,6,0,P|264:161|264:243,1,230.4
426,343,119368,2,0,P|461:336|506:315,1,76.8
410,128,119684,1,0,0:0:0:0:
343,293,119842,1,0,0:0:0:0:
512,207,120000,5,0,0:0:0:0:
275,156,120157,1,0,0:0:0:0:
329,306,120315,1,0,0:0:0:0:
132,234,120473,1,0,0:0:0:0:
291,166,120631,2,0,L|357:175,1,62.3999971435548
208,77,120947,2,0,L|270:67,1,62.3999971435548
120,183,121263,6,0,P|176:207|82:250,1,230.4
76,113,121894,2,0,P|89:78|93:49,1,62.3999971435548
234,136,122210,6,0,P|273:200|432:214,1,230.4
456,112,122842,1,0,0:0:0:0:
425,204,123000,1,0,0:0:0:0:
379,36,123157,6,0,L|296:51,1,76.8
206,249,123473,1,0,0:0:0:0:
124,96,123631,1,0,0:0:0:0:
363,174,123789,5,0,0:0:0:0:
186,239,123947,1,0,0:0:0:0:
321,334,124105,1,0,0:0:0:0:
266,124,124263,1,0,0:0:0:0:
421,260,124421,2,0,L|431:342,1,76.8
178,290,124736,1,0,0:0:0:0:
375,170,124894,1,0,0:0:0:0:
297,325,125052,5,0,0:0:0:0:
233,87,125210,1,0,0:0:0:0:
47,170,125368,1,0,0:0:0:0:
253,234,125526,1,0,0:0:0:0:
142,47,125684,2,0,L|59:34,1,76.8
190,302,126000,2,0,L|92:312,1,76.8
369,107,126315,6,0,B|381:84|381:84|389:152,1,91.1999975646973
296,274,126631,1,0,0:0:0:0:
264,89,126789,2,0,B|239:43|239:43|218:194,1,182.399995129395
273,281,127263,6,0,P|245:212|114:210,1,182.399995129395
74,262,127736,2,0,L|85:338,2,76.8
136,81,128210,5,0,0:0:0:0:
183,291,128368,1,0,0:0:0:0:
279,163,128526,1,0,0:0:0:0:
432,313,128684,1,0,0:0:0:0:
274,260,128842,5,0,0:0:0:0:
451,154,129000,1,0,0:0:0:0:
408,322,129157,1,0,0:0:0:0:
349,121,129315,1,0,0:0:0:0:
256,245,129473,2,0,P|218:240|170:220,1,76.8
126,39,129789,1,0,0:0:0:0:
321,9,129947,1,0,0:0:0:0:
400,214,130105,5,0,0:0:0:0:
465,45,130263,1,0,0:0:0:0:
272,184,130421,1,0,0:0:0:0:
483,140,130578,1,0,0:0:0:0:
230,50,130736,2,0,P|211:87|205:121,1,76.8
452,293,131052,2,0,P|444:255|426:221,1,76.8
110,150,131368,6,0,B|128:200|95:244|95:244|134:227|172:252|175:309|142:330|97:332|69:305|76:258,1,316.800009667969
79,249,132000,1,0,0:0:0:0:
314,191,132157,1,0,0:0:0:0:
355,200,132236,1,0,0:0:0:0:
396,210,132315,6,0,L|462:224,1,62.3999971435548
369,117,132631,2,0,L|437:106,1,62.3999971435548
285,282,132947,2,0,L|356:290,1,62.3999971435548
221,180,133263,2,0,L|287:173,2,62.3999971435548
127,144,133736,1,0,0:0:0:0:
64,216,133894,6,0,P|64:294|100:354,1,136.799996347046
212,360,134210,2,0,L|276:352,1,45.5999987823487
337,244,134368,6,0,B|314:206|314:206|330:104,1,136.799996347046
458,59,134684,2,0,L|403:71,1,45.5999987823487
236,18,134842,6,0,P|233:84|184:128,1,136.799996347046
89,90,135157,6,0,L|31:103,1,45.5999987823487
120,218,135315,2,0,L|171:226,1,45.5999987823487
65,110,135473,2,0,L|7:123,1,45.5999987823487
96,238,135631,2,0,L|147:246,1,45.5999987823487
219,337,135789,5,0,0:0:0:0:
259,358,135868,1,0,0:0:0:0:
304,354,135947,1,0,0:0:0:0:
340,326,136026,1,0,0:0:0:0:
355,283,136105,1,0,0:0:0:0:
337,241,136184,1,0,0:0:0:0:
335,195,136263,1,0,0:0:0:0:
357,155,136342,1,0,0:0:0:0:
399,139,136421,6,0,B|502:153|502:153|454:165,1,136.799996347046
342,53,136736,2,0,L|279:63,1,45.5999987823487
148,243,136894,2,0,L|210:252,1,45.5999987823487
248,324,137052,5,0,0:0:0:0:
168,28,137210,1,0,0:0:0:0:
66,277,137368,6,0,P|109:324|186:326,1,136.799996347046
219,261,137684,2,0,P|207:204|337:119,1,230.4
413,160,138315,5,0,0:0:0:0:
470,355,138473,1,0,0:0:0:0:
248,271,138631,1,0,0:0:0:0:
421,183,138789,1,0,0:0:0:0:
271,282,138947,6,0,L|288:120,1,158.400004833985
474,86,139263,2,0,L|465:33,1,52.8000016113282
202,41,139421,6,0,B|189:148|189:148|178:92,1,158.400004833985
33,186,139736,2,0,L|90:173,1,52.8000016113282
276,318,139894,6,0,P|225:325|154:240,1,158.400004833985
348,184,140210,6,0,P|373:186|408:198,1,52.8000016113282
460,290,140368,1,0,0:0:0:0:
395,45,140526,1,0,0:0:0:0:
240,240,140684,1,0,0:0:0:0:
32,107,140842,1,0,0:0:0:0:
300,28,141000,1,0,0:0:0:0:
186,322,141157,1,0,0:0:0:0:
118,43,141315,1,0,0:0:0:0:
367,99,141473,6,0,L|376:179,1,76.8
224,262,141789,1,0,0:0:0:0:
410,322,141947,2,0,P|450:319|488:306,1,76.8
355,188,142263,1,0,0:0:0:0:
204,247,142421,2,0,L|192:335,1,76.8
168,103,142736,6,0,L|180:15,1,76.8
74,148,143052,1,0,0:0:0:0:
282,209,143210,1,0,0:0:0:0:
194,95,143368,1,0,0:0:0:0:
147,276,143526,1,0,0:0:0:0:
308,222,143684,1,0,0:0:0:0:
426,335,143842,1,0,0:0:0:0:
468,133,144000,6,0,L|457:50,1,76.8
329,238,144315,2,0,L|318:314,1,76.8
233,181,144631,1,0,0:0:0:0:
336,34,144789,1,0,0:0:0:0:
421,224,144947,1,0,0:0:0:0:
312,132,145105,1,0,0:0:0:0:
145,204,145263,6,0,P|111:201|66:186,1,76.8
205,33,145578,2,0,P|239:36|284:51,1,76.8
327,248,145894,1,0,0:0:0:0:
493,166,146052,1,0,0:0:0:0:
282,142,146210,1,0,0:0:0:0:
215,334,146368,1,0,0:0:0:0:
349,266,146526,6,0,L|432:281,1,76.8
269,166,146842,1,0,0:0:0:0:
115,242,147000,2,0,P|104:282|103:319,1,76.8
265,370,147315,1,0,0:0:0:0:
364,177,147473,2,0,L|350:93,1,76.8
140,49,147789,6,0,L|127:124,1,76.8
171,217,148105,1,0,0:0:0:0:
8,154,148263,1,0,0:0:0:0:
100,314,148421,1,0,0:0:0:0:
136,135,148578,1,0,0:0:0:0:
306,215,148736,1,0,0:0:0:0:
154,233,148894,1,0,0:0:0:0:
244,76,149052,6,0,L|334:66,1,76.8
492,184,149368,2,0,L|402:174,1,76.8
343,341,149684,1,0,0:0:0:0:
160,299,149842,1,0,0:0:0:0:
312,221,150000,1,0,0:0:0:0:
439,352,150157,1,0,0:0:0:0:
408,155,150315,6,0,P|370:143|325:140,1,76.8
156,236,150631,1,0,0:0:0:0:
221,97,150789,2,0,L|206:17,1,76.8
192,42,151578,6,0,L|206:117,1,76.8
68,240,151894,1,0,0:0:0:0:
241,308,152052,2,0,P|281:304|320:292,1,76.8
358,144,152368,1,0,0:0:0:0:
436,324,152526,2,0,L|447:233,1,76.8
327,65,152842,6,0,L|336:141,1,76.8
158,222,153157,1,0,0:0:0:0:
227,61,153315,1,0,0:0:0:0:
300,249,153473,1,0,0:0:0:0:
118,133,153631,1,0,0:0:0:0:
80,329,153789,1,0,0:0:0:0:
178,218,153947,1,0,0:0:0:0:
338,337,154105,6,0,L|425:324,1,76.8
244,299,154421,1,0,0:0:0:0:
310,134,154578,1,0,0:0:0:0:
497,222,154736,1,0,0:0:0:0:
323,246,154894,1,0,0:0:0:0:
258,45,155052,1,0,0:0:0:0:
209,187,155210,1,0,0:0:0:0:
385,75,155368,6,0,P|424:76|466:88,1,76.8
199,204,155684,2,0,P|162:214|122:215,1,76.8
48,148,156000,1,0,0:0:0:0:
92,334,156157,1,0,0:0:0:0:
178,194,156315,1,0,0:0:0:0:
365,266,156473,1,0,0:0:0:0:
254,117,156631,6,0,L|241:34,1,76.8
183,217,156947,1,0,0:0:0:0:
365,266,157105,2,0,P|402:263|442:252,1,76.8
498,74,157421,1,0,0:0:0:0:
242,128,157578,2,0,L|322:138,1,76.8
86,306,157894,6,0,L|166:296,1,76.8
226,144,158210,1,0,0:0:0:0:
282,332,158368,1,0,0:0:0:0:
134,192,158526,1,0,0:0:0:0:
368,261,158684,1,0,0:0:0:0:
311,72,158842,1,0,0:0:0:0:
253,237,159000,1,0,0:0:0:0:
432,166,159157,6,0,P|469:173|508:190,1,76.8
381,346,159473,2,0,P|344:339|305:322,1,76.8
241,154,159789,1,0,0:0:0:0:
63,235,159947,1,0,0:0:0:0:
213,277,160105,1,0,0:0:0:0:
132,95,160263,1,0,0:0:0:0:
91,327,160421,6,0,L|75:240,1,76.8
131,164,160736,1,0,0:0:0:0:
227,197,160894,1,0,0:0:0:0:
313,88,161052,2,0,L|302:150,2,51.2
445,160,161368,2,0,L|429:104,2,51.2
387,237,161684,5,2,3:1:0:0:
387,237,162315,2,0,P|337:242|282:231,1,96,2|0,0:0|0:0,0:0:0:0:
163,182,162947,1,2,0:0:0:0:
163,182,163105,2,0,P|152:225|161:281,2,96
364,152,164052,1,0,0:0:0:0:
364,152,164210,6,0,P|261:150|194:76,1,192,2|0,0:0|0:0,0:0:0:0:
318,31,165157,2,0,L|280:131,1,96,2|0,0:0|0:0,0:0:0:0:
283,120,165631,1,0,0:0:0:0:
379,234,165947,1,0,0:0:0:0:
266,330,166263,1,0,0:0:0:0:
170,217,166578,1,0,0:0:0:0:
170,217,166736,6,0,B|215:197|262:208|262:208|314:218|360:194,1,192,2|0,0:0|0:0,0:0:0:0:
295,93,167684,1,0,0:0:0:0:
175,96,168000,2,0,L|151:149,1,48
116,227,168315,2,0,L|140:280,1,48
241,333,168631,2,0,L|260:289,1,48
349,222,168947,1,0,0:0:0:0:
349,222,169105,1,0,0:0:0:0:
349,222,169263,1,2,0:0:0:0:
256,192,169500,12,2,171789,0:0:0:0:
158,156,172421,6,0,L|254:165,1,96
365,45,173052,2,0,L|352:110,2,48
475,198,173526,2,0,L|412:193,1,48
213,257,173842,2,0,P|262:266|319:246,1,96
98,294,174315,6,0,P|122:251|128:150,1,144,2|0,0:0|0:0,0:0:0:0:
129,157,174947,1,0,0:0:0:0:
348,169,175263,2,0,L|237:174,1,96,2|0,0:0|0:0,0:0:0:0:
252,173,175736,1,0,0:0:0:0:
349,56,176052,1,0,0:0:0:0:
306,260,176368,1,0,0:0:0:0:
150,120,176684,1,0,0:0:0:0:
150,120,176842,6,0,P|171:169|166:227,1,96,2|0,0:0|0:0,0:0:0:0:
48,189,177473,1,0,0:0:0:0:
169,307,177789,1,0,0:0:0:0:
304,94,178105,1,0,0:0:0:0:
78,115,178421,1,0,0:0:0:0:
333,310,178736,1,0,0:0:0:0:
481,201,179052,1,0,0:0:0:0:
481,201,179210,1,0,0:0:0:0:
481,201,179368,6,0,P|417:214|296:148,1,192,2|0,0:0|0:0,0:0:0:0:
145,334,180315,2,0,L|148:223,1,96,2|0,0:0|0:0,0:0:0:0:
147,238,180789,1,0,0:0:0:0:
340,307,181105,1,0,0:0:0:0:
147,238,181421,1,0,0:0:0:0:
147,238,181578,1,0,0:0:0:0:
420,202,181894,6,0,L|360:201,3,48,2|0|0|0,3:2|0:0|0:0|0:0,0:0:0:0:
187,141,182526,2,0,L|241:143,1,48,8|0,0:0|0:0,0:0:0:0:
394,116,182842,1,0,0:0:0:0:
187,141,183000,1,0,3:0:0:0:
273,53,183157,1,0,0:0:0:0:
290,219,183315,1,0,0:0:0:0:
144,286,183473,2,0,L|145:229,1,48,0|0,3:0|0:0,0:0:0:0:
279,58,183789,1,8,0:0:0:0:
296,224,183947,1,0,3:0:0:0:
143,155,184105,2,0,L|210:150,1,48,0|0,3:0|0:0,0:0:0:0:
458,120,184421,6,0,L|453:168,3,48,2|0|0|0,3:2|0:0|0:0|0:0,0:0:0:0:
366,320,185052,2,0,L|364:261,1,48,8|0,0:0|0:0,0:0:0:0:
305,149,185368,1,2,0:0:0:0:
271,334,185526,1,0,3:0:0:0:
127,212,185684,2,0,L|207:206,1,48
364,272,186000,2,0,L|284:266,1,48,0|0,3:0|0:0,0:0:0:0:
263,116,186315,2,0,L|269:196,1,48,8|0,0:0|3:0,0:0:0:0:
203,353,186631,2,0,L|209:273,1,48
174,58,186947,6,0,L|170:105,3,48,2|0|0|0,3:2|0:0|0:0|0:0,0:0:0:0:
104,219,187578,2,0,L|173:211,1,48,8|0,0:0|0:0,0:0:0:0:
304,122,187894,2,0,L|257:117,1,48,0|0,0:0|3:0,0:0:0:0:
284,279,188210,1,0,0:0:0:0:
284,279,188368,2,0,L|353:271,1,48,0|0,0:0|3:0,0:0:0:0:
484,182,188684,1,0,0:0:0:0:
411,299,188842,1,8,0:0:0:0:
293,183,189000,1,0,3:0:0:0:
484,182,189157,2,0,L|437:177,1,48,0|0,3:0|0:0,0:0:0:0:
207,300,189473,6,0,L|211:253,3,48,2|0|0|0,3:2|0:0|0:0|0:0,0:0:0:0:
323,161,190105,2,0,L|324:218,1,48,8|0,0:0|0:0,0:0:0:0:
387,50,190421,1,0,0:0:0:0:
396,241,190578,1,0,3:0:0:0:
155,147,190736,1,0,0:0:0:0:
346,138,190894,2,0,L|271:153,1,48,0|0,0:0|3:0,0:0:0:0:
100,246,191210,2,0,L|147:255,1,48,0|8,0:0|0:0,0:0:0:0:
369,304,191526,1,0,3:0:0:0:
253,331,191684,2,0,L|257:269,1,48
338,103,192000,5,2,3:2:0:0:
323,233,192158,1,0,0:0:0:0:
395,174,192316,1,0,0:0:0:0:
265,160,192474,1,0,0:0:0:0:
157,54,192631,2,0,L|160:120,1,57.5999982421876,10|0,0:0|0:0,0:0:0:0:
231,299,192947,2,0,L|235:240,1,57.5999982421876,0|0,0:0|3:0,0:0:0:0:
80,214,193263,5,2,0:0:0:0:
80,214,193421,2,0,L|143:212,1,57.5999982421876,0|0,0:0|3:0,0:0:0:0:
288,154,193736,1,0,0:0:0:0:
280,293,193894,1,10,0:0:0:0:
103,263,194052,1,0,3:0:0:0:
272,263,194210,1,0,3:0:0:0:
97,237,194368,1,0,0:0:0:0:
227,152,194526,5,2,3:2:0:0:
194,309,194684,2,0,L|181:244,2,57.5999982421876
415,311,195157,2,0,L|347:311,1,57.5999982421876,10|0,0:0|0:0,0:0:0:0:
201,210,195473,2,0,L|258:210,1,57.5999982421876,2|0,0:0|3:0,0:0:0:0:
449,144,195789,1,2,0:0:0:0:
334,236,195947,1,0,0:0:0:0:
311,90,196105,1,0,3:0:0:0:
446,161,196263,1,0,0:0:0:0:
329,257,196421,2,0,L|318:198,1,57.5999982421876,10|0,0:0|3:0,0:0:0:0:
164,69,196736,2,0,L|153:125,1,57.5999982421876,0|0,3:0|0:0,0:0:0:0:
116,221,196973,1,0,0:0:0:0:
116,221,197052,6,0,L|159:235,3,36.0000013732911,2|0|0|0,3:2|0:0|0:0|0:0,0:0:0:0:
184,316,197368,2,0,L|228:306,3,36.0000013732911,0|0|0|0,0:0|0:0|0:0|0:0,3:0:0:0:
309,348,197684,5,8,0:0:0:0:
317,312,197763,1,0,0:0:0:0:
310,276,197842,1,0,0:0:0:0:
294,243,197921,1,0,0:0:0:0:
281,209,198000,1,0,0:0:0:0:
279,173,198078,1,0,0:0:0:0:
291,139,198157,1,0,3:0:0:0:
319,117,198236,1,0,0:0:0:0:
352,103,198315,6,0,L|391:111,3,36.0000013732911,2|0|0|0,0:0|0:0|0:0|0:0,0:0:0:0:
487,208,198631,2,0,L|439:215,3,36.0000013732911,0|0|0|0,3:0|0:0|0:0|0:0,0:0:0:0:
418,336,198947,2,0,L|380:305,1,36.0000013732911,10|0,0:0|0:0,0:0:0:0:
310,326,199105,2,0,L|298:274,1,36.0000013732911,0|0,3:0|0:0,0:0:0:0:
179,288,199263,1,0,3:0:0:0:
184,245,199342,1,0,0:0:0:0:
205,207,199421,1,0,0:0:0:0:
238,179,199500,1,0,0:0:0:0:
278,165,199578,5,12,0:0:0:0:
79,201,199736,1,0,3:0:0:0:
147,10,199894,1,0,3:0:0:0:
332,240,200052,5,12,0:0:0:0:
165,124,200210,1,0,3:0:0:0:
348,38,200368,1,0,3:0:0:0:
312,337,200526,5,12,0:0:0:0:
466,205,200684,1,0,3:0:0:0:
316,369,200842,1,0,3:0:0:0:
307,114,201000,1,12,0:0:0:0:
473,233,201157,1,0,3:0:0:0:
167,289,201315,2,0,L|254:280|254:280,1,72.0000027465821,8|0,0:0|0:0,0:0:0:0:
430,300,201631,1,0,0:0:0:0:
430,300,201789,2,0,L|381:293,1,36.0000013732911,2|0,0:0|0:0,0:0:0:0:
170,213,202105,5,0,3:0:0:0:
170,213,202263,2,0,L|233:209,2,48
52,246,202736,2,0,L|55:196,1,48,0|0,1:0|0:0,0:0:0:0:
159,151,203052,2,0,L|161:198,1,48,0|0,0:0|3:0,0:0:0:0:
204,327,203368,6,2,B|226:320|226:320|250:324|278:323,2,64
116,357,203684,2,0,B|93:332|93:332|93:301|93:301|91:264,1,96,2|2,0:0|0:0,0:0:0:0:
113,79,204000,1,8,0:0:0:0:
334,177,204157,2,0,L|238:182,1,76.8,2|0,1:2|0:0,0:0:0:0:
80,198,204473,1,2,1:2:0:0:
303,299,204631,5,0,3:3:0:0:
94,276,204789,2,0,L|184:268,1,76.8,2|0,0:0|0:0,0:0:0:0:
282,107,205105,1,2,0:0:0:0:
387,312,205263,2,0,L|382:220,1,76.8,8|0,3:2|0:0,0:0:0:0:
187,63,205578,2,0,L|182:139,1,76.8,2|0,0:0|0:0,0:0:0:0:
134,338,205894,5,2,3:2:0:0:
306,294,206052,2,0,L|221:289,1,76.8,2|0,0:0|0:0,0:0:0:0:
450,108,206368,2,0,L|440:196,1,76.8,2|8,0:0|3:2,0:0:0:0:
292,359,206684,2,0,P|318:320|318:259,1,76.8,2|0,0:0|0:0,0:0:0:0:
113,211,207000,1,2,0:0:0:0:
113,211,207157,6,0,P|139:258|233:289,1,153.6,0|0,3:0|0:0,0:0:0:0:
417,220,207631,1,0,0:0:0:0:
417,220,207789,2,0,L|320:217,1,76.8,10|0,1:2|0:0,0:0:0:0:
159,71,208105,1,2,0:0:0:0:
330,92,208263,1,0,0:0:0:0:
134,246,208421,5,2,3:2:0:0:
134,246,208578,2,0,L|124:154,1,76.8,2|0,0:0|0:0,0:0:0:0:
330,325,208894,2,0,L|338:248,1,76.8,2|8,0:0|3:2,0:0:0:0:
244,50,209210,2,0,L|235:126,1,76.8,2|0,0:2|0:0,0:0:0:0:
194,313,209526,1,2,0:0:0:0:
394,252,209684,5,0,3:0:0:0:
394,252,209842,2,0,P|332:233|253:267,1,153.6,2|0,0:0|0:0,0:0:0:0:
427,355,210315,1,8,3:2:0:0:
427,355,210631,1,2,0:0:0:0:
466,200,210789,1,2,0:0:0:0:
234,100,210947,5,0,3:0:0:0:
347,237,211105,2,0,L|273:255,1,76.8,2|0,0:0|0:0,0:0:0:0:
28,202,211421,2,0,L|102:219,1,76.8,2|8,0:0|3:2,0:0:0:0:
329,340,211736,1,2,0:0:0:0:
317,143,211894,1,2,0:0:0:0:
316,118,212210,6,0,P|381:128|466:71,1,153.6,0|0,3:0|0:0,0:0:0:0:
455,86,212684,1,0,0:0:0:0:
217,185,212842,2,0,P|192:224|187:264,1,76.8
200,68,213157,2,0,P|191:30|169:0,1,76.8
39,163,213473,5,0,0:0:0:0:
245,169,213631,2,0,L|337:172,1,76.8
151,271,213947,1,0,0:0:0:0:
230,80,214105,1,0,0:0:0:0:
288,321,214263,1,0,0:0:0:0:
391,208,214421,2,0,P|400:171|391:134,1,76.8
321,348,214736,6,0,L|489:343,1,153.6
492,227,215210,1,0,0:0:0:0:
297,188,215368,2,0,L|308:280,1,76.8
480,140,215684,2,0,L|469:48,1,76.8
392,227,216000,5,0,0:0:0:0:
280,73,216157,2,0,L|266:210,1,115.2
280,212,216473,1,0,0:0:0:0:
375,42,216631,2,0,L|280:52,1,76.8
76,169,216947,2,0,L|152:177,1,76.8
120,307,217263,6,0,P|77:244|76:169,1,153.6
156,50,217736,1,0,0:0:0:0:
264,161,217894,2,0,L|340:158,1,76.8
443,46,218210,2,0,L|366:43,1,76.8
475,192,218526,5,0,0:0:0:0:
330,140,218684,2,0,L|345:231,1,76.8
454,72,219000,1,0,0:0:0:0:
497,312,219157,2,0,P|459:319|421:316,1,76.8
184,271,219473,2,0,L|291:265,1,76.8
162,298,219789,6,0,P|113:241|93:167,1,153.6
8,250,220263,1,0,0:0:0:0:
135,89,220421,2,0,P|99:76|62:83,1,76.8
201,180,220736,1,0,0:0:0:0:
294,138,220894,1,0,0:0:0:0:
415,296,221052,5,0,0:0:0:0:
476,215,221210,1,0,0:0:0:0:
375,202,221368,1,0,0:0:0:0:
511,309,221526,1,0,0:0:0:0:
318,283,221684,1,0,0:0:0:0:
435,122,221842,1,0,0:0:0:0:
415,296,222000,2,0,L|406:377,1,76.8
282,199,222315,6,0,P|256:136|329:47,1,192
163,172,222789,1,0,0:0:0:0:
350,136,222947,2,0,P|408:137|458:143,1,96
447,321,223263,1,0,0:0:0:0:
466,129,223421,6,0,L|474:246,1,96
278,302,223736,1,0,0:0:0:0:
278,302,223894,2,0,L|284:206,1,96
294,126,224131,1,0,0:0:0:0:
294,126,224210,1,0,0:0:0:0:
118,252,224368,1,0,0:0:0:0:
108,108,224526,2,0,L|119:280,1,144
125,355,224842,5,0,0:0:0:0:
277,113,225157,1,0,0:0:0:0:
123,89,225315,1,0,0:0:0:0:
123,89,225394,1,0,0:0:0:0:
123,89,225473,1,0,0:0:0:0:
197,198,225631,1,0,0:0:0:0:
217,32,225789,2,0,P|258:14|310:16,1,96
308,16,226263,5,0,0:0:0:0:
467,150,226421,2,0,P|421:161|373:163,1,96
164,208,226736,2,0,P|211:210|258:221,1,96
508,293,227052,2,0,L|364:285,1,144
320,283,227368,6,0,L|526:272,1,192
266,384,227842,1,0,0:0:0:0:
287,120,228000,1,0,0:0:0:0:
339,283,228157,1,0,0:0:0:0:
144,207,228315,2,0,L|151:81,1,96
192,304,228631,5,0,0:0:0:0:
23,253,228789,1,0,0:0:0:0:
254,220,228947,1,0,0:0:0:0:
66,357,229105,1,0,0:0:0:0:
66,357,229184,1,0,0:0:0:0:
66,357,229263,2,0,L|57:250,1,96
262,124,229578,2,0,L|254:220,1,96
121,56,229894,5,0,0:0:0:0:
121,56,230210,1,0,0:0:0:0:
149,263,230368,1,0,0:0:0:0:
238,112,230526,1,0,0:0:0:0:
42,242,230684,1,0,0:0:0:0:
255,281,230842,2,0,P|302:288|350:289,1,96
404,71,231157,6,0,P|373:107|348:149,1,96
511,305,231473,2,0,P|494:260|470:218,1,96
470,218,231710,1,0,0:0:0:0:
470,218,231789,1,0,0:0:0:0:
368,313,231947,1,0,0:0:0:0:
317,138,232105,1,0,0:0:0:0:
317,138,232263,1,0,0:0:0:0:
158,316,232421,6,0,P|106:218|216:229,1,268.799991796875
96,128,233368,1,0,0:0:0:0:
296,243,233684,2,0,P|225:134|96:128,1,268.799991796875
157,315,234947,6,0,P|248:365|294:239,1,268.799991796875
0,88,236210,2,0,P|110:45|139:161,1,268.799991796875
270,247,237473,6,0,B|307:193|387:205|387:205|439:150|390:66,1,268.799991796875
363,337,238421,1,0,0:0:0:0:
331,129,238736,2,0,B|255:130|209:191|209:191|145:182|110:117,1,268.799991796875
478,329,240000,6,0,L|457:58,1,268.799991796875
120,0,241263,2,0,L|99:267,1,268.799991796875
97,298,242526,6,0,P|166:323|338:312,1,230.39999296875
356,121,243473,1,0,0:0:0:0:
304,302,243789,6,0,L|296:176,1,115.199996484375
389,231,244263,2,0,P|418:234|447:231,1,57.5999982421876
323,87,244578,2,0,P|267:90|219:121,1,115.199996484375
296,187,245052,6,0,L|471:210,1,172.799994726563
105,136,246000,1,0,0:0:0:0:
105,136,246631,6,0,L|111:56,1,57.5999982421876
208,208,246947,2,0,L|202:128,1,57.5999982421876
105,280,247263,2,0,L|109:222,1,57.5999982421876
208,352,247578,6,0,P|277:327|449:338,1,230.39999296875
229,227,248526,1,0,0:0:0:0:
434,145,248842,6,0,L|307:141,1,115.199996484375
249,248,249315,2,0,L|364:244,1,115.199996484375
434,351,249789,2,0,L|318:347,1,115.199996484375
100,113,250421,6,0,P|103:170|96:227,1,115.199996484375
291,142,250894,2,0,P|284:84|287:27,1,115.199996484375
364,244,251368,2,0,L|249:248,1,115.199996484375
105,253,251842,1,0,0:0:0:0:
105,253,252000,6,0,L|107:154,1,96
313,296,252631,6,0,P|197:329|105:253,1,249.599988574219
226,197,253578,1,0,0:0:0:0:
92,93,253894,6,0,L|216:86,1,124.79999428711
268,12,254368,1,0,0:0:0:0:
373,210,254684,1,0,0:0:0:0:
216,85,255000,1,0,0:0:0:0:
216,85,255157,6,0,P|215:147|223:209,1,124.79999428711
339,230,255631,2,0,P|339:292|331:354,1,124.79999428711
217,384,256105,1,0,0:0:0:0:
217,384,256736,6,0,L|151:376,1,62.3999971435548
281,269,257052,2,0,L|347:261,1,62.3999971435548
214,109,257368,2,0,L|152:101,1,62.3999971435548
279,192,257684,6,0,P|315:138|276:24,1,187.199991430664
281,28,258315,1,0,0:0:0:0:
429,148,258631,1,0,0:0:0:0:
251,212,258947,6,0,L|397:222,1,124.79999428711
214,109,259421,2,0,L|89:117,1,124.79999428711
146,380,259894,2,0,P|164:317|112:198,1,187.199991430664
245,84,260526,6,0,P|233:153|257:228,1,124.79999428711
458,145,261000,2,0,P|389:133|314:157,1,124.79999428711
336,367,261473,2,0,L|336:230,1,124.79999428711
237,325,261947,1,0,0:0:0:0:
152,247,262105,6,0,L|95:246,3,31.1999985717774
102,348,262421,2,0,L|45:349,4,31.1999985717774
