osu file format v14

[General]
AudioFilename: audio.mp3
AudioLeadIn: 0
PreviewTime: 71889
Countdown: 0
SampleSet: Drum
StackLeniency: 0.7
Mode: 0
LetterboxInBreaks: 0
WidescreenStoryboard: 0

[Editor]
DistanceSpacing: 0.8
BeatDivisor: 4
GridSize: 8
TimelineZoom: 2.3

[Metadata]
Title:Necrofantasia
TitleUnicode:Necrofantasia
Artist:RichaadEB
ArtistUnicode:RichaadEB
Creator:Sytex
Version:Extra Stage
Source:Touhou
Tags:richaadeb Necrofantasia touhou remix bullet hell perfect cherry blossom extra stage yukari yakumo touhou 7
BeatmapID:1981806
BeatmapSetID:949038

[Difficulty]
HPDrainRate:5.3
CircleSize:4.3
OverallDifficulty:9
ApproachRate:9.3
SliderMultiplier:1.4
SliderTickRate:1

[Events]
//Background and Video events
0,0,"necrofantasia4.jpg",0,0
//Break Periods
//Storyboard Layer 0 (Background)
//Storyboard Layer 1 (Fail)
//Storyboard Layer 2 (Pass)
//Storyboard Layer 3 (Foreground)
//Storyboard Layer 4 (Overlay)
//Storyboard Sound Samples

[TimingPoints]
182,365.853658536585,4,3,1,60,1,0
1828,-100,4,2,0,60,0,0
4755,-100,4,3,1,60,0,0
4938,-100,4,2,0,60,0,0
7133,-66.6666666666667,4,3,1,60,0,0
13718,-57.1428571428571,4,3,1,60,0,1
25242,-57.1428571428571,4,3,1,60,0,0
48657,-100,4,3,1,60,0,0
73535,-57.1428571428571,4,3,1,60,0,1
166279,-57.1428571428571,4,3,1,65,0,1
166553,-57.1428571428571,4,3,1,70,0,1
166828,-57.1428571428571,4,3,1,75,0,1
167011,-57.1428571428571,4,3,1,80,0,1
167194,-66.6666666666667,4,3,1,60,0,0
167560,-100,4,2,0,60,0,0
169938,-100,4,3,1,60,0,0
170303,-100,4,2,0,60,0,0
172316,-100,4,3,1,60,0,0
172681,-66.6666666666667,4,3,1,60,0,0
178901,-66.6666666666667,4,3,1,60,0,1
190608,-66.6666666666667,4,3,1,60,0,0

[Colours]
Combo1 : 0,128,192
Combo2 : 141,10,132
Combo3 : 182,12,12
Combo4 : 168,168,168
Combo5 : 128,64,64
Combo6 : 241,199,31

[HitObjects]
83,40,182,5,0,0:0:0:0:
109,51,273,1,0,0:0:0:0:
135,60,364,2,0,L|189:82,1,35,8|0,0:0|0:0,0:0:0:0:
332,114,547,2,0,L|278:136,1,35
160,185,730,2,0,L|214:207,1,35,8|0,0:0|0:0,0:0:0:0:
337,239,913,2,0,L|283:261,1,35
151,318,1096,2,0,L|205:340,1,35,8|0,0:0|0:0,0:0:0:0:
330,368,1279,2,0,L|349:334,2,23.3333333333333,8|8|8,0:0|0:0|0:0,0:0:0:0:
330,368,1462,2,0,L|383:343,1,35,8|0,0:0|0:0,0:0:0:0:
491,235,1645,5,0,0:0:0:0:
493,200,1736,1,0,0:0:0:0:
478,168,1828,2,0,P|446:139|419:92,1,70,2|0,0:0|0:0,0:0:0:0:
373,16,2194,1,0,0:0:0:0:
273,72,2377,2,0,P|235:92|196:97,1,70,2|0,0:0|0:0,0:0:0:0:
95,83,2742,1,0,0:0:0:0:
95,83,2925,1,0,0:0:0:0:
101,199,3108,6,0,P|106:244|129:292,1,70,2|0,0:0|0:0,0:0:0:0:
197,183,3474,1,0,0:0:0:0:
197,183,3657,1,0,0:0:0:0:
221,295,3840,2,0,P|240:331|267:350,1,70,2|0,0:0|0:0,0:0:0:0:
378,348,4206,1,0,0:0:0:0:
452,301,4389,1,0,0:0:0:0:
367,251,4572,1,2,0:0:0:0:
433,62,4755,5,8,0:0:0:0:
433,62,4938,1,0,0:0:0:0:
319,48,5121,1,0,0:0:0:0:
331,161,5303,2,0,P|269:139|246:118,1,70,2|0,0:0|0:0,0:0:0:0:
187,51,5669,1,0,0:0:0:0:
187,51,5852,1,0,0:0:0:0:
129,145,6035,6,0,L|147:221,1,70,2|0,0:0|0:0,0:0:0:0:
213,341,6401,1,0,0:0:0:0:
213,341,6584,2,0,L|241:268,1,70,0|2,0:0|0:0,0:0:0:0:
291,136,6950,1,0,0:0:0:0:
458,132,7133,1,0,0:0:0:0:
442,163,7224,1,0,0:0:0:0:
434,197,7316,2,0,L|442:254,1,52.5000020027161,10|0,0:0|0:0,0:0:0:0:
314,307,7499,5,0,0:0:0:0:
314,307,7590,1,0,0:0:0:0:
314,307,7681,2,0,L|291:360,1,52.5000020027161,10|0,0:0|0:0,0:0:0:0:
166,340,7864,2,0,L|197:298,1,52.5000020027161,2|0,0:0|0:0,0:0:0:0:
85,267,8047,2,0,L|34:304,1,52.5000020027161,10|0,0:0|0:0,0:0:0:0:
14,189,8230,2,0,L|36:131,1,52.5000020027161,2|0,0:0|0:0,0:0:0:0:
156,53,8413,1,8,0:0:0:0:
156,53,8505,1,0,0:0:0:0:
156,53,8596,2,0,L|181:132,1,52.5000020027161,2|0,0:0|0:0,0:0:0:0:
272,185,8779,2,0,L|290:131,1,52.5000020027161,10|0,0:0|0:0,0:0:0:0:
378,44,8962,6,0,L|406:117,1,52.5000020027161,2|0,0:0|0:0,0:0:0:0:
439,202,9145,1,8,0:0:0:0:
439,202,9236,1,0,0:0:0:0:
439,202,9328,2,0,L|369:239,1,52.5000020027161,2|0,0:0|0:0,0:0:0:0:
365,342,9511,2,0,L|269:315,1,52.5000020027161,10|0,0:0|0:0,0:0:0:0:
265,241,9694,2,0,L|195:278,1,52.5000020027161,2|0,0:0|0:0,0:0:0:0:
199,353,9877,2,0,L|123:327,1,52.5000020027161,10|0,0:0|0:0,0:0:0:0:
121,224,10060,1,0,0:0:0:0:
121,224,10151,1,0,0:0:0:0:
121,224,10242,2,0,L|188:188,1,52.5000020027161,10|0,0:0|0:0,0:0:0:0:
166,91,10425,5,0,0:0:0:0:
166,91,10517,1,0,0:0:0:0:
166,91,10608,2,0,L|99:55,1,52.5000020027161,10|0,0:0|0:0,0:0:0:0:
12,10,10791,1,0,0:0:0:0:
20,40,10883,1,0,0:0:0:0:
27,70,10974,1,0,0:0:0:0:
36,100,11066,1,0,0:0:0:0:
47,140,11157,5,8,0:0:0:0:
26,177,11249,1,0,0:0:0:0:
16,217,11340,1,0,0:0:0:0:
25,257,11431,1,0,0:0:0:0:
50,290,11523,1,0,0:0:0:0:
89,302,11614,1,0,0:0:0:0:
137,281,11706,5,8,0:0:0:0:
153,231,11797,1,0,0:0:0:0:
190,193,11889,1,0,0:0:0:0:
240,181,11980,1,0,0:0:0:0:
291,193,12072,1,0,0:0:0:0:
327,230,12163,1,0,0:0:0:0:
337,281,12255,5,8,0:0:0:0:
285,271,12346,1,0,0:0:0:0:
249,231,12438,1,8,0:0:0:0:
240,181,12529,1,0,0:0:0:0:
258,131,12621,1,0,0:0:0:0:
302,103,12712,1,0,0:0:0:0:
354,107,12803,2,0,P|386:118|412:141,1,52.5000020027161,2|0,0:0|0:0,0:0:0:0:
380,205,12986,2,0,P|403:229|415:262,1,52.5000020027161,2|0,0:0|0:0,0:0:0:0:
276,187,13169,2,0,P|255:213|245:247,1,52.5000020027161
322,283,13352,2,0,P|316:316|323:350,1,52.5000020027161,2|0,0:0|0:0,0:0:0:0:
164,326,13535,5,12,0:0:0:0:
109,306,13627,1,0,0:0:0:0:
77,259,13718,2,0,P|73:220|85:163,1,61.2500005841255,2|0,0:0|0:0,0:0:0:0:
225,77,13901,2,0,P|219:114|203:146,1,61.2500005841255,10|0,0:0|0:0,0:0:0:0:
30,174,14084,2,0,P|45:116|68:77,1,61.2500005841255,2|0,0:0|0:0,0:0:0:0:
256,22,14267,1,8,0:0:0:0:
293,62,14358,1,0,0:0:0:0:
310,113,14450,2,0,P|321:159|324:199,1,61.2500005841255,2|0,0:0|0:0,0:0:0:0:
239,343,14633,2,0,P|232:297|232:270,1,61.2500005841255,10|0,0:0|0:0,0:0:0:0:
395,180,14816,6,0,P|375:234|356:262,1,61.2500005841255,2|0,0:0|0:0,0:0:0:0:
184,287,14999,1,12,0:0:0:0:
152,238,15090,1,0,0:0:0:0:
142,180,15181,2,0,P|143:138|158:100,1,61.2500005841255,2|0,0:0|0:0,0:0:0:0:
322,33,15364,2,0,P|295:81|260:107,1,61.2500005841255,10|0,0:0|0:0,0:0:0:0:
81,87,15547,2,0,P|126:42|158:27,1,61.2500005841255,2|0,0:0|0:0,0:0:0:0:
359,33,15730,1,8,0:0:0:0:
413,52,15822,1,0,0:0:0:0:
447,98,15913,2,0,P|449:140|440:178,1,61.2500005841255,2|0,0:0|0:0,0:0:0:0:
411,298,16096,2,0,P|376:308|340:310,1,61.2500005841255,10|0,0:0|0:0,0:0:0:0:
225,201,16279,2,0,P|195:210|170:226,1,61.2500005841255,2|0,0:0|0:0,0:0:0:0:
48,344,16462,6,0,P|78:339|107:331,1,61.2500005841255,14|0,0:0|0:0,0:0:0:0:
240,331,16645,2,0,P|257:303|267:276,1,61.2500005841255,2|0,0:0|0:0,0:0:0:0:
403,223,16828,2,0,P|386:197|365:175,1,61.2500005841255,10|0,0:0|0:0,0:0:0:0:
239,145,17011,2,0,P|258:179|281:204,1,61.2500005841255,2|0,0:0|0:0,0:0:0:0:
478,237,17194,1,8,0:0:0:0:
464,181,17285,1,0,0:0:0:0:
431,132,17377,2,0,P|384:100|343:84,1,61.2500005841255,2|0,0:0|0:0,0:0:0:0:
178,220,17560,2,0,P|206:240|247:248,1,61.2500005841255,10|0,0:0|0:0,0:0:0:0:
418,180,17742,6,0,P|389:175|331:195,1,61.2500005841255,6|0,0:0|0:0,0:0:0:0:
188,316,17925,1,8,0:0:0:0:
126,316,18017,1,0,0:0:0:0:
75,281,18108,2,0,P|57:247|51:198,1,61.2500005841255,2|0,0:0|0:0,0:0:0:0:
222,157,18291,2,0,P|256:93|260:74,1,61.2500005841255,10|0,0:0|0:0,0:0:0:0:
55,68,18474,2,0,P|27:11|22:-12,1,61.2500005841255,2|0,0:0|0:0,0:0:0:0:
269,21,18657,1,14,0:0:0:0:
330,15,18749,1,2,0:0:0:0:
388,30,18840,1,2,0:0:0:0:
432,71,18931,1,2,0:0:0:0:
451,129,19023,2,0,P|454:196|446:223,1,61.2500005841255,10|0,0:0|0:0,0:0:0:0:
372,352,19206,2,0,P|375:285|367:258,1,61.2500005841255,2|0,0:0|0:0,0:0:0:0:
341,127,19389,6,0,P|328:188|318:210,1,61.2500005841255,14|0,0:0|0:0,0:0:0:0:
229,272,19572,2,0,P|261:297|294:314,1,61.2500005841255,2|0,0:0|0:0,0:0:0:0:
439,261,19755,2,0,P|395:226|342:205,1,61.2500005841255,10|0,0:0|0:0,0:0:0:0:
205,133,19938,1,0,0:0:0:0:
143,119,20029,1,0,0:0:0:0:
85,138,20121,1,8,0:0:0:0:
44,183,20212,1,0,0:0:0:0:
27,241,20303,2,0,P|32:289|43:314,1,61.2500005841255,2|0,0:0|0:0,0:0:0:0:
192,353,20486,2,0,P|179:291|179:274,1,61.2500005841255,10|0,0:0|0:0,0:0:0:0:
195,116,20669,5,4,0:0:0:0:
204,176,20761,1,0,0:0:0:0:
234,228,20852,1,8,0:0:0:0:
288,256,20944,1,0,0:0:0:0:
348,262,21035,1,0,0:0:0:0:
406,241,21127,1,0,0:0:0:0:
448,197,21218,2,0,P|410:157|383:142,1,61.2500005841255,10|0,0:0|0:0,0:0:0:0:
217,80,21401,2,0,P|253:126|265:135,1,61.2500005841255,2|0,0:0|0:0,0:0:0:0:
193,272,21584,2,0,P|242:268|272:257,1,61.2500005841255,10|0,0:0|0:0,0:0:0:0:
448,197,21767,2,0,P|412:243|400:252,1,61.2500005841255,2|0,0:0|0:0,0:0:0:0:
320,372,21950,2,0,P|271:377|239:372,1,61.2500005841255,10|0,0:0|0:0,0:0:0:0:
114,278,22133,5,0,0:0:0:0:
74,231,22224,1,0,0:0:0:0:
58,171,22316,2,0,P|63:111|70:91,1,61.2500005841255,14|0,0:0|0:0,0:0:0:0:
234,90,22499,2,0,P|270:36|295:18,1,61.2500005841255,2|0,0:0|0:0,0:0:0:0:
426,92,22681,2,0,P|476:62|489:60,1,61.2500005841255,10|0,0:0|0:0,0:0:0:0:
416,176,22864,1,0,0:0:0:0:
367,169,22956,1,0,0:0:0:0:
320,182,23047,1,8,0:0:0:0:
283,215,23139,1,0,0:0:0:0:
264,260,23230,2,0,P|313:291|326:294,1,61.2500005841255,2|0,0:0|0:0,0:0:0:0:
458,361,23413,2,0,P|404:345|377:344,1,61.2500005841255,10|0,0:0|0:0,0:0:0:0:
216,347,23596,5,4,0:0:0:0:
154,356,23688,1,0,0:0:0:0:
99,327,23779,1,8,0:0:0:0:
75,270,23871,1,0,0:0:0:0:
94,210,23962,1,4,0:0:0:0:
140,172,24053,1,0,0:0:0:0:
200,181,24145,1,8,0:0:0:0:
246,221,24236,1,0,0:0:0:0:
251,282,24328,1,4,0:0:0:0:
216,333,24419,1,0,0:0:0:0:
167,294,24511,6,8,L|145:224,5,40.8333337227503,2|0|0|0|0|0,0:0|0:0|0:0|0:0|0:0|0:0,0:0:0:0:
157,214,24877,1,2,0:0:0:0:
172,168,24968,1,2,0:0:0:0:
206,133,25060,1,2,0:0:0:0:
253,124,25151,1,2,0:0:0:0:
297,144,25242,6,0,B|361:191|371:125|458:186,1,122.500001168251,8|0,0:0|0:0,0:0:0:0:
370,312,25608,1,8,0:0:0:0:
370,312,25974,1,0,0:0:0:0:
370,312,26066,1,0,0:0:0:0:
370,312,26157,1,0,0:0:0:0:
334,277,26249,1,0,0:0:0:0:
287,263,26340,1,0,0:0:0:0:
240,276,26431,1,0,0:0:0:0:
190,277,26523,1,0,0:0:0:0:
143,262,26614,1,0,0:0:0:0:
110,224,26706,1,12,0:0:0:0:
88,136,27072,5,8,0:0:0:0:
88,136,27438,1,0,0:0:0:0:
88,136,27529,1,0,0:0:0:0:
88,136,27621,1,0,0:0:0:0:
124,103,27712,1,0,0:0:0:0:
170,88,27803,1,0,0:0:0:0:
216,105,27895,1,0,0:0:0:0:
252,137,27986,1,0,0:0:0:0:
298,152,28078,1,0,0:0:0:0:
346,149,28169,1,12,0:0:0:0:
301,38,28535,5,8,0:0:0:0:
301,38,28901,1,0,0:0:0:0:
301,38,28992,1,0,0:0:0:0:
301,38,29084,1,0,0:0:0:0:
263,68,29175,1,0,0:0:0:0:
241,112,29267,1,0,0:0:0:0:
245,160,29358,1,0,0:0:0:0:
268,203,29450,1,0,0:0:0:0:
273,251,29541,1,0,0:0:0:0:
259,298,29633,5,2,0:0:0:0:
243,307,29724,1,2,0:0:0:0:
227,316,29816,1,2,0:0:0:0:
210,324,29907,1,2,0:0:0:0:
194,313,29999,1,2,0:0:0:0:
177,320,30090,1,2,0:0:0:0:
160,327,30181,1,2,0:0:0:0:
143,335,30273,1,2,0:0:0:0:
129,322,30364,1,2,0:0:0:0:
112,329,30456,1,2,0:0:0:0:
95,336,30547,1,2,0:0:0:0:
78,343,30639,1,2,0:0:0:0:
37,315,30730,5,4,0:0:0:0:
27,266,30822,1,0,0:0:0:0:
39,218,30913,1,8,0:0:0:0:
75,184,31005,1,0,0:0:0:0:
123,175,31096,1,0,0:0:0:0:
169,190,31188,1,0,0:0:0:0:
204,222,31279,1,8,0:0:0:0:
249,240,31371,1,0,0:0:0:0:
297,236,31462,1,0,0:0:0:0:
341,216,31553,1,0,0:0:0:0:
376,181,31645,5,12,0:0:0:0:
342,145,31736,1,0,0:0:0:0:
296,125,31828,1,0,0:0:0:0:
247,130,31919,1,0,0:0:0:0:
208,160,32011,1,8,0:0:0:0:
168,188,32102,1,0,0:0:0:0:
120,202,32194,1,0,0:0:0:0:
72,189,32285,1,0,0:0:0:0:
31,161,32377,1,8,0:0:0:0:
16,114,32468,1,0,0:0:0:0:
29,66,32560,5,4,0:0:0:0:
76,75,32651,1,0,0:0:0:0:
101,116,32742,1,8,0:0:0:0:
102,165,32834,1,0,0:0:0:0:
88,211,32925,5,4,0:0:0:0:
132,232,33017,1,0,0:0:0:0:
179,221,33108,1,8,0:0:0:0:
217,190,33200,1,0,0:0:0:0:
263,174,33291,1,0,0:0:0:0:
309,189,33383,1,0,0:0:0:0:
347,219,33474,1,8,0:0:0:0:
371,261,33566,1,0,0:0:0:0:
376,309,33657,1,0,0:0:0:0:
360,355,33749,1,0,0:0:0:0:
316,377,33840,1,8,0:0:0:0:
268,366,33931,1,0,0:0:0:0:
240,325,34023,5,4,0:0:0:0:
276,292,34114,1,0,0:0:0:0:
325,290,34206,1,8,0:0:0:0:
366,315,34297,1,0,0:0:0:0:
414,324,34389,1,0,0:0:0:0:
459,307,34480,1,0,0:0:0:0:
493,272,34572,1,8,0:0:0:0:
497,223,34663,1,0,0:0:0:0:
468,182,34755,1,0,0:0:0:0:
424,159,34846,1,0,0:0:0:0:
374,156,34938,1,8,0:0:0:0:
331,180,35029,1,0,0:0:0:0:
311,225,35121,1,0,0:0:0:0:
294,270,35212,1,0,0:0:0:0:
259,304,35303,1,8,0:0:0:0:
214,325,35395,1,0,0:0:0:0:
165,320,35486,1,4,0:0:0:0:
127,287,35578,1,0,0:0:0:0:
115,239,35669,5,12,0:0:0:0:
161,221,35761,1,0,0:0:0:0:
208,233,35852,1,0,0:0:0:0:
244,265,35944,1,0,0:0:0:0:
262,310,36035,1,12,0:0:0:0:
309,297,36127,1,0,0:0:0:0:
341,260,36218,1,0,0:0:0:0:
353,212,36310,1,0,0:0:0:0:
339,165,36401,1,8,0:0:0:0:
310,125,36492,1,0,0:0:0:0:
264,105,36584,1,0,0:0:0:0:
215,112,36675,1,0,0:0:0:0:
180,146,36767,1,8,0:0:0:0:
137,170,36858,1,0,0:0:0:0:
87,174,36950,1,4,0:0:0:0:
46,147,37041,1,0,0:0:0:0:
37,98,37133,5,12,0:0:0:0:
94,78,37224,1,0,0:0:0:0:
151,99,37316,1,0,0:0:0:0:
186,148,37407,1,0,0:0:0:0:
195,208,37499,1,8,0:0:0:0:
181,267,37590,1,0,0:0:0:0:
189,327,37681,1,0,0:0:0:0:
227,374,37773,1,0,0:0:0:0:
287,373,37864,1,8,0:0:0:0:
344,351,37956,1,0,0:0:0:0:
369,295,38047,1,0,0:0:0:0:
365,233,38139,1,0,0:0:0:0:
318,193,38230,1,8,0:0:0:0:
258,177,38322,1,0,0:0:0:0:
216,132,38413,1,4,0:0:0:0:
211,70,38505,1,0,0:0:0:0:
243,18,38596,5,12,0:0:0:0:
294,52,38688,1,0,0:0:0:0:
302,112,38779,1,0,0:0:0:0:
270,165,38871,1,0,0:0:0:0:
214,190,38962,1,8,0:0:0:0:
153,185,39053,1,0,0:0:0:0:
113,138,39145,1,0,0:0:0:0:
108,77,39236,1,0,0:0:0:0:
143,26,39328,1,8,0:0:0:0:
203,18,39419,1,0,0:0:0:0:
253,53,39511,1,0,0:0:0:0:
271,111,39602,1,0,0:0:0:0:
295,167,39694,1,8,0:0:0:0:
343,203,39785,1,0,0:0:0:0:
403,216,39877,5,4,0:0:0:0:
370,164,39968,1,0,0:0:0:0:
310,149,40060,1,8,0:0:0:0:
260,184,40151,1,0,0:0:0:0:
229,236,40242,1,0,0:0:0:0:
224,297,40334,1,0,0:0:0:0:
202,353,40425,1,8,0:0:0:0:
145,376,40517,1,0,0:0:0:0:
90,349,40608,1,0,0:0:0:0:
55,297,40700,1,0,0:0:0:0:
58,236,40791,1,8,0:0:0:0:
100,191,40883,1,0,0:0:0:0:
159,179,40974,1,0,0:0:0:0:
215,203,41066,1,0,0:0:0:0:
272,222,41157,1,8,0:0:0:0:
332,211,41249,1,0,0:0:0:0:
378,170,41340,5,4,0:0:0:0:
335,119,41431,1,0,0:0:0:0:
267,119,41523,1,8,0:0:0:0:
220,167,41614,1,0,0:0:0:0:
161,202,41706,1,0,0:0:0:0:
95,189,41797,1,0,0:0:0:0:
59,131,41889,1,8,0:0:0:0:
71,65,41980,1,0,0:0:0:0:
127,27,42072,1,4,0:0:0:0:
194,25,42163,1,0,0:0:0:0:
251,60,42255,5,10,0:0:0:0:
265,79,42346,1,2,0:0:0:0:
279,98,42438,1,2,0:0:0:0:
294,116,42529,1,2,0:0:0:0:
308,135,42621,1,14,0:0:0:0:
355,146,42712,1,0,0:0:0:0:
401,130,42803,1,0,0:0:0:0:
432,91,42895,1,0,0:0:0:0:
426,42,42986,1,8,0:0:0:0:
388,10,43078,1,0,0:0:0:0:
339,10,43169,1,0,0:0:0:0:
305,46,43261,1,0,0:0:0:0:
306,94,43352,5,12,0:0:0:0:
298,142,43444,1,0,0:0:0:0:
271,182,43535,1,0,0:0:0:0:
223,194,43627,1,0,0:0:0:0:
176,179,43718,1,8,0:0:0:0:
150,137,43810,1,0,0:0:0:0:
150,88,43901,2,0,P|185:79|232:78,1,61.2500005841255,4|0,0:0|0:0,0:0:0:0:
437,142,44084,5,8,0:0:0:0:
437,142,44175,1,0,0:0:0:0:
437,142,44267,2,0,P|408:164|366:185,1,61.2500005841255,4|0,0:0|0:0,0:0:0:0:
178,185,44450,1,8,0:0:0:0:
178,185,44541,1,0,0:0:0:0:
178,185,44633,2,0,P|215:158|243:146,1,61.2500005841255,4|0,0:0|0:0,0:0:0:0:
426,252,44816,1,8,0:0:0:0:
426,252,44907,1,0,0:0:0:0:
426,252,44999,2,0,P|393:258|356:255,1,61.2500005841255,4|0,0:0|0:0,0:0:0:0:
229,72,45181,1,8,0:0:0:0:
229,72,45273,1,0,0:0:0:0:
229,72,45364,2,0,P|265:78|291:89,1,61.2500005841255,4|0,0:0|0:0,0:0:0:0:
326,273,45547,5,10,0:0:0:0:
306,288,45639,1,2,0:0:0:0:
287,303,45730,1,2,0:0:0:0:
267,318,45822,1,2,0:0:0:0:
248,334,45913,5,14,0:0:0:0:
199,342,46005,1,0,0:0:0:0:
158,314,46096,1,0,0:0:0:0:
142,267,46188,1,0,0:0:0:0:
160,221,46279,1,8,0:0:0:0:
200,192,46371,1,0,0:0:0:0:
230,154,46462,1,0,0:0:0:0:
240,106,46553,1,0,0:0:0:0:
214,63,46645,1,8,0:0:0:0:
172,37,46736,1,0,0:0:0:0:
123,43,46828,1,0,0:0:0:0:
86,75,46919,1,0,0:0:0:0:
76,123,47011,5,8,0:0:0:0:
91,169,47102,1,0,0:0:0:0:
133,193,47194,1,4,0:0:0:0:
181,188,47285,1,0,0:0:0:0:
225,167,47377,1,8,0:0:0:0:
273,162,47468,1,0,0:0:0:0:
316,184,47560,1,0,0:0:0:0:
344,223,47651,1,0,0:0:0:0:
348,271,47742,1,8,0:0:0:0:
330,316,47834,1,0,0:0:0:0:
289,342,47925,5,4,0:0:0:0:
265,298,48017,1,0,0:0:0:0:
282,252,48108,1,8,0:0:0:0:
324,226,48200,1,0,0:0:0:0:
361,194,48291,1,0,0:0:0:0:
382,149,48383,1,0,0:0:0:0:
378,100,48474,1,8,0:0:0:0:
348,60,48566,1,0,0:0:0:0:
304,39,48657,2,0,B|268:31|239:52|239:52|227:91|176:113,1,140,6|0,0:0|0:0,0:0:0:0:
82,156,49206,5,0,0:0:0:0:
82,156,49572,1,8,0:0:0:0:
117,357,49755,1,8,0:0:0:0:
247,194,49938,1,2,0:0:0:0:
32,235,50121,2,0,B|104:281|97:217|194:278,1,140
282,343,50669,1,0,0:0:0:0:
282,343,51035,1,8,0:0:0:0:
271,177,51218,1,8,0:0:0:0:
430,292,51401,5,2,0:0:0:0:
408,93,51584,1,8,0:0:0:0:
321,33,51767,1,0,0:0:0:0:
220,63,51950,1,0,0:0:0:0:
102,278,52133,5,8,0:0:0:0:
204,257,52316,1,0,0:0:0:0:
271,177,52499,1,0,0:0:0:0:
336,356,52681,5,2,0:0:0:0:
336,356,52773,1,2,0:0:0:0:
336,356,52864,1,2,0:0:0:0:
336,356,52956,1,2,0:0:0:0:
336,356,53047,1,2,0:0:0:0:
231,346,53230,1,0,0:0:0:0:
151,277,53413,1,0,0:0:0:0:
134,173,53596,1,0,0:0:0:0:
162,71,53779,1,0,0:0:0:0:
258,29,53962,6,0,B|284:35|284:35|304:27|304:27|352:39,1,70,10|0,0:0|0:0,0:0:0:0:
475,48,54236,1,2,0:0:0:0:
466,62,54328,1,2,0:0:0:0:
458,77,54419,1,2,0:0:0:0:
431,87,54511,5,2,0:0:0:0:
426,96,54602,1,2,0:0:0:0:
421,105,54694,1,2,0:0:0:0:
415,114,54785,1,2,0:0:0:0:
410,123,54877,1,2,0:0:0:0:
406,132,54968,1,2,0:0:0:0:
379,141,55060,5,2,0:0:0:0:
374,150,55151,1,2,0:0:0:0:
369,159,55242,1,2,0:0:0:0:
363,168,55334,1,2,0:0:0:0:
359,177,55425,1,2,0:0:0:0:
352,185,55517,1,2,0:0:0:0:
327,198,55608,5,2,0:0:0:0:
321,206,55700,1,2,0:0:0:0:
315,215,55791,1,2,0:0:0:0:
309,224,55883,1,2,0:0:0:0:
303,232,55974,2,0,B|288:256|288:256|257:268|257:268|246:326|141:335,1,175,10|0,0:0|0:0,0:0:0:0:
47,338,56523,2,0,P|6:313|-4:300,1,35,2|0,0:0|0:0,0:0:0:0:
144,254,56706,2,0,P|106:261|84:257,1,35,2|0,0:0|0:0,0:0:0:0:
53,212,56889,5,0,0:0:0:0:
47,203,56980,1,0,0:0:0:0:
41,194,57072,1,0,0:0:0:0:
26,170,57163,1,0,0:0:0:0:
21,142,57255,1,8,0:0:0:0:
28,115,57346,1,0,0:0:0:0:
41,90,57438,5,8,0:0:0:0:
327,22,57621,1,2,0:0:0:0:
327,22,57803,1,2,0:0:0:0:
159,173,57986,5,8,0:0:0:0:
441,103,58169,1,2,0:0:0:0:
441,103,58352,1,2,0:0:0:0:
387,331,58535,5,8,0:0:0:0:
279,117,58718,1,2,0:0:0:0:
279,117,58810,1,2,0:0:0:0:
279,117,58901,1,2,0:0:0:0:
415,37,59267,5,2,0:0:0:0:
415,37,59633,1,2,0:0:0:0:
415,47,59724,1,2,0:0:0:0:
415,57,59816,1,2,0:0:0:0:
415,67,59907,1,2,0:0:0:0:
415,88,59999,5,10,0:0:0:0:
412,108,60090,1,2,0:0:0:0:
404,127,60181,1,2,0:0:0:0:
389,142,60273,1,2,0:0:0:0:
357,155,60364,5,14,0:0:0:0:
321,154,60456,1,0,0:0:0:0:
290,138,60547,1,8,0:0:0:0:
272,107,60639,1,0,0:0:0:0:
247,82,60730,1,0,0:0:0:0:
212,73,60822,1,0,0:0:0:0:
178,80,60913,1,8,0:0:0:0:
152,104,61005,1,0,0:0:0:0:
147,138,61096,1,0,0:0:0:0:
160,170,61188,1,0,0:0:0:0:
190,186,61279,1,8,0:0:0:0:
218,206,61371,1,0,0:0:0:0:
235,235,61462,1,0,0:0:0:0:
234,269,61553,1,0,0:0:0:0:
216,299,61645,5,8,0:0:0:0:
187,319,61736,1,0,0:0:0:0:
153,328,61828,1,4,0:0:0:0:
119,318,61919,1,0,0:0:0:0:
96,291,62011,1,8,0:0:0:0:
93,256,62102,1,0,0:0:0:0:
112,226,62194,1,0,0:0:0:0:
140,205,62285,1,0,0:0:0:0:
175,207,62377,1,8,0:0:0:0:
205,223,62468,1,0,0:0:0:0:
224,252,62560,1,0,0:0:0:0:
247,278,62651,1,0,0:0:0:0:
277,294,62742,1,8,0:0:0:0:
311,298,62834,1,0,0:0:0:0:
345,290,62925,1,0,0:0:0:0:
374,270,63017,1,0,0:0:0:0:
395,242,63108,1,8,0:0:0:0:
403,207,63200,1,0,0:0:0:0:
391,174,63291,5,4,0:0:0:0:
359,145,63383,1,0,0:0:0:0:
318,133,63474,1,8,0:0:0:0:
278,147,63566,1,0,0:0:0:0:
254,181,63657,1,0,0:0:0:0:
224,211,63749,1,0,0:0:0:0:
187,231,63840,1,8,0:0:0:0:
145,225,63931,5,4,0:0:0:0:
172,192,64023,1,0,0:0:0:0:
212,176,64114,1,0,0:0:0:0:
254,181,64206,1,8,0:0:0:0:
287,208,64297,1,0,0:0:0:0:
303,247,64389,5,4,0:0:0:0:
266,227,64480,1,0,0:0:0:0:
245,190,64572,1,8,0:0:0:0:
235,149,64663,1,0,0:0:0:0:
240,107,64755,1,4,0:0:0:0:
267,75,64846,1,0,0:0:0:0:
305,57,64938,1,8,0:0:0:0:
346,55,65029,1,0,0:0:0:0:
386,66,65121,1,0,0:0:0:0:
418,92,65212,1,0,0:0:0:0:
435,130,65303,1,8,0:0:0:0:
433,172,65395,1,0,0:0:0:0:
415,209,65486,2,0,L|392:252,1,35,6|8,0:0|0:0,0:0:0:0:
341,134,65669,2,0,L|321:166,1,35,2|8,0:0|0:0,0:0:0:0:
345,329,65852,2,0,L|318:371,1,35,2|8,0:0|0:0,0:0:0:0:
266,236,66035,6,0,L|235:278,1,35,2|8,0:0|0:0,0:0:0:0:
180,350,66218,1,4,0:0:0:0:
137,350,66310,1,0,0:0:0:0:
96,338,66401,1,8,0:0:0:0:
67,307,66492,1,0,0:0:0:0:
51,267,66584,1,0,0:0:0:0:
54,225,66675,1,0,0:0:0:0:
75,188,66767,1,8,0:0:0:0:
109,164,66858,1,0,0:0:0:0:
150,154,66950,1,0,0:0:0:0:
190,165,67041,1,0,0:0:0:0:
214,199,67133,1,8,0:0:0:0:
242,229,67224,1,0,0:0:0:0:
280,247,67316,1,0,0:0:0:0:
321,246,67407,1,0,0:0:0:0:
360,229,67499,1,8,0:0:0:0:
391,201,67590,1,0,0:0:0:0:
414,166,67681,5,4,0:0:0:0:
373,155,67773,1,0,0:0:0:0:
332,166,67864,1,8,0:0:0:0:
302,195,67956,1,0,0:0:0:0:
284,232,68047,1,0,0:0:0:0:
265,269,68139,1,0,0:0:0:0:
238,301,68230,1,8,0:0:0:0:
198,316,68322,1,0,0:0:0:0:
156,311,68413,1,0,0:0:0:0:
120,287,68505,1,0,0:0:0:0:
103,248,68596,1,8,0:0:0:0:
105,205,68688,1,0,0:0:0:0:
128,170,68779,1,0,0:0:0:0:
166,153,68871,1,0,0:0:0:0:
207,160,68962,1,8,0:0:0:0:
241,184,69053,1,0,0:0:0:0:
257,222,69145,5,4,0:0:0:0:
203,236,69236,1,0,0:0:0:0:
149,217,69328,1,8,0:0:0:0:
112,174,69419,1,0,0:0:0:0:
97,119,69511,1,0,0:0:0:0:
108,64,69602,1,0,0:0:0:0:
154,31,69694,1,8,0:0:0:0:
209,25,69785,1,0,0:0:0:0:
259,50,69877,1,0,0:0:0:0:
290,96,69968,1,0,0:0:0:0:
275,150,70060,1,8,0:0:0:0:
235,188,70151,1,0,0:0:0:0:
215,240,70242,1,0,0:0:0:0:
227,294,70334,1,0,0:0:0:0:
269,329,70425,1,8,0:0:0:0:
325,334,70517,1,0,0:0:0:0:
376,313,70608,5,2,0:0:0:0:
376,284,70700,1,2,0:0:0:0:
375,256,70791,1,2,0:0:0:0:
375,227,70883,1,2,0:0:0:0:
375,199,70974,1,2,0:0:0:0:
373,170,71066,2,0,L|372:107,1,35,8|0,0:0|0:0,0:0:0:0:
260,64,71249,1,2,0:0:0:0:
259,91,71340,1,2,0:0:0:0:
259,118,71431,1,2,0:0:0:0:
259,146,71523,1,2,0:0:0:0:
256,173,71614,2,0,L|212:195,1,35,8|0,0:0|0:0,0:0:0:0:
51,223,71797,5,2,0:0:0:0:
59,242,71889,1,2,0:0:0:0:
66,261,71980,1,2,0:0:0:0:
74,280,72072,1,2,0:0:0:0:
81,299,72163,1,2,0:0:0:0:
91,317,72255,2,0,L|145:312,1,35,2|0,0:0|0:0,0:0:0:0:
404,348,72438,2,0,L|343:353,1,35,2|0,0:0|0:0,0:0:0:0:
183,208,72621,2,0,L|217:211,1,35,2|0,0:0|0:0,0:0:0:0:
462,158,72803,2,0,L|427:161,1,35,2|0,0:0|0:0,0:0:0:0:
209,44,72986,2,0,L|243:47,1,35,2|0,0:0|0:0,0:0:0:0:
386,56,73169,2,0,L|368:70,1,23.3333333333333,2|0,0:0|0:0,0:0:0:0:
386,56,73261,2,0,L|406:88,1,23.3333333333333,2|0,0:0|0:0,0:0:0:0:
386,56,73352,2,0,L|416:37,1,23.3333333333333,2|0,0:0|0:0,0:0:0:0:
386,56,73444,2,0,L|366:31,1,23.3333333333333,2|0,0:0|0:0,0:0:0:0:
386,56,73535,6,0,P|342:110|291:140,1,122.500001168251,6|8,0:0|0:0,0:0:0:0:
60,197,73901,2,0,B|96:251|96:251|186:298,1,122.500001168251,2|8,0:0|0:0,0:0:0:0:
375,305,74267,2,0,B|345:252|345:252|293:215,1,122.500001168251,2|8,0:0|0:0,0:0:0:0:
216,64,74633,2,0,L|169:24,1,61.2500005841255,2|0,0:0|0:0,0:0:0:0:
113,91,74816,6,0,B|156:131|156:131|184:203,1,122.500001168251,10|2,0:0|0:0,0:0:0:0:
344,195,75181,2,8,B|301:235|301:235|273:307,1,122.500001168251,8|2,0:0|0:0,0:0:0:0:
328,139,75547,1,10,0:0:0:0:
229,338,75730,1,2,0:0:0:0:
70,169,75913,1,10,0:0:0:0:
61,199,76005,1,2,0:0:0:0:
64,230,76096,1,2,0:0:0:0:
78,258,76188,1,2,0:0:0:0:
101,280,76279,1,10,0:0:0:0:
258,317,76462,6,0,B|316:295|316:295|364:232,1,122.500001168251,6|8,0:0|0:0,0:0:0:0:
396,53,76828,2,0,B|337:76|337:76|300:126,1,122.500001168251,2|8,0:0|0:0,0:0:0:0:
133,168,77194,2,0,B|192:191|192:191|229:241,1,122.500001168251,2|8,0:0|0:0,0:0:0:0:
432,259,77560,2,0,L|400:198,1,61.2500005841255,2|0,0:0|0:0,0:0:0:0:
318,232,77742,6,0,B|345:287|345:287|329:359,1,122.500001168251,10|0,0:0|0:0,0:0:0:0:
54,255,78108,1,8,0:0:0:0:
54,255,78200,1,0,0:0:0:0:
54,255,78291,2,0,B|108:220|108:220|137:159,1,122.500001168251,2|8,0:0|0:0,0:0:0:0:
123,310,78657,2,0,L|61:348,1,61.2500005841255,10|0,0:0|0:0,0:0:0:0:
205,126,78840,2,0,L|227:56,1,61.2500005841255,10|0,0:0|0:0,0:0:0:0:
265,340,79023,2,0,L|203:378,1,61.2500005841255,10|0,0:0|0:0,0:0:0:0:
347,156,79206,2,0,L|369:86,1,61.2500005841255,10|0,0:0|0:0,0:0:0:0:
180,208,79389,5,4,0:0:0:0:
206,249,79480,1,0,0:0:0:0:
251,268,79572,1,8,0:0:0:0:
298,256,79663,1,0,0:0:0:0:
334,222,79755,1,0,0:0:0:0:
382,213,79846,1,0,0:0:0:0:
428,228,79938,1,8,0:0:0:0:
458,265,80029,1,0,0:0:0:0:
466,313,80121,1,0,0:0:0:0:
438,353,80212,1,0,0:0:0:0:
392,369,80303,1,8,0:0:0:0:
345,353,80395,1,0,0:0:0:0:
321,310,80486,1,0,0:0:0:0:
324,260,80578,1,0,0:0:0:0:
360,228,80669,1,8,0:0:0:0:
387,187,80761,1,0,0:0:0:0:
373,140,80852,5,4,0:0:0:0:
332,168,80944,1,0,0:0:0:0:
320,215,81035,1,8,0:0:0:0:
348,255,81127,1,0,0:0:0:0:
393,272,81218,1,0,0:0:0:0:
441,261,81310,1,0,0:0:0:0:
471,222,81401,1,8,0:0:0:0:
471,173,81492,1,0,0:0:0:0:
445,130,81584,1,0,0:0:0:0:
399,113,81675,1,0,0:0:0:0:
350,122,81767,1,8,0:0:0:0:
310,151,81858,1,0,0:0:0:0:
261,161,81950,1,2,0:0:0:0:
218,136,82041,1,0,0:0:0:0:
192,93,82133,1,8,0:0:0:0:
201,45,82224,1,0,0:0:0:0:
243,20,82316,5,4,0:0:0:0:
249,68,82407,1,0,0:0:0:0:
215,104,82499,1,8,0:0:0:0:
166,104,82590,1,0,0:0:0:0:
119,89,82681,1,0,0:0:0:0:
70,95,82773,1,0,0:0:0:0:
38,132,82864,1,8,0:0:0:0:
46,180,82956,1,0,0:0:0:0:
87,205,83047,1,0,0:0:0:0:
134,192,83139,1,0,0:0:0:0:
169,158,83230,1,8,0:0:0:0:
212,134,83322,1,0,0:0:0:0:
260,131,83413,1,0,0:0:0:0:
303,153,83505,1,0,0:0:0:0:
322,197,83596,1,8,0:0:0:0:
316,246,83688,1,0,0:0:0:0:
277,276,83779,5,4,0:0:0:0:
268,227,83871,1,0,0:0:0:0:
294,186,83962,1,8,0:0:0:0:
341,173,84053,1,0,0:0:0:0:
389,182,84145,1,0,0:0:0:0:
420,218,84236,1,0,0:0:0:0:
420,267,84328,1,8,0:0:0:0:
399,311,84419,1,0,0:0:0:0:
410,358,84511,1,4,0:0:0:0:
454,377,84602,1,0,0:0:0:0:
499,358,84694,6,0,B|500:329|500:329|474:273,1,61.2500005841255,2|0,0:0|0:0,0:0:0:0:
328,114,84877,2,0,B|327:143|327:143|353:199,1,61.2500005841255,2|0,0:0|0:0,0:0:0:0:
512,359,85060,2,0,B|513:330|513:330|487:274,1,61.2500005841255,2|0,0:0|0:0,0:0:0:0:
341,115,85243,2,0,B|340:144|340:144|366:200,1,61.2500005841255,2|0,0:0|0:0,0:0:0:0:
314,340,85425,5,8,0:0:0:0:
268,357,85517,1,0,0:0:0:0:
219,358,85608,1,0,0:0:0:0:
172,341,85700,1,0,0:0:0:0:
137,306,85791,1,8,0:0:0:0:
113,262,85883,1,0,0:0:0:0:
106,213,85974,1,0,0:0:0:0:
129,169,86066,1,0,0:0:0:0:
171,144,86157,1,8,0:0:0:0:
208,112,86249,1,0,0:0:0:0:
229,68,86340,1,0,0:0:0:0:
202,27,86431,1,0,0:0:0:0:
155,11,86523,5,8,0:0:0:0:
112,34,86614,1,0,0:0:0:0:
95,80,86706,1,4,0:0:0:0:
115,124,86797,1,0,0:0:0:0:
161,140,86889,1,8,0:0:0:0:
208,128,86980,1,0,0:0:0:0:
257,129,87072,1,0,0:0:0:0:
298,154,87163,1,0,0:0:0:0:
323,196,87255,1,8,0:0:0:0:
323,244,87346,1,0,0:0:0:0:
304,289,87438,1,0,0:0:0:0:
264,318,87529,1,0,0:0:0:0:
215,327,87621,1,8,0:0:0:0:
171,305,87712,1,0,0:0:0:0:
146,262,87803,1,0,0:0:0:0:
140,213,87895,1,0,0:0:0:0:
173,177,87986,5,12,0:0:0:0:
219,161,88078,1,0,0:0:0:0:
266,171,88169,1,0,0:0:0:0:
303,203,88261,1,0,0:0:0:0:
349,216,88352,1,8,0:0:0:0:
397,208,88444,1,0,0:0:0:0:
435,177,88535,1,0,0:0:0:0:
455,132,88627,1,0,0:0:0:0:
441,85,88718,1,8,0:0:0:0:
400,56,88810,1,0,0:0:0:0:
351,52,88901,1,0,0:0:0:0:
308,75,88992,1,0,0:0:0:0:
289,120,89084,1,8,0:0:0:0:
310,163,89175,1,0,0:0:0:0:
354,183,89267,1,0,0:0:0:0:
382,222,89358,1,0,0:0:0:0:
404,265,89450,1,8,0:0:0:0:
397,313,89541,1,0,0:0:0:0:
362,348,89633,5,4,0:0:0:0:
331,309,89724,1,0,0:0:0:0:
324,260,89816,1,8,0:0:0:0:
353,221,89907,1,0,0:0:0:0:
398,202,89999,1,0,0:0:0:0:
436,171,90090,1,0,0:0:0:0:
459,128,90181,1,8,0:0:0:0:
461,78,90273,1,0,0:0:0:0:
431,39,90364,1,4,0:0:0:0:
385,20,90456,1,0,0:0:0:0:
337,30,90547,2,0,L|259:67,1,61.2500005841255,2|0,0:0|0:0,0:0:0:0:
104,103,90730,2,0,L|159:129,1,61.2500005841255,2|0,0:0|0:0,0:0:0:0:
334,162,90913,6,0,L|277:185,1,61.2500005841255,2|0,0:0|0:0,0:0:0:0:
122,247,91096,2,0,L|200:280,1,61.2500005841255,6|0,0:0|0:0,0:0:0:0:
319,312,91279,1,8,0:0:0:0:
368,316,91371,1,0,0:0:0:0:
413,297,91462,1,0,0:0:0:0:
444,260,91553,1,0,0:0:0:0:
454,211,91645,1,8,0:0:0:0:
442,163,91736,1,0,0:0:0:0:
397,141,91828,1,0,0:0:0:0:
348,141,91919,1,0,0:0:0:0:
300,128,92011,1,8,0:0:0:0:
272,87,92102,1,0,0:0:0:0:
276,37,92194,1,0,0:0:0:0:
318,14,92285,1,0,0:0:0:0:
366,22,92377,5,8,0:0:0:0:
392,62,92468,1,0,0:0:0:0:
391,111,92560,1,4,0:0:0:0:
353,141,92651,1,0,0:0:0:0:
304,147,92742,1,8,0:0:0:0:
258,128,92834,1,0,0:0:0:0:
211,112,92925,1,0,0:0:0:0:
162,117,93017,1,0,0:0:0:0:
126,150,93108,1,8,0:0:0:0:
113,197,93200,1,0,0:0:0:0:
127,243,93291,1,0,0:0:0:0:
168,269,93383,1,0,0:0:0:0:
216,267,93474,1,8,0:0:0:0:
258,242,93566,1,0,0:0:0:0:
303,224,93657,1,0,0:0:0:0:
352,224,93749,1,0,0:0:0:0:
393,249,93840,1,8,0:0:0:0:
416,291,93931,1,0,0:0:0:0:
407,339,94023,5,4,0:0:0:0:
353,309,94114,1,0,0:0:0:0:
353,247,94206,1,8,0:0:0:0:
395,203,94297,1,0,0:0:0:0:
439,160,94389,1,0,0:0:0:0:
438,99,94480,1,0,0:0:0:0:
402,48,94572,1,8,0:0:0:0:
344,27,94663,1,0,0:0:0:0:
284,43,94755,1,0,0:0:0:0:
256,97,94846,1,0,0:0:0:0:
268,157,94938,1,8,0:0:0:0:
245,213,95029,1,0,0:0:0:0:
191,243,95121,1,0,0:0:0:0:
130,240,95212,1,0,0:0:0:0:
92,191,95303,5,8,0:0:0:0:
81,130,95395,1,0,0:0:0:0:
106,74,95486,1,4,0:0:0:0:
162,49,95578,1,0,0:0:0:0:
222,50,95669,1,8,0:0:0:0:
269,89,95761,1,0,0:0:0:0:
286,147,95852,1,0,0:0:0:0:
256,201,95944,1,0,0:0:0:0:
263,261,96035,1,8,0:0:0:0:
314,294,96127,1,0,0:0:0:0:
374,299,96218,2,0,L|421:272,5,40.8333337227503,2|0|2|0|2|0,0:0|0:0|0:0|0:0|0:0|0:0,0:0:0:0:
353,200,96584,5,2,0:0:0:0:
352,169,96675,1,2,0:0:0:0:
351,138,96767,1,10,0:0:0:0:
350,107,96858,5,2,0:0:0:0:
330,61,96950,1,4,0:0:0:0:
284,42,97041,1,0,0:0:0:0:
234,44,97133,1,8,0:0:0:0:
196,75,97224,1,0,0:0:0:0:
195,124,97316,1,0,0:0:0:0:
223,163,97407,1,0,0:0:0:0:
265,188,97499,1,8,0:0:0:0:
296,225,97590,1,0,0:0:0:0:
307,272,97681,1,0,0:0:0:0:
295,319,97773,1,0,0:0:0:0:
254,345,97864,1,8,0:0:0:0:
204,346,97956,1,0,0:0:0:0:
159,325,98047,1,0,0:0:0:0:
131,283,98139,1,0,0:0:0:0:
128,234,98230,1,8,0:0:0:0:
147,188,98322,1,0,0:0:0:0:
187,160,98413,5,4,0:0:0:0:
195,208,98505,1,0,0:0:0:0:
179,254,98596,1,8,0:0:0:0:
137,281,98688,1,0,0:0:0:0:
88,278,98779,1,0,0:0:0:0:
54,241,98871,1,0,0:0:0:0:
38,194,98962,1,8,0:0:0:0:
43,145,99053,1,0,0:0:0:0:
70,103,99145,1,0,0:0:0:0:
112,79,99236,1,0,0:0:0:0:
161,81,99328,1,8,0:0:0:0:
201,108,99419,1,0,0:0:0:0:
216,154,99511,1,0,0:0:0:0:
227,201,99602,1,0,0:0:0:0:
256,240,99694,1,8,0:0:0:0:
299,261,99785,1,0,0:0:0:0:
348,259,99877,5,4,0:0:0:0:
338,211,99968,1,0,0:0:0:0:
298,181,100060,1,8,0:0:0:0:
249,181,100151,1,0,0:0:0:0:
206,204,100242,1,0,0:0:0:0:
157,210,100334,1,0,0:0:0:0:
113,187,100425,1,8,0:0:0:0:
87,144,100517,1,0,0:0:0:0:
85,95,100608,1,0,0:0:0:0:
110,52,100700,1,0,0:0:0:0:
156,37,100791,1,8,0:0:0:0:
204,42,100883,1,0,0:0:0:0:
241,73,100974,1,0,0:0:0:0:
261,117,101066,1,0,0:0:0:0:
257,165,101157,1,8,0:0:0:0:
240,211,101249,1,0,0:0:0:0:
206,246,101340,5,4,0:0:0:0:
201,197,101431,1,0,0:0:0:0:
219,151,101523,1,8,0:0:0:0:
259,124,101614,1,0,0:0:0:0:
307,113,101706,1,0,0:0:0:0:
352,131,101797,1,0,0:0:0:0:
390,161,101889,1,8,0:0:0:0:
438,163,101980,1,0,0:0:0:0:
478,135,102072,2,0,P|504:104|513:61,1,61.2500005841255,6|0,0:0|0:0,0:0:0:0:
299,189,102255,2,0,P|274:207|255:231,1,61.2500005841255,2|0,0:0|0:0,0:0:0:0:
433,72,102438,2,0,P|416:47|379:23,1,61.2500005841255,2|0,0:0|0:0,0:0:0:0:
334,270,102621,2,0,P|359:300|404:324,1,61.2500005841255,2|0,0:0|0:0,0:0:0:0:
168,330,102803,5,4,0:0:0:0:
119,336,102895,1,0,0:0:0:0:
74,315,102986,1,8,0:0:0:0:
49,272,103078,1,0,0:0:0:0:
51,223,103169,1,0,0:0:0:0:
83,185,103261,1,0,0:0:0:0:
130,174,103352,1,8,0:0:0:0:
178,183,103444,1,0,0:0:0:0:
215,213,103535,1,0,0:0:0:0:
236,257,103627,1,0,0:0:0:0:
271,290,103718,1,8,0:0:0:0:
320,293,103810,1,0,0:0:0:0:
362,270,103901,1,0,0:0:0:0:
386,227,103992,1,0,0:0:0:0:
382,177,104084,1,8,0:0:0:0:
356,135,104175,1,0,0:0:0:0:
310,115,104267,5,4,0:0:0:0:
314,163,104358,1,0,0:0:0:0:
348,198,104450,1,8,0:0:0:0:
396,204,104541,1,0,0:0:0:0:
439,181,104633,1,0,0:0:0:0:
462,138,104724,1,0,0:0:0:0:
458,88,104816,1,8,0:0:0:0:
431,47,104907,1,0,0:0:0:0:
386,25,104999,1,4,0:0:0:0:
337,29,105090,1,0,0:0:0:0:
295,54,105181,1,8,0:0:0:0:
274,98,105273,1,0,0:0:0:0:
275,146,105364,5,4,0:0:0:0:
302,105,105456,1,0,0:0:0:0:
293,56,105547,1,12,0:0:0:0:
254,25,105639,1,0,0:0:0:0:
205,20,105730,1,0,0:0:0:0:
162,45,105822,1,0,0:0:0:0:
140,88,105913,1,8,0:0:0:0:
140,137,106005,1,0,0:0:0:0:
173,172,106096,1,0,0:0:0:0:
201,212,106188,1,0,0:0:0:0:
205,260,106279,1,8,0:0:0:0:
189,306,106371,1,0,0:0:0:0:
149,335,106462,1,0,0:0:0:0:
100,335,106553,1,0,0:0:0:0:
66,298,106645,1,8,0:0:0:0:
58,249,106736,1,0,0:0:0:0:
88,210,106828,5,4,0:0:0:0:
117,249,106919,1,0,0:0:0:0:
163,264,107011,1,12,0:0:0:0:
209,248,107102,1,0,0:0:0:0:
240,210,107194,1,0,0:0:0:0:
256,164,107285,1,0,0:0:0:0:
244,116,107377,1,8,0:0:0:0:
254,68,107468,1,0,0:0:0:0:
288,33,107560,1,0,0:0:0:0:
335,23,107651,1,0,0:0:0:0:
382,33,107742,1,8,0:0:0:0:
413,70,107834,1,0,0:0:0:0:
422,117,107925,2,0,L|418:188,5,40.8333337227503,2|0|2|0|2|0,0:0|0:0|0:0|0:0|0:0|0:0,0:0:0:0:
332,113,108291,5,2,0:0:0:0:
332,143,108383,1,2,0:0:0:0:
331,173,108474,1,2,0:0:0:0:
331,203,108566,1,2,0:0:0:0:
328,251,108657,1,4,0:0:0:0:
299,291,108749,1,0,0:0:0:0:
252,305,108840,1,0,0:0:0:0:
204,295,108931,1,0,0:0:0:0:
165,263,109023,2,0,L|151:197,1,61.2500005841255,8|0,0:0|0:0,0:0:0:0:
106,27,109206,1,0,0:0:0:0:
154,24,109297,1,0,0:0:0:0:
197,47,109389,1,4,0:0:0:0:
224,83,109480,1,0,0:0:0:0:
269,102,109572,1,0,0:0:0:0:
317,93,109663,1,0,0:0:0:0:
359,68,109755,2,0,P|385:56|449:64,1,61.2500005841255,8|0,0:0|0:0,0:0:0:0:
430,222,109938,5,0,0:0:0:0:
381,241,110029,1,0,0:0:0:0:
331,244,110121,2,0,P|301:236|275:214,1,61.2500005841255,12|0,0:0|0:0,0:0:0:0:
250,14,110303,1,2,0:0:0:0:
233,32,110395,1,2,0:0:0:0:
217,50,110486,1,2,0:0:0:0:
200,68,110578,1,2,0:0:0:0:
176,62,110669,1,2,0:0:0:0:
159,80,110761,1,2,0:0:0:0:
143,99,110852,1,2,0:0:0:0:
127,117,110944,1,2,0:0:0:0:
102,117,111035,1,2,0:0:0:0:
85,135,111127,1,2,0:0:0:0:
69,153,111218,1,2,0:0:0:0:
52,171,111310,1,2,0:0:0:0:
34,203,111401,5,12,0:0:0:0:
39,239,111492,1,0,0:0:0:0:
63,266,111584,1,0,0:0:0:0:
99,270,111675,1,0,0:0:0:0:
131,253,111767,1,8,0:0:0:0:
155,226,111858,1,0,0:0:0:0:
184,186,111950,5,0,0:0:0:0:
224,158,112041,1,0,0:0:0:0:
272,149,112133,1,8,0:0:0:0:
320,156,112224,1,0,0:0:0:0:
363,178,112316,1,0,0:0:0:0:
391,217,112407,1,0,0:0:0:0:
399,265,112499,1,8,0:0:0:0:
392,313,112590,1,0,0:0:0:0:
363,352,112681,1,0,0:0:0:0:
316,367,112773,1,0,0:0:0:0:
270,350,112864,1,8,0:0:0:0:
244,308,112956,1,0,0:0:0:0:
243,259,113047,5,4,0:0:0:0:
287,279,113139,1,0,0:0:0:0:
318,316,113230,1,8,0:0:0:0:
366,326,113322,1,0,0:0:0:0:
412,311,113413,1,0,0:0:0:0:
438,269,113505,1,0,0:0:0:0:
442,220,113596,1,8,0:0:0:0:
423,174,113688,1,0,0:0:0:0:
389,138,113779,2,0,P|361:120|308:103,1,61.2500005841255,6|0,0:0|0:0,0:0:0:0:
80,122,113962,2,0,P|105:134|143:137,1,61.2500005841255,10|0,0:0|0:0,0:0:0:0:
357,28,114145,2,0,P|324:31|291:48,1,61.2500005841255,2|0,0:0|0:0,0:0:0:0:
148,226,114328,2,0,P|185:200|205:174,1,61.2500005841255,10|0,0:0|0:0,0:0:0:0:
226,25,114511,5,4,0:0:0:0:
180,7,114602,1,0,0:0:0:0:
131,14,114694,1,8,0:0:0:0:
93,44,114785,1,0,0:0:0:0:
73,89,114877,5,4,0:0:0:0:
119,102,114968,1,0,0:0:0:0:
167,91,115060,1,8,0:0:0:0:
208,65,115151,1,0,0:0:0:0:
256,65,115242,1,0,0:0:0:0:
300,86,115334,1,0,0:0:0:0:
328,125,115425,1,8,0:0:0:0:
339,172,115517,1,0,0:0:0:0:
325,218,115608,1,0,0:0:0:0:
293,256,115700,1,0,0:0:0:0:
248,276,115791,5,12,0:0:0:0:
256,227,115883,1,0,0:0:0:0:
290,192,115974,1,0,0:0:0:0:
339,187,116066,1,0,0:0:0:0:
382,208,116157,1,8,0:0:0:0:
429,222,116249,1,0,0:0:0:0:
474,204,116340,1,0,0:0:0:0:
500,163,116431,1,0,0:0:0:0:
496,113,116523,1,8,0:0:0:0:
466,74,116614,1,0,0:0:0:0:
419,58,116706,1,4,0:0:0:0:
372,71,116797,1,0,0:0:0:0:
344,111,116889,1,8,0:0:0:0:
346,159,116980,1,0,0:0:0:0:
367,203,117072,1,0,0:0:0:0:
366,251,117163,1,0,0:0:0:0:
341,293,117255,1,8,0:0:0:0:
295,309,117346,1,0,0:0:0:0:
237,287,117438,5,4,0:0:0:0:
208,233,117529,1,0,0:0:0:0:
218,172,117621,1,8,0:0:0:0:
245,117,117712,1,0,0:0:0:0:
229,58,117803,1,0,0:0:0:0:
178,23,117895,1,0,0:0:0:0:
117,28,117986,1,8,0:0:0:0:
75,73,118078,1,0,0:0:0:0:
73,133,118169,1,0,0:0:0:0:
108,183,118261,1,0,0:0:0:0:
167,195,118352,1,8,0:0:0:0:
225,177,118444,1,0,0:0:0:0:
270,136,118535,1,0,0:0:0:0:
325,109,118627,1,0,0:0:0:0:
385,118,118718,5,8,0:0:0:0:
441,142,118810,1,0,0:0:0:0:
472,194,118901,1,4,0:0:0:0:
475,254,118992,1,0,0:0:0:0:
445,307,119084,1,8,0:0:0:0:
388,328,119175,1,0,0:0:0:0:
332,300,119267,1,0,0:0:0:0:
315,241,119358,1,0,0:0:0:0:
339,184,119450,1,8,0:0:0:0:
395,161,119541,1,0,0:0:0:0:
456,156,119633,2,0,L|496:160,5,40.8333337227503,2|0|2|0|2|0,0:0|0:0|0:0|0:0|0:0|0:0,0:0:0:0:
397,241,119999,5,2,0:0:0:0:
374,220,120090,1,2,0:0:0:0:
352,198,120181,1,10,0:0:0:0:
329,176,120273,1,2,0:0:0:0:
293,142,120364,5,4,0:0:0:0:
246,126,120456,1,0,0:0:0:0:
198,138,120547,1,8,0:0:0:0:
161,171,120639,1,0,0:0:0:0:
149,218,120730,1,0,0:0:0:0:
167,263,120822,1,0,0:0:0:0:
207,289,120913,1,8,0:0:0:0:
256,292,121005,1,0,0:0:0:0:
300,273,121096,1,0,0:0:0:0:
325,230,121188,1,0,0:0:0:0:
325,181,121279,1,8,0:0:0:0:
295,141,121371,1,0,0:0:0:0:
249,122,121462,1,0,0:0:0:0:
202,138,121553,1,0,0:0:0:0:
172,177,121645,1,8,0:0:0:0:
179,225,121736,1,0,0:0:0:0:
219,252,121828,5,4,0:0:0:0:
209,204,121919,1,0,0:0:0:0:
172,177,122011,1,8,0:0:0:0:
123,177,122102,1,0,0:0:0:0:
87,211,122194,1,0,0:0:0:0:
85,259,122285,1,0,0:0:0:0:
116,296,122377,1,8,0:0:0:0:
163,305,122468,1,0,0:0:0:0:
210,292,122560,1,0,0:0:0:0:
247,260,122651,1,0,0:0:0:0:
293,244,122742,1,8,0:0:0:0:
338,263,122834,1,0,0:0:0:0:
368,300,122925,1,0,0:0:0:0:
416,308,123017,1,0,0:0:0:0:
460,287,123108,1,8,0:0:0:0:
485,244,123200,1,0,0:0:0:0:
469,197,123291,5,4,0:0:0:0:
446,240,123383,1,0,0:0:0:0:
460,287,123474,1,8,0:0:0:0:
438,331,123566,1,0,0:0:0:0:
394,352,123657,1,0,0:0:0:0:
346,338,123749,1,0,0:0:0:0:
314,300,123840,1,8,0:0:0:0:
303,252,123931,1,0,0:0:0:0:
323,207,124023,1,0,0:0:0:0:
342,162,124114,1,0,0:0:0:0:
333,113,124206,1,8,0:0:0:0:
302,74,124297,1,0,0:0:0:0:
253,67,124389,1,0,0:0:0:0:
211,92,124480,1,0,0:0:0:0:
198,139,124572,1,8,0:0:0:0:
217,183,124663,1,0,0:0:0:0:
262,202,124755,5,4,0:0:0:0:
249,154,124846,1,0,0:0:0:0:
198,139,124938,1,8,0:0:0:0:
151,154,125029,1,0,0:0:0:0:
150,203,125121,5,4,0:0:0:0:
193,181,125212,1,0,0:0:0:0:
200,132,125303,1,8,0:0:0:0:
179,87,125395,1,0,0:0:0:0:
133,69,125486,2,0,P|133:101|155:148,1,61.2500005841255,2|0,0:0|0:0,0:0:0:0:
345,298,125669,2,0,P|342:247|328:218,1,61.2500005841255,2|0,0:0|0:0,0:0:0:0:
155,73,125852,2,0,P|155:105|177:152,1,61.2500005841255,2|0,0:0|0:0,0:0:0:0:
367,302,126035,2,0,P|364:251|350:222,1,61.2500005841255,2|0,0:0|0:0,0:0:0:0:
252,251,126218,5,4,0:0:0:0:
241,299,126310,1,0,0:0:0:0:
208,335,126401,1,8,0:0:0:0:
159,340,126492,1,0,0:0:0:0:
117,312,126584,1,0,0:0:0:0:
105,264,126675,1,0,0:0:0:0:
115,215,126767,1,8,0:0:0:0:
147,179,126858,1,0,0:0:0:0:
178,141,126950,1,0,0:0:0:0:
178,92,127041,1,0,0:0:0:0:
150,50,127133,1,8,0:0:0:0:
106,27,127224,1,0,0:0:0:0:
57,32,127316,1,0,0:0:0:0:
32,73,127407,1,0,0:0:0:0:
39,121,127499,1,8,0:0:0:0:
76,152,127590,1,0,0:0:0:0:
124,145,127681,5,4,0:0:0:0:
93,106,127773,1,0,0:0:0:0:
46,120,127864,1,8,0:0:0:0:
24,164,127956,1,0,0:0:0:0:
43,208,128047,1,0,0:0:0:0:
91,215,128139,1,0,0:0:0:0:
134,193,128230,1,8,0:0:0:0:
182,181,128322,1,0,0:0:0:0:
227,198,128413,1,0,0:0:0:0:
255,238,128505,1,0,0:0:0:0:
251,286,128596,1,8,0:0:0:0:
216,320,128688,1,0,0:0:0:0:
167,322,128779,5,4,0:0:0:0:
192,279,128871,1,0,0:0:0:0:
240,277,128962,1,8,0:0:0:0:
280,304,129053,1,0,0:0:0:0:
329,302,129145,5,4,0:0:0:0:
298,264,129236,1,0,0:0:0:0:
249,272,129328,1,8,0:0:0:0:
213,305,129419,1,0,0:0:0:0:
165,319,129511,1,0,0:0:0:0:
117,308,129602,1,0,0:0:0:0:
84,270,129694,1,8,0:0:0:0:
76,221,129785,1,0,0:0:0:0:
89,173,129877,1,0,0:0:0:0:
129,145,129968,1,0,0:0:0:0:
178,140,130060,1,8,0:0:0:0:
226,147,130151,1,0,0:0:0:0:
265,175,130242,1,0,0:0:0:0:
287,218,130334,1,0,0:0:0:0:
320,253,130425,5,12,0:0:0:0:
378,272,130517,1,0,0:0:0:0:
435,250,130608,1,0,0:0:0:0:
466,197,130700,1,0,0:0:0:0:
464,137,130791,1,8,0:0:0:0:
428,87,130883,1,0,0:0:0:0:
372,62,130974,1,0,0:0:0:0:
311,70,131066,1,0,0:0:0:0:
262,106,131157,1,8,0:0:0:0:
200,109,131249,1,0,0:0:0:0:
150,73,131340,2,0,L|105:26,5,40.8333337227503,2|0|2|0|2|0,0:0|0:0|0:0|0:0|0:0|0:0,0:0:0:0:
118,192,131706,5,2,0:0:0:0:
118,222,131797,1,2,0:0:0:0:
118,252,131889,1,2,0:0:0:0:
118,282,131980,1,2,0:0:0:0:
136,327,132072,1,4,0:0:0:0:
181,344,132163,1,0,0:0:0:0:
229,333,132255,1,0,0:0:0:0:
261,296,132346,1,0,0:0:0:0:
270,247,132438,2,0,P|265:205|256:182,1,61.2500005841255,8|0,0:0|0:0,0:0:0:0:
163,49,132621,5,0,0:0:0:0:
137,90,132712,1,0,0:0:0:0:
135,138,132803,1,4,0:0:0:0:
152,184,132895,1,0,0:0:0:0:
179,224,132986,1,0,0:0:0:0:
222,248,133078,1,0,0:0:0:0:
270,247,133169,2,0,P|312:222|335:183,1,61.2500005841255,8|0,0:0|0:0,0:0:0:0:
402,66,133352,5,0,0:0:0:0:
356,46,133444,1,0,0:0:0:0:
307,50,133535,1,4,0:0:0:0:
274,86,133627,1,0,0:0:0:0:
245,125,133718,1,0,0:0:0:0:
203,150,133810,1,0,0:0:0:0:
154,156,133901,2,0,P|107:141|85:112,1,61.2500005841255,8|0,0:0|0:0,0:0:0:0:
26,285,134084,5,0,0:0:0:0:
68,261,134175,1,0,0:0:0:0:
115,246,134267,1,4,0:0:0:0:
163,244,134358,2,0,P|227:260|239:266,1,61.2500005841255,8|0,0:0|0:0,0:0:0:0:
379,323,134541,1,0,0:0:0:0:
420,296,134633,2,0,P|451:255|458:230,1,61.2500005841255,8|0,0:0|0:0,0:0:0:0:
468,77,134816,2,0,P|414:115|401:133,1,61.2500005841255,8|0,0:0|0:0,0:0:0:0:
326,215,134999,5,4,0:0:0:0:
314,262,135090,1,0,0:0:0:0:
302,309,135181,1,8,0:0:0:0:
274,349,135273,1,0,0:0:0:0:
226,357,135364,1,0,0:0:0:0:
181,336,135456,1,0,0:0:0:0:
161,291,135547,1,8,0:0:0:0:
173,243,135639,1,0,0:0:0:0:
210,212,135730,1,0,0:0:0:0:
243,175,135822,1,0,0:0:0:0:
252,127,135913,1,8,0:0:0:0:
238,79,136005,1,0,0:0:0:0:
198,50,136096,1,0,0:0:0:0:
149,41,136188,1,0,0:0:0:0:
105,62,136279,5,8,0:0:0:0:
77,103,136371,1,0,0:0:0:0:
83,151,136462,1,4,0:0:0:0:
118,184,136553,1,0,0:0:0:0:
167,187,136645,1,8,0:0:0:0:
206,157,136736,1,0,0:0:0:0:
241,123,136828,1,0,0:0:0:0:
289,114,136919,1,0,0:0:0:0:
335,129,137011,1,8,0:0:0:0:
364,167,137102,1,0,0:0:0:0:
370,215,137194,5,4,0:0:0:0:
324,198,137285,1,0,0:0:0:0:
307,151,137377,1,8,0:0:0:0:
316,102,137468,1,0,0:0:0:0:
349,66,137560,5,4,0:0:0:0:
369,109,137651,1,0,0:0:0:0:
350,153,137742,1,8,0:0:0:0:
303,169,137834,1,0,0:0:0:0:
248,160,137925,5,4,0:0:0:0:
208,120,138017,1,0,0:0:0:0:
173,77,138108,1,8,0:0:0:0:
121,56,138200,1,0,0:0:0:0:
67,67,138291,1,0,0:0:0:0:
36,113,138383,1,0,0:0:0:0:
41,167,138474,1,8,0:0:0:0:
83,203,138566,1,0,0:0:0:0:
137,201,138657,1,0,0:0:0:0:
182,169,138749,1,0,0:0:0:0:
209,121,138840,1,8,0:0:0:0:
255,91,138931,1,0,0:0:0:0:
310,89,139023,1,0,0:0:0:0:
361,107,139114,1,0,0:0:0:0:
397,148,139206,1,8,0:0:0:0:
398,202,139297,1,0,0:0:0:0:
361,243,139389,5,4,0:0:0:0:
347,183,139480,1,0,0:0:0:0:
382,132,139572,1,8,0:0:0:0:
411,78,139663,1,0,0:0:0:0:
393,18,139755,5,4,0:0:0:0:
339,4,139846,1,0,0:0:0:0:
288,26,139938,1,8,0:0:0:0:
272,78,140029,1,0,0:0:0:0:
298,126,140121,1,0,0:0:0:0:
350,143,140212,1,0,0:0:0:0:
398,117,140303,1,8,0:0:0:0:
452,126,140395,1,0,0:0:0:0:
485,169,140486,1,0,0:0:0:0:
480,224,140578,1,0,0:0:0:0:
446,267,140669,1,8,0:0:0:0:
391,277,140761,1,0,0:0:0:0:
334,240,140852,5,4,0:0:0:0:
278,201,140944,1,0,0:0:0:0:
212,216,141035,1,8,0:0:0:0:
173,271,141127,1,0,0:0:0:0:
145,332,141218,1,0,0:0:0:0:
81,356,141310,1,0,0:0:0:0:
24,320,141401,1,8,0:0:0:0:
12,253,141492,1,0,0:0:0:0:
53,199,141584,1,0,0:0:0:0:
119,196,141675,1,0,0:0:0:0:
171,239,141767,1,8,0:0:0:0:
234,261,141858,1,0,0:0:0:0:
301,253,141950,1,0,0:0:0:0:
347,204,142041,1,0,0:0:0:0:
367,139,142133,5,8,0:0:0:0:
349,74,142224,1,0,0:0:0:0:
295,32,142316,1,0,0:0:0:0:
228,24,142407,1,0,0:0:0:0:
164,48,142499,1,8,0:0:0:0:
120,99,142590,1,0,0:0:0:0:
114,165,142681,1,0,0:0:0:0:
145,225,142773,1,0,0:0:0:0:
204,256,142864,1,8,0:0:0:0:
271,248,142956,1,0,0:0:0:0:
328,214,143047,2,0,L|360:185,5,40.8333337227503,2|0|2|0|2|0,0:0|0:0|0:0|0:0|0:0|0:0,0:0:0:0:
227,173,143413,5,2,0:0:0:0:
251,153,143505,1,2,0:0:0:0:
273,134,143596,1,2,0:0:0:0:
298,115,143688,1,2,0:0:0:0:
337,86,143779,5,4,0:0:0:0:
385,79,143871,1,0,0:0:0:0:
428,101,143962,1,0,0:0:0:0:
451,143,144053,1,0,0:0:0:0:
447,192,144145,2,0,P|434:221|397:252,1,61.2500005841255,8|0,0:0|0:0,0:0:0:0:
221,324,144328,1,0,0:0:0:0:
173,334,144419,1,0,0:0:0:0:
125,322,144511,1,4,0:0:0:0:
84,295,144602,1,0,0:0:0:0:
58,252,144694,1,0,0:0:0:0:
57,203,144785,1,0,0:0:0:0:
76,157,144877,2,0,P|105:130|136:116,1,61.2500005841255,8|0,0:0|0:0,0:0:0:0:
335,88,145060,5,0,0:0:0:0:
306,127,145151,2,0,P|275:150|236:166,1,61.2500005841255,8|4,0:0|0:0,0:0:0:0:
53,77,145334,1,0,0:0:0:0:
88,43,145425,1,0,0:0:0:0:
136,29,145517,1,0,0:0:0:0:
184,34,145608,2,0,P|229:42|261:60,1,61.2500005841255,8|0,0:0|0:0,0:0:0:0:
230,268,145791,1,0,0:0:0:0:
279,270,145883,1,0,0:0:0:0:
324,252,145974,1,4,0:0:0:0:
361,220,146066,2,0,P|385:186|404:132,1,61.2500005841255,8|0,0:0|0:0,0:0:0:0:
186,32,146249,1,0,0:0:0:0:
202,77,146340,2,0,P|233:117|262:135,1,61.2500005841255,8|0,0:0|0:0,0:0:0:0:
381,38,146523,6,0,P|411:60|435:104,1,61.2500005841255,8|0,0:0|0:0,0:0:0:0:
477,257,146706,1,4,0:0:0:0:
454,300,146797,1,0,0:0:0:0:
416,332,146889,1,0,0:0:0:0:
368,340,146980,1,0,0:0:0:0:
320,328,147072,2,0,P|287:307|263:274,1,61.2500005841255,8|0,0:0|0:0,0:0:0:0:
129,118,147255,1,0,0:0:0:0:
177,119,147346,1,0,0:0:0:0:
222,137,147438,1,4,0:0:0:0:
254,173,147529,1,0,0:0:0:0:
300,189,147621,1,0,0:0:0:0:
348,183,147712,1,0,0:0:0:0:
390,158,147803,2,0,P|417:123|426:88,1,61.2500005841255,8|0,0:0|0:0,0:0:0:0:
229,31,147986,5,0,0:0:0:0:
276,45,148078,2,0,P|303:62|345:122,1,61.2500005841255,8|4,0:0|0:0,0:0:0:0:
458,220,148261,1,0,0:0:0:0:
420,251,148352,1,0,0:0:0:0:
373,266,148444,1,0,0:0:0:0:
324,257,148535,2,0,P|291:239|261:207,1,61.2500005841255,8|0,0:0|0:0,0:0:0:0:
142,78,148718,1,0,0:0:0:0:
94,63,148810,1,0,0:0:0:0:
47,78,148901,1,4,0:0:0:0:
27,122,148992,2,0,P|26:164|47:208,1,61.2500005841255,8|0,0:0|0:0,0:0:0:0:
145,336,149175,1,0,0:0:0:0:
133,288,149267,2,0,P|129:239|143:191,1,61.2500005841255,8|0,0:0|0:0,0:0:0:0:
238,68,149450,2,0,P|247:114|246:162,1,61.2500005841255,8|0,0:0|0:0,0:0:0:0:
234,309,149633,5,4,0:0:0:0:
271,339,149724,1,0,0:0:0:0:
319,345,149816,1,8,0:0:0:0:
365,329,149907,1,0,0:0:0:0:
398,293,149999,1,0,0:0:0:0:
400,244,150090,1,0,0:0:0:0:
375,201,150181,1,8,0:0:0:0:
334,172,150273,1,0,0:0:0:0:
310,129,150364,1,0,0:0:0:0:
312,79,150456,1,0,0:0:0:0:
340,39,150547,1,8,0:0:0:0:
387,26,150639,1,0,0:0:0:0:
433,41,150730,1,0,0:0:0:0:
466,76,150822,1,0,0:0:0:0:
466,124,150913,1,8,0:0:0:0:
442,167,151005,1,0,0:0:0:0:
451,214,151096,5,4,0:0:0:0:
488,181,151188,1,0,0:0:0:0:
496,132,151279,1,8,0:0:0:0:
470,89,151371,1,0,0:0:0:0:
423,75,151462,1,0,0:0:0:0:
375,85,151553,1,0,0:0:0:0:
345,124,151645,1,8,0:0:0:0:
337,172,151736,1,0,0:0:0:0:
352,218,151828,1,0,0:0:0:0:
351,266,151919,1,0,0:0:0:0:
319,304,152011,1,8,0:0:0:0:
272,320,152102,1,0,0:0:0:0:
223,310,152194,5,4,0:0:0:0:
262,280,152285,1,0,0:0:0:0:
311,283,152377,1,8,0:0:0:0:
350,311,152468,1,0,0:0:0:0:
365,357,152560,5,4,0:0:0:0:
324,331,152651,1,0,0:0:0:0:
311,283,152742,1,8,0:0:0:0:
330,237,152834,1,0,0:0:0:0:
341,189,152925,1,0,0:0:0:0:
337,139,153017,1,0,0:0:0:0:
309,98,153108,1,8,0:0:0:0:
262,81,153200,1,0,0:0:0:0:
213,85,153291,1,0,0:0:0:0:
177,119,153383,1,0,0:0:0:0:
166,166,153474,1,8,0:0:0:0:
187,210,153566,1,0,0:0:0:0:
201,256,153657,1,0,0:0:0:0:
187,303,153749,1,0,0:0:0:0:
152,337,153840,5,8,0:0:0:0:
103,344,153931,1,0,0:0:0:0:
59,320,154023,1,4,0:0:0:0:
37,276,154114,1,0,0:0:0:0:
51,228,154206,1,8,0:0:0:0:
90,199,154297,1,0,0:0:0:0:
121,161,154389,1,0,0:0:0:0:
133,113,154480,1,0,0:0:0:0:
114,67,154572,1,8,0:0:0:0:
79,32,154663,1,0,0:0:0:0:
29,33,154755,2,0,L|35:79,5,40.8333337227503,2|0|2|0|2|0,0:0|0:0|0:0|0:0|0:0|0:0,0:0:0:0:
188,39,155121,5,2,0:0:0:0:
191,69,155212,1,2,0:0:0:0:
196,99,155303,1,10,0:0:0:0:
198,129,155395,1,2,0:0:0:0:
215,174,155486,5,4,0:0:0:0:
260,192,155578,1,0,0:0:0:0:
308,185,155669,1,8,0:0:0:0:
344,151,155761,1,0,0:0:0:0:
388,132,155852,1,0,0:0:0:0:
437,135,155944,1,0,0:0:0:0:
476,164,156035,1,8,0:0:0:0:
487,211,156127,1,0,0:0:0:0:
466,255,156218,1,0,0:0:0:0:
419,269,156310,1,0,0:0:0:0:
376,245,156401,1,8,0:0:0:0:
364,197,156492,1,0,0:0:0:0:
385,152,156584,1,0,0:0:0:0:
408,109,156675,1,0,0:0:0:0:
396,61,156767,1,8,0:0:0:0:
354,35,156858,1,0,0:0:0:0:
304,30,156950,5,4,0:0:0:0:
335,66,157041,1,0,0:0:0:0:
384,70,157133,1,8,0:0:0:0:
430,85,157224,1,0,0:0:0:0:
461,122,157316,1,0,0:0:0:0:
455,170,157407,1,0,0:0:0:0:
422,207,157499,1,8,0:0:0:0:
373,213,157590,1,0,0:0:0:0:
329,191,157681,1,0,0:0:0:0:
306,147,157773,1,0,0:0:0:0:
267,117,157864,1,8,0:0:0:0:
218,106,157956,1,0,0:0:0:0:
169,114,158047,1,0,0:0:0:0:
131,146,158139,1,0,0:0:0:0:
121,193,158230,5,8,0:0:0:0:
138,238,158322,1,0,0:0:0:0:
178,264,158413,1,4,0:0:0:0:
227,262,158505,1,0,0:0:0:0:
269,238,158596,1,8,0:0:0:0:
317,228,158688,1,0,0:0:0:0:
361,247,158779,1,0,0:0:0:0:
389,287,158871,1,0,0:0:0:0:
390,335,158962,1,8,0:0:0:0:
352,365,159053,1,0,0:0:0:0:
303,356,159145,1,0,0:0:0:0:
281,312,159236,1,0,0:0:0:0:
301,267,159328,1,8,0:0:0:0:
348,258,159419,1,0,0:0:0:0:
395,244,159511,1,0,0:0:0:0:
430,211,159602,1,0,0:0:0:0:
444,163,159694,1,8,0:0:0:0:
431,115,159785,1,0,0:0:0:0:
393,83,159877,5,4,0:0:0:0:
389,131,159968,1,0,0:0:0:0:
418,170,160060,1,8,0:0:0:0:
459,195,160151,1,0,0:0:0:0:
483,236,160242,1,0,0:0:0:0:
484,285,160334,1,0,0:0:0:0:
461,328,160425,1,8,0:0:0:0:
414,344,160517,1,0,0:0:0:0:
368,325,160608,1,6,0:0:0:0:
352,278,160700,1,2,0:0:0:0:
359,229,160791,2,0,P|369:191|398:140,1,61.2500005841255,10|0,0:0|0:0,0:0:0:0:
481,36,160974,2,0,P|436:91|405:116,1,61.2500005841255,2|0,0:0|0:0,0:0:0:0:
282,104,161157,2,0,P|296:77|316:53,1,61.2500005841255,10|0,0:0|0:0,0:0:0:0:
185,80,161340,5,4,0:0:0:0:
176,129,161431,1,0,0:0:0:0:
196,174,161523,1,8,0:0:0:0:
235,205,161614,1,0,0:0:0:0:
283,214,161706,1,0,0:0:0:0:
326,191,161797,1,0,0:0:0:0:
348,148,161889,1,8,0:0:0:0:
345,99,161980,1,0,0:0:0:0:
311,65,162072,1,0,0:0:0:0:
264,54,162163,1,0,0:0:0:0:
217,72,162255,1,8,0:0:0:0:
185,109,162346,1,0,0:0:0:0:
185,158,162438,1,0,0:0:0:0:
193,207,162529,1,0,0:0:0:0:
176,254,162621,1,8,0:0:0:0:
135,279,162712,1,0,0:0:0:0:
87,269,162803,5,4,0:0:0:0:
110,226,162895,1,0,0:0:0:0:
155,209,162986,1,8,0:0:0:0:
203,216,163078,1,0,0:0:0:0:
236,251,163169,1,0,0:0:0:0:
276,278,163261,1,0,0:0:0:0:
324,281,163352,1,8,0:0:0:0:
367,258,163444,1,0,0:0:0:0:
396,219,163535,1,4,0:0:0:0:
397,169,163627,1,0,0:0:0:0:
374,125,163718,1,8,0:0:0:0:
332,98,163810,1,0,0:0:0:0:
283,94,163901,1,0,0:0:0:0:
240,117,163992,1,0,0:0:0:0:
214,158,164084,1,8,0:0:0:0:
211,206,164175,1,0,0:0:0:0:
248,255,164267,5,4,0:0:0:0:
302,226,164358,1,0,0:0:0:0:
331,172,164450,1,8,0:0:0:0:
332,111,164541,1,0,0:0:0:0:
306,54,164633,1,0,0:0:0:0:
253,22,164724,1,0,0:0:0:0:
191,23,164816,1,8,0:0:0:0:
138,54,164907,1,0,0:0:0:0:
104,105,164999,1,0,0:0:0:0:
107,165,165090,1,0,0:0:0:0:
142,214,165181,1,8,0:0:0:0:
199,235,165273,1,0,0:0:0:0:
259,224,165364,1,0,0:0:0:0:
309,188,165456,1,0,0:0:0:0:
351,143,165547,1,8,0:0:0:0:
411,131,165639,1,0,0:0:0:0:
489,164,165730,5,2,2:3:0:0:
500,249,165822,1,2,2:3:0:0:
452,319,165913,1,10,2:3:0:0:
366,329,166005,1,2,2:3:0:0:
305,269,166096,1,2,2:3:0:0:
295,183,166188,1,2,2:3:0:0:
346,114,166279,1,10,2:3:0:0:
431,106,166371,5,2,2:3:0:0:
390,181,166462,1,2,2:3:0:0:
305,188,166553,1,2,2:3:0:0:
241,129,166645,1,10,2:3:0:0:
165,88,166736,1,2,2:3:0:0:
79,101,166828,1,2,2:3:0:0:
25,167,166919,1,2,2:3:0:0:
37,252,167011,1,10,2:3:0:0:
108,299,167102,1,2,2:3:0:0:
191,278,167194,2,0,B|228:264|244:233|244:233|289:231|320:277|320:277,1,157.500006008148,4|0,0:0|0:0,0:0:0:0:
360,359,167560,5,2,0:0:0:0:
260,303,167742,2,0,P|222:283|183:278,1,70,2|0,0:0|0:0,0:0:0:0:
82,292,168108,1,0,0:0:0:0:
82,292,168291,1,0,0:0:0:0:
88,176,168474,6,0,P|93:131|116:83,1,70,2|0,0:0|0:0,0:0:0:0:
184,192,168840,1,0,0:0:0:0:
184,192,169023,1,0,0:0:0:0:
208,80,169206,2,0,P|227:44|254:25,1,70,2|0,0:0|0:0,0:0:0:0:
365,27,169572,1,0,0:0:0:0:
439,74,169755,1,0,0:0:0:0:
354,124,169938,5,8,0:0:0:0:
354,124,170029,1,0,0:0:0:0:
354,124,170121,1,0,0:0:0:0:
420,313,170303,1,2,0:0:0:0:
306,327,170486,1,0,0:0:0:0:
318,214,170669,2,0,P|256:236|233:257,1,70,2|0,0:0|0:0,0:0:0:0:
174,324,171035,1,0,0:0:0:0:
174,324,171218,1,0,0:0:0:0:
116,230,171401,6,0,L|134:154,1,70,2|0,0:0|0:0,0:0:0:0:
200,34,171767,1,0,0:0:0:0:
200,34,171950,2,0,L|228:107,1,70,0|2,0:0|0:0,0:0:0:0:
278,239,172316,1,0,0:0:0:0:
311,249,172407,1,0,0:0:0:0:
345,244,172499,1,0,0:0:0:0:
375,226,172590,1,0,0:0:0:0:
401,203,172681,2,0,L|419:143,1,52.5000020027161,10|0,0:0|0:0,0:0:0:0:
301,68,172864,5,0,0:0:0:0:
301,68,172956,1,0,0:0:0:0:
301,68,173047,2,0,L|278:15,1,52.5000020027161,10|0,0:0|0:0,0:0:0:0:
153,34,173230,2,0,L|184:77,1,52.5000020027161,2|0,0:0|0:0,0:0:0:0:
72,108,173413,2,0,L|21:71,1,52.5000020027161,10|0,0:0|0:0,0:0:0:0:
1,186,173596,2,0,B|23:244,1,52.5000020027161,2|0,0:0|0:0,0:0:0:0:
143,322,173779,1,8,0:0:0:0:
143,322,173871,1,0,0:0:0:0:
143,322,173962,2,0,L|168:243,1,52.5000020027161,2|0,0:0|0:0,0:0:0:0:
259,190,174145,2,0,L|277:244,1,52.5000020027161,10|0,0:0|0:0,0:0:0:0:
365,331,174328,6,0,L|393:258,1,52.5000020027161,2|0,0:0|0:0,0:0:0:0:
426,173,174511,1,8,0:0:0:0:
426,173,174602,1,0,0:0:0:0:
426,173,174694,2,0,L|356:136,1,52.5000020027161,2|0,0:0|0:0,0:0:0:0:
352,33,174877,2,0,L|256:60,1,52.5000020027161,10|0,0:0|0:0,0:0:0:0:
252,134,175060,2,0,L|182:97,1,52.5000020027161,2|0,0:0|0:0,0:0:0:0:
186,22,175242,2,0,L|110:48,1,52.5000020027161,10|0,0:0|0:0,0:0:0:0:
108,151,175425,1,0,0:0:0:0:
108,151,175517,1,0,0:0:0:0:
108,151,175608,2,0,L|175:187,1,52.5000020027161,10|0,0:0|0:0,0:0:0:0:
153,284,175791,5,0,0:0:0:0:
153,284,175883,1,0,0:0:0:0:
153,284,175974,2,0,L|86:320,1,52.5000020027161,10|0,0:0|0:0,0:0:0:0:
21,203,176157,1,2,0:0:0:0:
48,186,176249,1,2,0:0:0:0:
78,176,176340,1,2,0:0:0:0:
108,181,176431,1,2,0:0:0:0:
146,197,176523,5,10,0:0:0:0:
187,195,176614,1,2,0:0:0:0:
221,170,176706,1,2,0:0:0:0:
235,130,176797,1,2,0:0:0:0:
220,90,176889,1,2,0:0:0:0:
182,72,176980,1,2,0:0:0:0:
129,75,177072,5,10,0:0:0:0:
145,125,177163,1,2,0:0:0:0:
182,163,177255,1,2,0:0:0:0:
232,175,177346,1,2,0:0:0:0:
283,163,177438,1,2,0:0:0:0:
319,126,177529,1,2,0:0:0:0:
329,75,177621,5,8,0:0:0:0:
277,85,177712,1,0,0:0:0:0:
241,125,177803,1,8,0:0:0:0:
232,175,177895,1,0,0:0:0:0:
250,225,177986,1,0,0:0:0:0:
294,253,178078,1,0,0:0:0:0:
346,249,178169,2,0,P|378:238|404:215,1,52.5000020027161
372,151,178352,2,0,P|395:127|407:94,1,52.5000020027161
268,169,178535,2,0,P|247:143|237:109,1,52.5000020027161
314,73,178718,2,0,P|308:40|315:6,1,52.5000020027161
141,36,178901,6,0,P|127:80|125:124,1,52.5000020027161,14|0,0:0|0:0,0:0:0:0:
191,265,179084,2,0,P|209:202|206:166,1,52.5000020027161,2|0,0:0|0:0,0:0:0:0:
316,52,179267,2,0,P|328:98|328:147,1,52.5000020027161,10|0,0:0|0:0,0:0:0:0:
345,288,179450,1,0,0:0:0:0:
308,325,179541,1,0,0:0:0:0:
257,340,179633,1,8,0:0:0:0:
205,329,179724,1,0,0:0:0:0:
167,292,179816,2,0,P|145:254|141:223,1,52.5000020027161,2|0,0:0|0:0,0:0:0:0:
19,106,179999,2,0,P|71:120|102:136,1,52.5000020027161,10|0,0:0|0:0,0:0:0:0:
235,203,180181,2,0,P|269:216|314:216,1,52.5000020027161,2|0,0:0|0:0,0:0:0:0:
440,112,180364,5,12,0:0:0:0:
459,160,180456,1,0,0:0:0:0:
459,212,180547,2,0,P|444:276|425:295,1,52.5000020027161,2|0,0:0|0:0,0:0:0:0:
363,162,180730,2,0,P|352:138|335:119,1,52.5000020027161,10|0,0:0|0:0,0:0:0:0:
232,121,180913,2,0,P|208:113|182:114,1,52.5000020027161,2|0,0:0|0:0,0:0:0:0:
49,140,181096,1,8,0:0:0:0:
76,185,181188,1,0,0:0:0:0:
123,207,181279,2,0,P|177:219|194:216,1,52.5000020027161,2|0,0:0|0:0,0:0:0:0:
364,207,181462,2,0,P|335:240|308:265,1,52.5000020027161,10|0,0:0|0:0,0:0:0:0:
157,315,181645,2,0,P|209:331|228:333,1,52.5000020027161,2|0,0:0|0:0,0:0:0:0:
392,322,181828,6,0,P|335:309|311:299,1,52.5000020027161,14|0,0:0|0:0,0:0:0:0:
236,156,182011,2,0,P|287:177|296:182,1,52.5000020027161,2|0,0:0|0:0,0:0:0:0:
460,245,182194,2,0,P|411:222|396:211,1,52.5000020027161,10|0,0:0|0:0,0:0:0:0:
311,75,182377,1,0,0:0:0:0:
363,79,182468,1,0,0:0:0:0:
410,102,182560,1,8,0:0:0:0:
442,143,182651,1,0,0:0:0:0:
458,192,182742,2,0,P|458:254|447:285,1,52.5000020027161,2|0,0:0|0:0,0:0:0:0:
312,356,182925,2,0,P|327:300|331:268,1,52.5000020027161,10|0,0:0|0:0,0:0:0:0:
245,138,183108,2,0,P|231:196|231:220,1,52.5000020027161,2|0,0:0|0:0,0:0:0:0:
146,353,183291,5,12,0:0:0:0:
140,300,183383,1,0,0:0:0:0:
123,250,183474,1,0,0:0:0:0:
90,208,183566,1,0,0:0:0:0:
46,179,183657,2,0,P|18:157|5:135,1,52.5000020027161,10|0,0:0|0:0,0:0:0:0:
146,19,183840,2,0,P|174:40|190:61,1,52.5000020027161,2|0,0:0|0:0,0:0:0:0:
212,238,184023,2,0,P|193:209|181:186,1,52.5000020027161,14|0,0:0|0:0,0:0:0:0:
285,31,184206,1,0,0:0:0:0:
297,81,184297,1,0,0:0:0:0:
320,128,184389,1,8,0:0:0:0:
358,162,184480,1,0,0:0:0:0:
407,181,184572,2,0,P|464:177|487:168,1,52.5000020027161,2|0,0:0|0:0,0:0:0:0:
314,295,184755,6,0,P|359:313|381:320,1,52.5000020027161,14|0,0:0|0:0,0:0:0:0:
164,340,184938,2,0,P|199:360|216:363,1,52.5000020027161,2|0,0:0|0:0,0:0:0:0:
52,256,185121,2,0,P|17:234|2:227,1,52.5000020027161,10|0,0:0|0:0,0:0:0:0:
125,154,185303,1,0,0:0:0:0:
127,101,185395,1,0,0:0:0:0:
143,51,185486,1,8,0:0:0:0:
184,18,185578,1,0,0:0:0:0:
234,5,185669,2,0,P|261:7|302:22,1,52.5000020027161,2|0,0:0|0:0,0:0:0:0:
460,78,185852,2,0,P|417:93|391:95,1,52.5000020027161,10|0,0:0|0:0,0:0:0:0:
223,86,186035,2,0,P|246:135|251:142,1,52.5000020027161,2|0,0:0|0:0,0:0:0:0:
394,252,186218,5,12,0:0:0:0:
346,229,186310,1,0,0:0:0:0:
295,215,186401,2,0,P|241:209|218:215,1,52.5000020027161,2|0,0:0|0:0,0:0:0:0:
75,288,186584,2,0,P|48:322|41:349,1,52.5000020027161,10|0,0:0|0:0,0:0:0:0:
88,155,186767,2,0,P|57:108|49:101,1,52.5000020027161,2|0,0:0|0:0,0:0:0:0:
183,253,186950,1,12,0:0:0:0:
227,280,187041,1,0,0:0:0:0:
279,283,187133,1,0,0:0:0:0:
328,266,187224,1,0,0:0:0:0:
361,225,187316,1,8,0:0:0:0:
362,172,187407,1,0,0:0:0:0:
383,123,187499,1,0,0:0:0:0:
423,90,187590,1,0,0:0:0:0:
474,79,187681,6,0,P|481:134|474:172,1,52.5000020027161,14|0,0:0|0:0,0:0:0:0:
440,313,187864,2,0,P|425:257|423:230,1,52.5000020027161,2|0,0:0|0:0,0:0:0:0:
296,126,188047,2,0,P|295:184|300:199,1,52.5000020027161,10|0,0:0|0:0,0:0:0:0:
231,358,188230,1,0,0:0:0:0:
213,308,188322,1,0,0:0:0:0:
210,255,188413,1,8,0:0:0:0:
210,202,188505,1,0,0:0:0:0:
190,153,188596,1,4,0:0:0:0:
147,121,188688,1,0,0:0:0:0:
95,115,188779,2,0,P|37:134|22:148,1,52.5000020027161,14|0,0:0|0:0,0:0:0:0:
94,254,188962,2,0,P|62:299|55:321,1,52.5000020027161,2|0,0:0|0:0,0:0:0:0:
188,345,189145,5,8,0:0:0:0:
219,303,189236,1,0,0:0:0:0:
241,255,189328,1,0,0:0:0:0:
245,202,189419,1,0,0:0:0:0:
261,151,189511,1,8,0:0:0:0:
294,110,189602,1,0,0:0:0:0:
343,91,189694,1,0,0:0:0:0:
395,94,189785,1,0,0:0:0:0:
434,128,189877,2,0,L|456:187,5,35.0000013351441,2|0|2|0|2|0,0:0|0:0|0:0|0:0|0:0|0:0,0:0:0:0:
391,290,190242,5,2,0:0:0:0:
354,251,190334,1,2,0:0:0:0:
347,199,190425,1,2,0:0:0:0:
336,147,190517,1,2,0:0:0:0:
315,98,190608,2,0,B|298:77|257:81|257:81|238:131|189:106|189:106|129:116|112:178|112:178|148:226|204:227|255:186|255:186,1,420.000016021729,14|0,0:0|0:0,0:0:0:0:
