osu file format v14

[General]
AudioFilename: Wrath and Cowardice.mp3
AudioLeadIn: 0
PreviewTime: 68217
Countdown: 0
SampleSet: None
StackLeniency: 0.7
Mode: 0
LetterboxInBreaks: 0
WidescreenStoryboard: 0

[Editor]
Bookmarks: 20959
DistanceSpacing: 0.2
BeatDivisor: 4
GridSize: 4
TimelineZoom: 1.4

[Metadata]
Title:Wrath and Cowardice
TitleUnicode:Wrath and Cowardice
Artist:RichaadEB
ArtistUnicode:RichaadEB
Creator:AllStar12
Version:Determination
Source:Undertale
Tags:Asgore Toby Fox Bergentrückung Ace Waters
BeatmapID:865656
BeatmapSetID:398078

[Difficulty]
HPDrainRate:7
CircleSize:3.5
OverallDifficulty:8
ApproachRate:9.3
SliderMultiplier:1.8
SliderTickRate:1

[Events]
//Background and Video events
//Break Periods
2,16129,18561
2,68417,69752
//Storyboard Layer 0 (Background)
//Storyboard Layer 1 (Fail)
//Storyboard Layer 2 (Pass)
//Storyboard Layer 3 (Foreground)
//Storyboard Sound Samples

[TimingPoints]
0,265.486725663717,4,1,2,60,1,0
0,-200,4,1,2,60,0,0
8097,-200,4,1,1,60,0,0
8230,-200,4,1,2,60,0,0
12743,-142.857142857143,4,1,2,60,0,0
13805,-125,4,1,2,60,0,0
14867,-111.111111111111,4,1,2,60,0,0
19115,-200,4,1,1,60,0,0
19646,-133.333333333333,4,1,1,60,0,0
20176,261.096605744125,4,1,1,60,1,0
27486,-200,4,1,2,60,0,0
28008,-133.333333333333,4,1,2,60,0,0
28531,-100,4,1,1,60,0,0
34797,-100,4,1,2,60,0,0
35841,-200,4,1,1,60,0,0
36363,-133.333333333333,4,1,1,60,0,0
36886,-100,4,1,1,60,0,0
44196,-200,4,1,2,60,0,0
44719,-133.333333333333,4,1,2,60,0,0
45241,-100,4,1,1,60,0,0
52551,-200,4,1,1,60,0,0
53074,-133.333333333333,4,1,1,60,0,0
53596,-166.666666666667,4,1,1,60,0,0
55685,-142.857142857143,4,1,1,60,0,0
57773,-125,4,1,1,60,0,0
61951,-111.111111111111,4,1,1,60,0,0
66129,-100,4,1,1,60,0,0
70306,-100,4,1,1,60,0,1
71612,-100,4,3,2,60,0,1
71742,-100,4,1,1,60,0,1
71873,-100,4,3,2,60,0,1
72003,-100,4,1,1,60,0,1
72134,-100,4,3,2,60,0,1
72264,-100,4,1,1,60,0,1
73700,-100,4,3,2,60,0,1
73831,-100,4,1,1,60,0,1
73961,-100,4,3,2,60,0,1
74092,-100,4,1,1,60,0,1
74222,-100,4,3,2,60,0,1
74353,-100,4,1,1,60,0,1
79967,-100,4,3,2,60,0,1
80097,-100,4,1,1,60,0,1
80228,-100,4,3,2,60,0,1
80358,-100,4,1,1,60,0,1
80489,-100,4,3,2,60,0,1
80619,-100,4,1,1,60,0,1
82055,-100,4,3,2,60,0,1
82186,-100,4,1,1,60,0,1
82316,-100,4,3,2,60,0,1
82447,-100,4,1,1,60,0,1
82578,-100,4,3,2,60,0,1
82708,-100,4,1,1,60,0,1
88322,-100,4,3,2,60,0,1
88452,-100,4,1,1,60,0,1
88583,-100,4,3,2,60,0,1
88713,-100,4,1,1,60,0,1
88844,-100,4,3,2,60,0,1
88974,-100,4,1,1,60,0,1
90410,-100,4,3,2,60,0,1
90541,-100,4,1,1,60,0,1
90672,-100,4,3,2,60,0,1
90802,-100,4,1,1,60,0,1
90933,-100,4,3,2,60,0,1
91063,-100,4,1,1,60,0,1
96677,-100,4,3,2,60,0,1
96807,-100,4,1,1,60,0,1
96938,-100,4,3,2,60,0,1
97068,-100,4,1,1,60,0,1
97199,-100,4,3,2,60,0,1
97330,-100,4,1,1,60,0,1
98766,-100,4,3,2,60,0,1
98896,-100,4,1,1,60,0,1
99027,-100,4,3,2,60,0,1
99157,-100,4,1,1,60,0,1
99288,-100,4,3,2,60,0,1
99418,-100,4,1,1,60,0,1
103726,-100,4,1,1,60,0,0
111037,-100,4,1,2,60,0,0
112082,-100,4,1,0,60,0,1
128792,-100,4,1,0,60,0,0

[Colours]
Combo1 : 0,215,215
Combo2 : 0,202,0
Combo3 : 0,101,223
Combo4 : 217,13,44
Combo5 : 236,177,0
Combo6 : 112,0,223
Combo7 : 234,234,0

[HitObjects]
303,203,0,6,2,P|392:153|388:68,1,180,6|2,0:0|0:0,0:0:0:0:
308,297,1061,2,0,P|218:244|219:162,1,180,6|10,0:0|0:0,0:0:0:0:
217,168,1858,1,10,0:0:0:0:
222,160,2123,6,0,L|25:146,1,180,6|2,0:0|0:0,0:0:0:0:
469,147,3185,5,6,0:0:0:0:
361,155,3451,2,2,L|331:156,3,30
392,153,3982,1,2,0:0:0:0:
221,159,4247,6,0,P|138:131|54:159,1,180,6|2,0:0|0:0,0:0:0:0:
302,235,5309,1,6,0:0:0:0:
130,342,5575,1,2,0:0:0:0:
210,235,5840,1,10,0:0:0:0:
381,342,6106,1,10,0:0:0:0:
458,159,6371,6,0,P|374:130|291:159,2,180,6|2|6,0:0|0:0|0:0,0:0:0:0:
375,266,7699,5,2,0:0:0:0:
372,270,7765,1,0,0:0:0:0:
369,275,7831,1,0,0:0:0:0:
366,280,7898,1,0,0:0:0:0:
363,285,7964,2,0,L|354:347,1,45,2|8,0:0|0:3,0:0:0:0:
488,293,8230,2,0,L|479:231,1,45,10|2,0:0|0:0,0:0:0:0:
291,158,8495,6,0,L|192:148,1,90,6|2,0:0|0:0,0:0:0:0:
173,159,8828,1,0,0:0:0:0:
151,178,8895,1,0,0:0:0:0:
138,204,8961,1,0,0:0:0:0:
134,233,9027,1,0,0:0:0:0:
222,334,9292,1,2,0:0:0:0:
356,329,9557,6,0,P|389:272|390:231,1,90,6|2,0:0|0:0,0:0:0:0:
381,177,9955,1,0,0:0:0:0:
381,177,10088,2,0,L|424:137,1,45,2|0,0:0|0:0,0:0:0:0:
508,76,10353,2,0,L|494:133,1,45,2|0,0:0|0:0,0:0:0:0:
394,64,10619,6,0,P|337:57|295:70,1,90,6|2,0:0|0:0,0:0:0:0:
282,82,10951,2,0,L|269:119,3,22.5,0|0|0|2,0:0|0:0|0:0|0:0,0:0:0:0:
93,52,11415,1,2,0:0:0:0:
93,52,11681,6,0,L|101:113,1,45,2|0,0:0|0:0,0:0:0:0:
201,78,11946,2,0,L|193:139,1,45,2|0,0:0|0:0,0:0:0:0:
26,112,12212,2,0,L|33:170,5,30,2|0|0|2|0|0,0:0|0:0|0:0|0:0|0:0|0:0,0:0:0:0:
77,170,12743,6,0,P|89:220|93:260,1,62.9999980773926,14|0,0:0|0:0,0:0:0:0:
202,253,13008,2,0,P|207:221|215:191,1,62.9999980773926,2|0,0:0|0:0,0:0:0:0:
354,170,13274,2,0,L|287:160,1,62.9999980773926,10|0,0:0|0:0,0:0:0:0:
153,66,13539,2,0,L|216:75,1,62.9999980773926
321,64,13805,6,0,P|349:34|357:1,1,72,14|0,0:0|0:0,0:0:0:0:
440,28,14070,2,0,L|501:24,2,48,2|0|2,0:0|0:0|0:0,0:0:0:0:
455,104,14336,2,0,L|434:196,1,72,10|0,0:0|0:0,0:0:0:0:
329,210,14601,2,0,L|312:139,2,72,2|0|14,0:0|0:0|0:0,0:0:0:0:
361,328,15000,5,0,0:0:0:0:
361,328,15066,1,0,0:0:0:0:
361,328,15132,2,0,L|266:321,1,80.9999975280763,2|0,0:0|0:0,0:0:0:0:
78,307,15398,2,0,L|158:312,1,80.9999975280763,10|0,0:0|0:0,0:0:0:0:
280,322,15663,1,2,0:0:0:0:
223,223,15796,1,0,0:0:0:0:
215,370,15929,1,14,0:0:0:0:
295,195,19115,6,0,P|255:150|216:195,1,135,0|0,3:0|2:0,0:0:0:0:
344,118,19646,6,0,P|255:76|167:118,1,202.500007724762,0|0,3:0|2:0,0:0:0:0:
216,194,20176,6,0,P|215:253|201:303,1,90,6|2,0:0|0:0,0:0:0:0:
27,216,20437,2,0,P|49:177|79:144,1,90,8|2,0:0|0:0,0:0:0:0:
216,195,20698,2,0,L|331:183,1,90,2|2,0:0|0:0,0:0:0:0:
472,321,20959,2,0,P|403:385|339:356,1,135,8|0,0:0|0:0,0:0:0:0:
335,352,21220,6,0,L|245:361,1,90,2|2,0:0|0:0,0:0:0:0:
145,299,21481,1,8,0:0:0:0:
139,182,21612,2,0,P|176:127|241:123,1,135,2|0,0:0|0:0,0:0:0:0:
277,151,21873,2,0,L|366:141,1,90,2|8,0:0|0:0,0:0:0:0:
425,60,22134,1,2,0:0:0:0:
367,241,22264,5,2,0:0:0:0:
308,60,22395,1,2,0:0:0:0:
461,172,22525,1,8,0:0:0:0:
272,172,22656,1,2,0:0:0:0:
220,296,22786,2,0,L|131:312,1,90,2|2,0:0|0:0,0:0:0:0:
272,172,23048,2,0,L|183:155,1,90,8|2,0:0|0:0,0:0:0:0:
23,213,23309,6,0,P|8:172|15:128,1,90,2|2,0:0|0:0,0:0:0:0:
174,70,23570,2,0,P|189:111|182:155,1,90,8|2,0:0|0:0,0:0:0:0:
220,296,23831,2,0,L|131:312,1,90,2|2,0:0|0:0,0:0:0:0:
328,342,24092,2,0,L|417:326,1,90,8|2,0:0|0:0,0:0:0:0:
320,192,24353,5,2,0:0:0:0:
220,296,24484,1,2,0:0:0:0:
182,155,24614,1,8,0:0:0:0:
321,294,24745,2,0,L|526:257,1,180,2|2,0:0|0:0,0:0:0:0:
320,191,25136,2,0,P|241:230|222:314,1,180,8|2,0:0|0:0,0:0:0:0:
150,189,25528,5,2,0:0:0:0:
80,315,25659,1,8,0:0:0:0:
73,308,25789,2,0,P|48:241|76:145,1,135,2|0,0:0|0:0,0:0:0:0:
82,142,26050,2,0,L|198:123,1,90,2|8,0:0|0:0,0:0:0:0:
342,127,26311,1,2,0:0:0:0:
227,214,26442,6,0,L|210:282,3,45,2|0|2|0,0:0|0:0|0:0|0:0,0:0:0:0:
342,127,26703,2,0,L|352:83,3,45,10|0|2|0,0:0|0:0|0:0|0:0,0:0:0:0:
398,259,26964,5,2,0:0:0:0:
389,293,27029,1,0,0:0:0:0:
369,323,27095,1,2,0:0:0:0:
340,344,27160,1,0,0:0:0:0:
305,352,27225,1,10,0:0:0:0:
270,344,27290,1,0,0:0:0:0:
248,335,27356,1,2,0:0:0:0:
226,340,27421,1,0,0:0:0:0:
203,341,27486,6,0,B|163:338|136:315|136:315|59:330,1,135,10|0,0:0|0:0,0:0:0:0:
45,251,28008,6,0,B|162:230|162:230|187:277|262:263,1,202.500007724762,10|0,0:0|0:0,0:0:0:0:
329,216,28531,6,0,P|344:149|336:113,1,90,6|2,0:0|0:0,0:0:0:0:
324,325,28792,2,0,P|374:371|409:382,1,90,8|2,0:0|0:0,0:0:0:0:
232,266,29053,2,0,P|166:286|139:311,1,90,2|2,0:0|0:0,0:0:0:0:
329,216,29314,1,8,0:0:0:0:
309,64,29444,1,2,0:0:0:0:
156,47,29575,6,0,P|90:67|63:92,1,90,2|2,0:0|0:0,0:0:0:0:
309,64,29836,2,0,P|374:43|401:18,1,90,8|2,0:0|0:0,0:0:0:0:
144,137,30097,2,0,L|134:243,1,90,2|2,0:0|0:0,0:0:0:0:
19,326,30358,2,0,L|10:236,1,90,8|2,0:0|0:0,0:0:0:0:
150,299,30619,6,0,P|194:305|238:298,1,90,2|2,0:0|0:0,0:0:0:0:
412,171,30880,2,0,P|368:164|323:171,1,90,8|2,0:0|0:0,0:0:0:0:
106,158,31142,2,0,P|140:129|182:113,1,90,2|2,0:0|0:0,0:0:0:0:
238,298,31403,2,0,P|194:305|150:298,1,90,8|2,0:0|0:0,0:0:0:0:
323,171,31664,6,0,L|355:279,1,90,2|2,0:0|0:0,0:0:0:0:
182,113,31925,2,0,L|72:85,1,90,8|2,0:0|0:0,0:0:0:0:
302,224,32186,2,0,L|333:332,1,90,2|2,0:0|0:0,0:0:0:0:
129,137,32447,1,8,0:0:0:0:
280,277,32578,1,2,0:0:0:0:
76,161,32708,5,2,0:0:0:0:
258,330,32839,1,2,0:0:0:0:
113,258,32969,2,0,L|12:251,1,90,8|2,0:0|0:0,0:0:0:0:
302,224,33230,2,0,L|403:217,1,90,2|2,0:0|0:0,0:0:0:0:
392,64,33491,2,0,L|302:57,1,90,8|2,0:0|0:0,0:0:0:0:
39,130,33753,6,0,L|128:136,1,90,2|2,0:0|0:0,0:0:0:0:
302,223,34014,2,0,P|345:215|378:183,1,90,8|2,0:0|0:0,0:0:0:0:
127,136,34275,2,0,P|113:178|123:221,1,90,2|2,0:0|0:0,0:0:0:0:
306,142,34536,2,0,P|316:98|301:56,1,90,8|2,0:0|0:0,0:0:0:0:
145,11,34797,5,10,0:0:0:0:
145,11,34862,1,4,0:3:0:0:
145,11,34927,1,2,0:0:0:0:
127,136,35058,1,6,0:3:0:0:
215,46,35189,1,2,0:0:0:0:
195,183,35319,1,6,0:3:0:0:
297,46,35450,1,2,0:0:0:0:
317,183,35580,1,6,0:3:0:0:
367,11,35711,1,2,0:0:0:0:
385,136,35841,6,0,L|404:275,1,135,0|0,3:0|2:0,0:0:0:0:
420,102,36363,6,0,L|392:302,1,202.500007724762,0|0,3:0|2:0,0:0:0:0:
317,183,36886,6,0,P|269:159|225:161,1,90,6|2,0:0|0:0,0:0:0:0:
295,350,37147,1,8,0:0:0:0:
403,269,37277,2,0,L|376:80,1,180,2|2,0:0|0:0,0:0:0:0:
512,73,37669,2,0,L|495:173,1,90,8|2,0:0|0:0,0:0:0:0:
317,183,37930,6,0,L|304:91,1,90,2|2,0:0|0:0,0:0:0:0:
192,53,38191,1,8,0:0:0:0:
89,110,38322,2,0,P|63:173|98:280,1,180,2|2,0:0|0:0,0:0:0:0:
109,286,38713,2,0,L|229:281,1,90,8|2,0:0|0:0,0:0:0:0:
312,312,38974,6,0,P|333:244|321:199,1,90,2|2,0:0|0:0,0:0:0:0:
200,72,39236,2,0,P|179:140|191:185,1,90,8|2,0:0|0:0,0:0:0:0:
313,101,39497,2,0,L|403:98,1,90,2|2,0:0|0:0,0:0:0:0:
499,165,39758,1,8,0:0:0:0:
440,266,39888,1,2,0:0:0:0:
330,226,40019,6,0,P|260:241|227:274,1,90,2|2,0:0|0:0,0:0:0:0:
141,303,40280,2,0,P|71:287|38:254,1,90,8|2,0:0|0:0,0:0:0:0:
278,347,40541,2,0,P|347:331|380:298,1,90,2|2,0:0|0:0,0:0:0:0:
458,180,40802,2,0,P|437:248|449:293,1,90,8|2,0:0|0:0,0:0:0:0:
390,115,41063,5,2,0:0:0:0:
260,76,41194,1,2,0:0:0:0:
180,184,41324,1,8,0:0:0:0:
310,145,41455,1,2,0:0:0:0:
390,253,41585,2,0,L|303:227,1,90,2|2,0:0|0:0,0:0:0:0:
173,50,41847,2,0,L|259:75,1,90,8|2,0:0|0:0,0:0:0:0:
484,50,42108,6,0,L|397:75,1,90,2|2,0:0|0:0,0:0:0:0:
303,227,42369,2,0,P|234:224|203:202,1,90,8|2,0:0|0:0,0:0:0:0:
121,83,42630,2,0,L|102:187,1,90,2|2,0:0|0:0,0:0:0:0:
272,144,42891,2,0,L|255:55,1,90,8|2,0:0|0:0,0:0:0:0:
397,74,43152,6,0,L|389:119,3,45,2|0|2|0,0:0|0:0|0:0|0:0,0:0:0:0:
456,205,43413,2,0,L|447:249,3,45,10|0|2|0,0:0|0:0|0:0|0:0,0:0:0:0:
355,309,43674,5,2,0:0:0:0:
320,318,43739,1,0,0:0:0:0:
283,317,43805,1,2,0:0:0:0:
248,307,43870,1,0,0:0:0:0:
216,290,43935,1,10,0:0:0:0:
190,264,44001,1,0,0:0:0:0:
177,245,44066,1,2,0:0:0:0:
168,224,44131,1,0,0:0:0:0:
161,202,44196,6,0,B|151:166|123:144|123:144|132:80,1,135,10|0,0:0|2:0,0:0:0:0:
146,0,44719,6,0,B|197:10|228:60|206:117|206:117|268:155,1,202.500007724762,10|0,0:0|2:0,0:0:0:0:
359,183,45241,5,6,0:0:0:0:
394,181,45306,1,0,0:0:0:0:
427,166,45371,1,2,0:0:0:0:
451,140,45436,1,0,0:0:0:0:
462,106,45502,2,0,L|448:0,1,90,8|2,0:0|0:0,0:0:0:0:
222,90,45763,2,0,L|131:79,1,90,2|2,0:0|0:0,0:0:0:0:
359,183,46024,2,0,P|421:171|450:143,1,90,8|2,0:0|0:0,0:0:0:0:
229,228,46285,6,0,P|181:186|170:147,1,90,2|2,0:0|0:0,0:0:0:0:
377,265,46546,2,0,P|365:327|337:356,1,90,8|2,0:0|0:0,0:0:0:0:
160,252,46807,2,0,L|175:135,1,90,2|2,0:0|0:0,0:0:0:0:
10,141,47068,2,0,L|21:230,1,90,8|2,0:0|0:0,0:0:0:0:
171,162,47330,5,2,0:0:0:0:
204,149,47395,1,0,0:0:0:0:
240,145,47460,1,2,0:0:0:0:
276,149,47525,1,0,0:0:0:0:
309,162,47591,2,0,L|409:124,1,90,8|2,0:0|0:0,0:0:0:0:
260,73,47852,1,2,0:0:0:0:
414,27,47982,1,2,0:0:0:0:
309,162,48113,2,0,L|297:251,1,90,8|2,0:0|0:0,0:0:0:0:
21,230,48374,6,0,L|10:141,1,90,2|2,0:0|0:0,0:0:0:0:
171,162,48635,2,0,L|160:252,1,90,8|2,0:0|0:0,0:0:0:0:
309,162,48896,2,0,L|409:124,1,90,2|2,0:0|0:0,0:0:0:0:
141,113,49157,2,0,L|130:203,1,90,8|2,0:0|0:0,0:0:0:0:
309,162,49418,5,2,0:0:0:0:
306,139,49483,1,0,0:0:0:0:
303,117,49548,1,2,0:0:0:0:
300,94,49613,1,0,0:0:0:0:
298,72,49679,2,0,L|207:16,1,90,8|2,0:0|0:0,0:0:0:0:
228,179,49941,5,2,0:0:0:0:
225,201,50006,1,0,0:0:0:0:
222,223,50071,1,2,0:0:0:0:
219,246,50136,1,0,0:0:0:0:
217,269,50202,2,0,L|126:325,1,90,8|2,0:0|0:0,0:0:0:0:
68,152,50463,5,2,0:0:0:0:
68,152,50528,1,0,0:0:0:0:
68,152,50593,1,2,0:0:0:0:
68,152,50659,1,0,0:0:0:0:
68,152,50724,2,0,L|175:144,1,90,8|2,0:0|0:0,0:0:0:0:
444,232,50985,5,2,0:0:0:0:
444,232,51050,1,0,0:0:0:0:
444,232,51115,1,2,0:0:0:0:
444,232,51181,1,0,0:0:0:0:
444,232,51246,2,0,L|337:224,1,90,8|2,0:0|0:0,0:0:0:0:
256,106,51507,6,0,L|264:61,3,45,2|0|2|0,0:0|0:0|0:0|0:0,0:0:0:0:
149,189,51768,2,0,L|157:144,3,45,10|0|2|0,0:0|0:0|0:0|0:0,0:0:0:0:
233,274,52029,5,0,0:0:0:0:
268,280,52095,1,0,0:0:0:0:
303,273,52160,1,0,0:0:0:0:
333,254,52225,1,0,0:0:0:0:
354,225,52290,2,0,L|443:218,1,90,10|2,0:0|0:0,0:0:0:0:
270,191,52551,6,0,L|116:188,1,135,2|0,3:0|0:2,0:0:0:0:
333,254,53074,6,0,L|491:243,1,135.000005149842,2|4,3:0|0:3,0:0:0:0:
358,110,53596,6,0,L|347:39,1,53.9999983520508,6|0,0:0|0:0,0:0:0:0:
478,35,53857,2,0,L|465:87,1,53.9999983520508
262,88,54118,2,0,L|270:34,1,53.9999983520508,2|0,0:0|0:0,0:0:0:0:
447,159,54379,2,0,L|434:211,1,53.9999983520508
427,237,54575,1,0,0:0:0:0:
421,263,54640,6,0,L|408:315,1,53.9999983520508,2|0,0:0|0:0,0:0:0:0:
139,263,54901,2,0,L|152:315,1,53.9999983520508
280,215,55162,2,0,L|279:268,1,53.9999983520508,2|0,0:0|0:0,0:0:0:0:
133,241,55424,1,0,0:0:0:0:
279,292,55554,1,0,0:0:0:0:
198,194,55685,6,0,P|189:163|190:132,1,62.9999980773926,6|0,0:0|0:0,0:0:0:0:
281,89,55946,2,0,P|290:120|289:151,1,62.9999980773926
92,152,56207,2,0,P|90:120|99:90,1,62.9999980773926,2|0,0:0|0:0,0:0:0:0:
387,131,56468,2,0,P|388:162|379:192,1,62.9999980773926
361,219,56664,1,0,0:0:0:0:
335,236,56729,6,0,L|324:326,1,62.9999980773926,2|0,0:0|0:0,0:0:0:0:
443,250,56990,2,0,L|505:239,1,62.9999980773926
295,151,57251,2,0,L|225:147,1,62.9999980773926,2|0,0:0|0:0,0:0:0:0:
101,96,57512,2,0,L|136:98,1,31.4999990386963
208,41,57643,2,0,L|206:72,1,31.4999990386963
157,172,57773,6,0,L|152:273,1,72,6|0,0:0|0:0,0:0:0:0:
294,150,58035,2,0,L|299:222,1,72
363,320,58296,2,0,P|333:304|267:301,1,72,2|0,0:0|0:0,0:0:0:0:
55,331,58557,2,0,P|90:325|122:308,1,72
144,279,58753,1,0,0:0:0:0:
153,244,58818,6,0,L|157:172,1,72,6|0,0:0|0:0,0:0:0:0:
165,57,59079,1,0,0:0:0:0:
83,156,59209,1,0,0:0:0:0:
229,108,59340,2,0,P|244:76|245:41,1,72,2|0,0:0|0:0,0:0:0:0:
101,5,59601,2,0,P|85:37|84:72,1,72
239,191,59862,6,0,P|307:173|376:191,1,144,6|0,0:0|0:0,0:0:0:0:
448,252,60254,1,2,0:0:0:0:
448,252,60384,1,2,0:0:0:0:
311,264,60515,1,2,0:0:0:0:
460,220,60645,1,2,0:0:0:0:
298,295,60776,1,2,0:0:0:0:
465,281,60907,1,6,0:0:0:0:
293,234,61037,6,0,P|224:251|155:234,1,144,0|6,0:0|0:0,0:0:0:0:
293,146,61429,2,0,P|338:159|370:192,1,72,2|0,0:0|0:0,0:0:0:0:
215,97,61690,2,0,P|203:51|216:7,1,72,10|0,0:0|0:0,0:0:0:0:
211,189,61951,6,0,L|137:249,1,80.9999975280763,6|2,0:0|0:0,0:0:0:0:
127,47,62212,2,0,L|117:141,1,80.9999975280763,2|2,0:0|0:0,0:0:0:0:
293,146,62473,2,0,L|284:65,1,80.9999975280763,2|2,0:0|0:0,0:0:0:0:
95,3,62734,2,0,L|87:84,1,80.9999975280763,2|6,0:0|0:0,0:0:0:0:
284,65,62995,6,0,P|331:67|386:104,1,80.9999975280763,2|2,0:0|0:0,0:0:0:0:
459,153,63256,2,0,P|480:194|476:260,1,80.9999975280763,10|2,0:0|0:0,0:0:0:0:
303,148,63518,2,0,P|256:154|205:197,1,80.9999975280763,10|2,0:0|0:0,0:0:0:0:
376,300,63779,2,0,P|392:263|392:222,1,80.9999975280763,10|2,0:0|0:0,0:0:0:0:
249,252,64040,6,0,L|150:247,1,80.9999975280763,6|2,0:0|0:0,0:0:0:0:
229,334,64301,2,0,L|309:338,1,80.9999975280763,2|2,0:0|0:0,0:0:0:0:
303,148,64562,2,0,P|256:154|205:197,1,80.9999975280763,2|2,0:0|0:0,0:0:0:0:
151,325,64823,2,0,P|168:281|156:215,1,80.9999975280763,2|6,0:0|0:0,0:0:0:0:
75,95,65084,6,0,P|58:131|58:172,1,80.9999975280763,2|2,0:0|0:0,0:0:0:0:
227,171,65345,2,0,L|213:84,1,80.9999975280763,10|2,0:0|0:0,0:0:0:0:
296,257,65606,2,0,L|283:336,1,80.9999975280763,10|2,0:0|0:0,0:0:0:0:
365,171,65867,2,0,L|351:84,1,80.9999975280763,10|2,0:0|0:0,0:0:0:0:
167,247,66129,6,0,L|151:346,1,90,6|2,0:0|0:0,0:0:0:0:
345,247,66390,2,0,L|361:346,1,90,2|2,0:0|0:0,0:0:0:0:
121,198,66651,2,0,L|131:297,1,90,6|2,0:0|0:0,0:0:0:0:
391,198,66912,2,0,L|380:297,1,90,2|2,0:0|0:0,0:0:0:0:
192,153,67173,6,0,P|180:110|192:67,1,90,6|0,0:0|0:0,0:0:0:0:
319,67,67434,2,0,P|331:110|320:153,1,90,2|2,0:0|0:0,0:0:0:0:
121,198,67695,1,6,0:0:0:0:
391,198,67826,1,2,0:0:0:0:
256,110,67956,1,10,0:0:0:0:
256,96,68021,1,0,0:0:0:0:
256,82,68087,1,10,0:0:0:0:
256,68,68152,1,0,0:0:0:0:
256,54,68217,5,6,0:0:0:0:
256,192,70306,5,6,0:0:0:0:
