osu file format v14

[General]
AudioFilename: UnderTale- Heartache (Toriel Battle) - Metal Cover -- RichaadEB.mp3
AudioLeadIn: 0
PreviewTime: 94200
Countdown: 0
SampleSet: Soft
StackLeniency: 0.5
Mode: 0
LetterboxInBreaks: 1
WidescreenStoryboard: 1

[Editor]
DistanceSpacing: 1.6
BeatDivisor: 4
GridSize: 4
TimelineZoom: 3.199999

[Metadata]
Title:Undertale: Heartache
TitleUnicode:Undertale: Heartache
Artist:RichaadEB
ArtistUnicode:RichaadEB
Creator:Maelstrrom
Version:Why are you making this so difficult?
Source:Determination
Tags:
BeatmapID:1062606
BeatmapSetID:499218

[Difficulty]
HPDrainRate:6
CircleSize:4
OverallDifficulty:7
ApproachRate:9.5
SliderMultiplier:1.79999990463257
SliderTickRate:1

[Events]
//Background and Video events
0,0,"undertale__heartache_by_captainclovey-d9edfqc.png",0,0
//Break Periods
//Storyboard Layer 0 (Background)
//Storyboard Layer 1 (Fail)
//Storyboard Layer 2 (Pass)
//Storyboard Layer 3 (Foreground)
//Storyboard Sound Samples

[TimingPoints]
754,255.31914893617,4,2,0,60,1,0
754,-100,4,2,0,60,0,0

[Colours]
Combo1 : 245,70,255
Combo2 : 255,160,83
Combo3 : 0,255,255

[HitObjects]
423,280,754,6,0,L|510:317,4,89.9999952316285
452,144,1519,5,4,0:0:0:0:
376,16,1615,1,0,0:0:0:0:
332,160,1743,1,0,0:0:0:0:
440,60,1871,1,0,0:0:0:0:
400,204,1998,1,0,0:0:0:0:
188,136,2285,6,0,L|234:217,4,89.9999952316285
68,356,3051,1,4,0:0:0:0:
112,212,3179,1,0,0:0:0:0:
156,356,3307,1,0,0:0:0:0:
180,248,3434,1,0,0:0:0:0:
72,276,3562,1,0,0:0:0:0:
295,248,3817,6,0,L|255:139,4,89.9999952316285
164,12,4583,5,4,0:0:0:0:
192,160,4711,1,0,0:0:0:0:
232,16,4839,1,0,0:0:0:0:
264,164,4966,1,0,0:0:0:0:
344,36,5094,1,0,0:0:0:0:
480,236,5349,6,2,B|428:360|328:240|256:376|256:376|152:236|56:360|51:204,1,539.999971389771,10|2,0:0|0:0,0:0:0:0:
52,185,6243,1,2,0:0:0:0:
83,140,6371,1,2,0:0:0:0:
425,200,6626,5,8,0:0:0:0:
256,192,6881,12,0,8924,0:0:0:0:
256,192,9945,12,4,11473,0:0:0:0:
23,28,13013,6,0,B|159:100|-17:196|141:260,1,269.999985694885,8|8,0:0|0:0,0:0:0:0:
432,264,13649,1,0,0:0:0:0:
432,264,13777,1,0,0:0:0:0:
232,40,14032,5,4,0:0:0:0:
500,168,14286,1,4,0:0:0:0:
231,280,14541,1,4,0:0:0:0:
23,28,15051,5,8,0:0:0:0:
64,336,15305,2,8,B|188:356|116:260|264:284,1,186.666660308838,8|12,0:0|0:0,0:0:0:0:
376,108,15815,1,8,0:0:0:0:
448,192,16070,2,0,P|464:48|320:16,1,279.999990463257,4|0,0:0|0:0,0:0:0:0:
238,39,17089,5,0,0:0:0:0:
136,320,17344,1,0,0:0:0:0:
432,344,17598,6,0,B|372:296|372:296|372:160|492:164|216:28,1,419.999985694885,8|0,0:0|0:0,0:0:0:0:
432,340,18618,5,8,0:0:0:0:
305,66,18872,1,8,0:0:0:0:
84,356,19128,2,0,B|491:256|299:184|331:156|331:156|423:4|303:68,1,559.999980926514,4|0,0:0|0:0,0:0:0:0:
423,214,20158,5,8,0:0:0:0:
150,306,20413,1,8,0:0:0:0:
236,32,20668,2,0,B|276:124|412:100|428:240,1,269.999985694885,4|0,0:0|0:0,0:0:0:0:
284,168,21179,5,8,0:0:0:0:
312,4,21434,1,8,0:0:0:0:
268,15,21562,1,8,0:0:0:0:
230,39,21690,1,8,0:0:0:0:
472,180,21945,1,4,0:0:0:0:
348,328,22200,6,2,B|355:274|317:253|317:253|245:260|256:202|256:202|306:173|279:137|279:137|248:141|220:108|220:108|157:93|119:150|119:150|139:207|53:230,1,539.999971389771,6|2,0:2|0:3,0:3:0:0:
256,192,23732,12,4,25264,0:0:0:0:
212,260,25392,5,8,0:0:0:0:
187,212,25519,1,8,0:0:0:0:
164,162,25647,1,8,0:0:0:0:
228,32,25775,1,8,0:0:0:0:
432,108,26006,6,2,P|432:162|384:212,3,93.333330154419
316,132,26516,1,6,0:0:0:0:
432,296,26770,5,8,0:0:0:0:
341,236,26898,1,8,0:0:0:0:
278,323,27025,1,8,0:0:0:0:
136,275,27153,5,8,0:0:0:0:
164,171,27280,1,8,0:0:0:0:
70,117,27407,1,8,0:0:0:0:
180,24,27535,5,8,0:0:0:0:
264,89,27662,1,8,0:0:0:0:
371,73,27790,1,8,0:0:0:0:
268,172,27917,5,12,0:0:0:0:
268,172,28044,1,12,0:0:0:0:
268,172,28172,1,12,0:0:0:0:
393,172,28363,6,0,P|260:304|132:160,1,419.999985694885
60,148,29094,5,2,0:0:0:0:
76,112,29158,1,2,0:0:0:0:
104,88,29222,1,2,0:0:0:0:
140,92,29285,1,2,0:0:0:0:
172,80,29349,1,2,0:0:0:0:
200,104,29413,2,2,L|216:148,5,44.9999976158143
244,172,29796,1,2,0:0:0:0:
268,144,29860,1,2,0:0:0:0:
304,156,29924,1,2,0:0:0:0:
328,188,29988,1,2,0:0:0:0:
356,212,30051,1,2,0:0:0:0:
392,224,30115,1,2,0:0:0:0:
416,252,30179,1,2,0:0:0:0:
412,288,30243,1,2,0:0:0:0:
308,328,30371,6,0,P|248:280|220:272,1,89.9999952316285
172,368,30626,2,0,P|120:344|92:292,1,89.9999952316285
160,220,30881,2,0,P|120:197|64:188,1,93.333330154419
28,88,31136,6,0,B|88:56|184:104|184:104|248:40|296:152|472:80,1,449.999976158143,8|0,0:0|0:0,0:0:0:0:
438,209,32158,2,0,B|300:264|252:152|188:216|188:216|92:168|-8:212,1,449.999976158143,8|0,0:0|0:0,0:0:0:0:
12,356,32924,5,8,0:0:0:0:
216,264,33051,1,0,0:0:0:0:
12,356,33307,1,0,0:0:0:0:
348,348,33690,6,0,B|288:303|315:228|248:180|248:180|179:213|99:142|56:192,1,359.999980926514,8|0,0:0|0:0,0:0:0:0:
164,96,34456,5,2,0:0:0:0:
200,84,34519,1,2,0:0:0:0:
236,88,34583,1,2,0:0:0:0:
272,96,34647,1,2,0:0:0:0:
304,112,34711,1,2,0:0:0:0:
336,136,34775,1,2,0:0:0:0:
360,164,34839,1,2,0:0:0:0:
380,196,34902,1,2,0:0:0:0:
408,220,34966,2,2,P|448:236|472:228,5,44.9999976158143
476,204,35349,5,2,0:0:0:0:
480,160,35413,1,2,0:0:0:0:
472,120,35477,1,2,0:0:0:0:
444,88,35541,1,2,0:0:0:0:
404,92,35605,1,2,0:0:0:0:
372,64,35668,1,2,0:0:0:0:
332,80,35732,1,2,0:0:0:0:
304,112,35796,1,2,0:0:0:0:
292,152,35860,1,2,0:0:0:0:
284,192,35924,1,2,0:0:0:0:
260,224,35988,2,2,P|228:212|192:216,5,44.9999976158143
176,228,36371,5,2,0:0:0:0:
148,264,36434,1,2,0:0:0:0:
101,260,36498,1,2,0:0:0:0:
61,285,36562,1,2,0:0:0:0:
54,330,36626,1,2,0:0:0:0:
89,360,36690,1,2,0:0:0:0:
133,376,36753,1,2,0:0:0:0:
167,345,36817,1,2,0:0:0:0:
205,372,36881,1,2,0:0:0:0:
240,341,36945,1,2,0:0:0:0:
284,360,37009,2,2,P|312:376|344:372,5,44.9999976158143
368,344,37392,5,2,0:0:0:0:
384,292,37456,1,2,0:0:0:0:
368,240,37519,1,2,0:0:0:0:
392,192,37583,1,2,0:0:0:0:
20,108,38554,2,8,B|64:292|64:292|184:276|184:180|184:180|240:116|384:132,1,559.999980926514,8|0,0:0|0:0,0:0:0:0:
436,352,39573,5,8,0:0:0:0:
72,92,39828,1,8,0:0:0:0:
180,64,39955,1,8,0:0:0:0:
288,32,40082,1,8,0:0:0:0:
284,32,40337,6,0,B|400:156|284:264|200:128|240:360|404:168|528:304|244:376,1,513.333315849305
434,82,41229,1,0,0:0:0:0:
33,292,41611,1,0,0:0:0:0:
323,364,41866,1,0,0:0:0:0:
388,188,42121,6,0,B|344:121|368:60|368:60|236:0|36:64,1,466.666650772095
260,128,42885,5,0,0:0:0:0:
122,293,43140,1,0,0:0:0:0:
44,60,43395,1,0,0:0:0:0:
445,80,43649,2,0,P|412:210|96:278,1,466.666650772095
444,80,44668,5,0,0:0:0:0:
93,0,44923,1,0,0:0:0:0:
8,349,45178,2,0,B|71:325|71:325|177:373|272:308|296:218|233:130,1,404.999978542328
440,246,45945,5,0,0:0:0:0:
332,257,46073,1,0,0:0:0:0:
399,366,46200,6,0,B|279:354|254:267|254:267|303:232|345:266,1,269.999985694885
188,328,46711,6,0,B|139:254|215:138|272:220|392:300|568:8|240:50|168:20,1,539.999971389771
109,236,47732,5,0,0:0:0:0:
206,28,47988,1,0,0:0:0:0:
193,230,48243,2,0,P|17:252|52:171,1,359.999980926514
372,111,48881,1,0,0:0:0:0:
323,251,49008,1,0,0:0:0:0:
275,113,49136,1,0,0:0:0:0:
500,68,49264,6,0,B|409:63|324:12|324:12|277:51|134:64,1,359.999980926514
396,58,50796,5,0,0:0:0:0:
74,154,51051,1,0,0:0:0:0:
314,329,51307,2,0,P|432:373|506:272,1,269.999985694885
398,163,51817,5,0,0:0:0:0:
80,272,52073,1,0,0:0:0:0:
199,83,52200,2,0,P|256:106|314:208,1,179.999990463257
225,318,52583,1,0,0:0:0:0:
256,192,52839,12,0,54881,0:0:0:0:
152,88,55942,6,0,L|76:20,2,93.333330154419
380,80,56325,1,0,0:0:0:0:
88,248,56516,2,0,L|155:312,2,93.333330154419
82,25,56898,1,0,0:0:0:0:
380,304,57216,1,0,0:0:0:0:
155,312,57471,6,0,L|79:380,2,93.333330154419
380,304,57854,1,0,0:0:0:0:
88,136,58045,2,0,L|155:71,2,93.333330154419
82,359,58427,1,0,0:0:0:0:
388,88,58745,1,0,0:0:0:0:
176,328,59001,5,0,0:0:0:0:
108,156,59128,1,0,0:0:0:0:
264,256,59255,1,0,0:0:0:0:
76,276,59383,1,0,0:0:0:0:
220,156,59510,1,0,0:0:0:0:
332,156,59765,5,0,0:0:0:0:
188,276,59892,1,0,0:0:0:0:
376,256,60020,1,0,0:0:0:0:
220,156,60147,1,0,0:0:0:0:
288,328,60274,1,0,0:0:0:0:
62,30,60529,5,0,0:0:0:0:
145,196,60656,1,0,0:0:0:0:
200,27,60784,1,0,0:0:0:0:
281,194,60911,1,0,0:0:0:0:
116,107,61038,1,0,0:0:0:0:
281,190,61293,5,0,0:0:0:0:
364,356,61420,1,0,0:0:0:0:
419,187,61548,1,0,0:0:0:0:
500,354,61675,1,0,0:0:0:0:
335,267,61802,1,0,0:0:0:0:
446,73,62058,5,0,0:0:0:0:
344,24,62122,1,0,0:0:0:0:
307,24,62185,1,0,0:0:0:0:
269,24,62249,1,0,0:0:0:0:
231,24,62313,1,0,0:0:0:0:
495,161,62567,5,0,0:0:0:0:
269,357,62822,1,0,0:0:0:0:
86,122,63077,1,0,0:0:0:0:
416,162,63332,2,0,P|350:101|78:130,1,373.333320617676
76,160,63905,5,0,0:0:0:0:
84,196,63969,1,0,0:0:0:0:
100,228,64032,2,0,P|196:280|360:304,1,233.333325386048
497,65,64606,5,0,0:0:0:0:
382,159,64733,1,0,0:0:0:0:
342,15,64860,1,0,0:0:0:0:
316,304,65115,2,0,B|220:256|172:376|40:296,1,279.999990463257
421,130,68158,5,0,0:0:0:0:
394,103,68222,1,0,0:0:0:0:
367,76,68285,1,0,0:0:0:0:
340,49,68349,1,0,0:0:0:0:
313,22,68413,1,0,0:0:0:0:
161,279,68668,5,0,0:0:0:0:
15,18,68924,1,0,0:0:0:0:
313,22,69179,1,0,0:0:0:0:
492,252,69434,2,0,P|428:316|352:305,1,134.999992847443
160,348,69753,5,0,0:0:0:0:
160,301,69817,1,0,0:0:0:0:
160,254,69881,1,0,0:0:0:0:
160,207,69945,1,0,0:0:0:0:
160,160,70009,1,0,0:0:0:0:
160,113,70073,1,0,0:0:0:0:
368,24,70200,1,0,0:0:0:0:
64,352,70456,5,0,0:0:0:0:
280,296,70583,1,0,0:0:0:0:
160,113,70711,1,0,0:0:0:0:
453,156,70966,6,0,P|461:109|420:56,1,93.333330154419
244,176,71222,2,0,P|175:230|271:384,1,269.999985694885
436,280,71732,6,0,L|242:279,1,179.999990463257
64,148,72115,2,0,P|50:93|88:56,1,89.9999952316285
422,85,72498,1,0,0:0:0:0:
35,308,72753,2,0,P|139:228|228:331,1,269.999985694885
397,302,73264,2,0,P|301:328|203:289,1,179.999990463257
196,0,73778,1,0,0:0:0:0:
452,350,74032,1,0,0:0:0:0:
368,4,74287,6,0,P|280:96|196:4,1,279.999990463257
372,148,74797,1,0,0:0:0:0:
232,336,75051,5,0,0:0:0:0:
186,336,75114,1,0,0:0:0:0:
140,336,75178,1,0,0:0:0:0:
94,336,75242,1,0,0:0:0:0:
48,336,75306,1,0,0:0:0:0:
96,184,75562,2,0,P|147:196|197:169,1,89.9999952316285
344,26,75817,6,0,L|342:313,1,269.999985694885
500,8,76328,1,0,0:0:0:0:
213,170,76583,5,0,0:0:0:0:
232,212,76644,1,0,0:0:0:0:
262,247,76711,1,0,0:0:0:0:
299,274,76775,1,0,0:0:0:0:
342,295,76839,1,0,0:0:0:0:
388,124,77094,1,0,0:0:0:0:
8,359,77349,6,0,P|145:391|290:344,1,269.999985694885
240,236,77860,1,0,0:0:0:0:
8,359,78115,6,0,P|141:320|243:233,1,269.999985694885
351,286,78626,1,0,0:0:0:0:
10,356,78881,6,0,P|105:266|157:134,1,269.999985694885
22,97,79392,1,0,0:0:0:0:
10,356,79647,6,0,P|50:216|15:84,1,269.999985694885
130,29,80158,1,0,0:0:0:0:
501,356,80413,5,0,0:0:0:0:
455,345,80477,1,0,0:0:0:0:
409,333,80541,1,0,0:0:0:0:
363,320,80605,1,0,0:0:0:0:
317,310,80668,1,0,0:0:0:0:
481,24,80924,1,0,0:0:0:0:
317,310,81179,5,0,0:0:0:0:
206,20,81434,1,0,0:0:0:0:
498,360,81690,2,0,P|521:271|488:157,1,179.999990463257
112,38,82200,5,0,0:0:0:0:
112,84,82264,1,0,0:0:0:0:
112,130,82328,1,0,0:0:0:0:
112,176,82392,1,0,0:0:0:0:
112,222,82456,1,0,0:0:0:0:
430,116,82711,1,0,0:0:0:0:
41,339,82966,5,0,0:0:0:0:
112,130,83094,1,0,0:0:0:0:
179,342,83222,1,0,0:0:0:0:
112,38,83477,6,0,P|24:129|122:218,1,269.999985694885
433,126,84032,1,0,0:0:0:0:
112,38,84243,6,0,P|190:137|81:214,1,269.999985694885
432,329,84753,1,0,0:0:0:0:
272,33,85009,6,0,P|184:124|279:215,1,269.999985694885
63,121,85519,1,0,0:0:0:0:
272,33,85775,6,0,P|350:132|253:213,1,269.999985694885
435,368,86285,1,0,0:0:0:0:
442,32,86541,6,0,P|354:123|434:214,1,269.999985694885
255,341,87051,1,0,0:0:0:0:
187,183,87307,5,0,0:0:0:0:
199,214,87371,1,0,0:0:0:0:
218,256,87434,1,0,0:0:0:0:
237,298,87498,1,0,0:0:0:0:
255,341,87562,1,0,0:0:0:0:
322,20,87817,5,0,0:0:0:0:
47,196,88073,2,0,P|146:311|294:338,1,269.999985694885
497,376,88583,1,0,0:0:0:0:
325,183,88839,5,0,0:0:0:0:
313,214,88902,1,0,0:0:0:0:
294,256,88966,1,0,0:0:0:0:
275,298,89030,1,0,0:0:0:0:
257,341,89094,1,0,0:0:0:0:
190,20,89349,5,0,0:0:0:0:
466,195,89605,2,0,P|411:301|257:278,1,269.999985694885
348,201,90115,2,0,B|222:180|190:260|190:260|164:183|36:202,1,359.999980926514
186,15,90881,1,0,0:0:0:0:
466,189,91136,2,0,P|411:83|257:106,1,269.999985694885
348,183,91646,2,0,B|222:204|190:124|190:124|164:201|36:182,1,359.999980926514
188,354,92413,1,0,0:0:0:0:
448,215,92668,2,0,B|399:62|186:-7|221:187|317:319|456:73,1,539.999971389771
254,196,94200,5,0,0:0:0:0:
269,209,94966,1,0,0:0:0:0:
200,328,95732,2,0,P|367:285|399:161,1,279.999990463257
