osu file format v14

[General]
AudioFilename: audio.mp3
AudioLeadIn: 0
PreviewTime: 646559
Countdown: 0
SampleSet: None
StackLeniency: 1
Mode: 0
LetterboxInBreaks: 0
EpilepsyWarning: 1
WidescreenStoryboard: 1

[Editor]
Bookmarks: 763,789,815,841,867,892,918,944,970,996,1022,1048,1074,1099,1125,1151,1177,1203,1229,1255,1280,1306,1332,1358,1384,27556,82074,82125,82177,82229,82280,108556,108608,108660,108711,108763,177453,177479,177505,177530,177556,177582,177608,177634,177660,177686,177711,177737,177763,177787,177811,177836,177861,177885,177910,177935,177959,177984,178009,178033,178058,178083,209267,209316,209365,209415,209464,264530,264579,264629,264678,264727,353000,353025,353050,353074,353099,353124,353148,353173,353198,353222,353247,353272,353299,353328,353357,353386,353416,353445,353474,353504,353533,353562,353591,353621,353650,447177,447225,447274,447323,447371,497047,497095,497144,497193,497242,588215,588263,588312,588361,588409,600682,600731,600780,600828,600877,616267,616315,616364,616413,616461,638085,638133,638182,638231,638280,646486,646510,646534,646559,646583,646607,646632,646656,646681,646705,646729,646754,646773,646797,646821,646845,646869,646893,646918,646942,646966,646990,647014,647039,686930,686978,687027,687075,687123,699317,699365,699414,699463,699512,743940,743989,744037,744085,744133,756327,756375,756424,756472,756520,771230,771254,771278,771303,771327,771351,771375,771399,771424,771448,771472,771496,771520,771545,771569,771593,771617,771641,771668,771694,771720,771746,771772,771798,771824,771850,771876,771902,771928,771954,771980,772006,772032,772058,772084,772110,772136,772162,772188,848757,848805,848853,848902,848950,885680,885728,885777,885825,885873,973373,973421,973469,973517,973565,1010296,1010344,1010392,1010440,1010488,1012507,1012531,1012555,1012579,1012603,1012627,1012652,1012676,1012700,1012724,1012748,1012772,1012796,1012820,1012844,1012868,1012892,1012916,1012947,1012970,1012994,1013018,1013041,1013065,1013089,1013113,1013136,1013160,1013184,1013208,1013231,1013255,1013279,1013303,1013326,1013350,1013374,1013397,1013421,1013445,1013469,1013492,1013516,1091691,1091737,1091783,1091830,1091876,1102061,1102108,1102154,1102200,1102246,1156135,1156181,1156228,1156274,1156320,1179490,1179534,1179578,1179622,1179666,1179843,1179865,1179887,1179909,1179931,1179953,1179975,1179997,1180019,1180041,1180063,1180085,1180107,1180130,1180152,1180174,1180196,1180218,1180240,1180262,1180284,1180306,1180328,1180350,1180372,1180394,1180416,1180438,1180460,1180482,1180505,1180527,1180549,1180571,1180593,1180615,1180637,1180659,1180681,1180703,1180725,1180747,1180769,1180791,1180813,1180835,1180857,1180880,1180902,1180924,1180946,1180968,1180990
DistanceSpacing: 0.3
BeatDivisor: 4
GridSize: 32
TimelineZoom: 2.200002

[Metadata]
Title:Touhou Compilation pt. 1
TitleUnicode:Touhou Compilation pt. 1
Artist:RichaadEB
ArtistUnicode:RichaadEB
Creator:K4L1
Version:Saptette for a Dead Princess (Remilia's Theme)
Source:東方Project
Tags:Touhou marathon Remilia Cirno Kaguya Flandre Reisen Metal Cover Theme Septette for the Dead Princess Beloved Tomboyish Daughter Lunatic U.N. Owen Was Her Border of Life Eyes Invisible Full Moon jparecki95
BeatmapID:2130850
BeatmapSetID:1000314

[Difficulty]
HPDrainRate:5
CircleSize:4
OverallDifficulty:9
ApproachRate:9.5
SliderMultiplier:1.6
SliderTickRate:1

[Events]
//Background and Video events
0,0,"sb/TouhouCompilation.jpg",0,0
//Break Periods
//Storyboard Layer 0 (Background)
//Storyboard Layer 1 (Fail)
//Storyboard Layer 2 (Pass)
//Storyboard Layer 3 (Foreground)
//Storyboard Layer 4 (Overlay)
//Storyboard Sound Samples

[TimingPoints]
1074,413.793103448276,4,2,1,40,1,0
1074,-133.333333333333,4,2,1,40,0,0
7694,-133.333333333333,4,2,1,40,0,0
13694,-125,4,2,1,60,0,0
13901,-86.9565217391304,4,2,1,60,0,0
14108,-66.6666666666667,4,2,1,60,0,0
16280,-86.9565217391304,4,2,1,60,0,0
16591,-125,4,2,1,60,0,0
17211,-86.9565217391304,4,2,1,60,0,0
17418,-66.6666666666667,4,2,1,60,0,0
19591,-86.9565217391304,4,2,1,60,0,0
19901,-125,4,2,1,60,0,0
20522,-86.9565217391304,4,2,1,60,0,0
20729,-66.6666666666667,4,2,1,60,0,0
20936,-57.1428571428571,4,2,1,60,0,0
21556,-125,4,2,1,60,0,0
21970,-86.9565217391304,4,2,1,60,0,0
22177,-66.6666666666667,4,2,1,60,0,0
22384,-57.1428571428571,4,2,1,60,0,0
23211,-125,4,2,1,60,0,0
23625,-66.6666666666667,4,2,1,60,0,0
24246,-54.054054054054,4,2,1,60,0,0
24867,-125,4,2,1,60,0,0
25901,-54.054054054054,4,2,1,60,0,0
27556,-80,4,2,1,60,0,0
29211,-90.9090909090909,4,2,1,60,0,0
34177,-100,4,2,1,60,0,0
40177,-80,4,2,1,60,0,0
40384,-57.1428571428571,4,2,1,60,0,0
40591,-44.4444444444445,4,2,1,60,0,0
40798,-57.1428571428571,4,2,1,60,0,0
43487,-80,4,2,1,60,0,0
43694,-57.1428571428571,4,2,1,60,0,0
43901,-44.4444444444445,4,2,1,60,0,0
44108,-57.1428571428571,4,2,1,60,0,0
46798,-80,4,2,1,60,0,0
47005,-57.1428571428571,4,2,1,60,0,0
47211,-44.4444444444445,4,2,1,60,0,0
47418,-57.1428571428571,4,2,1,60,0,0
48453,-80,4,2,1,60,0,0
48660,-57.1428571428571,4,2,1,60,0,0
48867,-44.4444444444445,4,2,1,60,0,0
49074,-57.1428571428571,4,2,1,60,0,0
53211,-50,4,2,1,60,0,0
53625,-40,4,2,1,60,0,0
54039,-66.6666666666667,4,2,1,60,0,0
67280,-50,4,2,1,60,0,0
80108,-40,4,2,1,60,0,0
82177,-50,4,2,1,60,0,0
108660,-50,4,2,1,80,0,1
174867,-80,4,2,1,80,0,1
177787,394.736842105263,4,2,1,60,1,0
180944,-66.6666666666667,4,2,1,60,0,0
207787,-100,4,2,1,60,0,0
215681,-80,4,2,1,60,0,0
221997,-66.6666666666667,4,2,1,60,0,0
234629,-57.1428571428571,4,2,1,60,0,0
259892,-80,4,2,1,60,0,0
263050,-66.6666666666667,4,2,1,60,0,0
263839,-57.1428571428571,4,2,1,60,0,0
264629,-66.6666666666667,4,2,1,60,0,0
277260,-57.1428571428571,4,2,1,60,0,0
293050,-50,4,2,1,80,0,1
295615,-100,4,2,1,80,0,1
299365,-50,4,2,1,80,0,1
303017,-100,4,2,1,80,0,1
304102,-66.6666666666667,4,2,1,80,0,1
305681,-50,4,2,1,80,0,1
330944,-44.4444444444445,4,2,1,80,0,1
343576,-100,4,2,1,60,0,0
348313,-161.290322580645,4,2,1,60,0,0
353299,468.75,4,2,1,40,1,0
361736,434.782608695652,4,2,1,40,1,0
366953,405.405405405405,4,2,1,40,1,0
368574,389.61038961039,4,2,1,75,1,0
368574,-80,4,2,1,60,0,0
374807,-66.6666666666667,4,2,1,60,0,0
377924,-80,4,2,1,60,0,0
379483,-100,4,2,1,60,0,0
380651,-50,4,2,1,60,0,0
381041,-66.6666666666667,4,2,1,60,0,0
405976,-133.333333333333,4,2,1,40,0,0
415327,-100,4,2,1,40,0,0
420781,-80,4,2,1,40,0,0
421561,-66.6666666666667,4,2,1,60,0,0
430911,-133.333333333333,4,2,1,40,0,0
434807,389.61038961039,4,2,1,60,1,0
434807,-133.333333333333,4,2,1,60,0,0
441040,-100,4,2,1,60,0,0
472209,-133.333333333333,4,2,1,60,0,0
475326,-100,4,2,1,60,0,0
497144,-200,4,2,1,40,0,0
506495,-133.333333333333,4,2,1,40,0,0
508053,-100,4,2,1,40,0,0
509612,-80,4,2,1,60,0,0
515845,-66.6666666666667,4,2,1,60,0,0
518962,-80,4,2,1,60,0,0
520521,-100,4,2,1,60,0,0
521690,-50,4,2,1,60,0,0
522079,-66.6666666666667,4,2,1,60,0,0
547014,-133.333333333333,4,2,1,40,0,0
556365,-100,4,2,1,40,0,0
561819,-80,4,2,1,40,0,0
562599,-66.6666666666667,4,2,1,60,0,0
571949,-133.333333333333,4,2,1,40,0,0
575845,389.61038961039,4,2,1,60,1,0
575845,-133.333333333333,4,2,1,60,0,0
588312,-100,4,2,1,60,0,0
600780,-50,4,2,1,80,0,1
607013,-66.6666666666667,4,2,1,80,0,1
610130,-50,4,2,1,80,0,1
613247,-100,4,2,1,60,0,0
638182,-142.857142857143,4,2,1,60,0,0
641299,-142.857142857143,4,2,1,40,0,0
646773,387.096774193548,4,2,1,60,1,0
665349,-50,4,2,1,60,0,0
665736,-133.333333333333,4,2,1,60,0,0
666123,-50,4,2,1,60,0,0
666511,-133.333333333333,4,2,1,60,0,0
666898,-50,4,2,1,60,0,0
667285,-133.333333333333,4,2,1,60,0,0
667672,-50,4,2,1,60,0,0
668446,-40,4,2,1,60,0,0
674253,-66.6666666666667,4,2,1,60,0,0
674640,-100,4,2,1,40,0,0
680833,-57.1428571428571,4,2,1,60,0,0
683930,-66.6666666666667,4,2,1,60,0,0
685478,-100,4,2,1,40,0,0
686253,-57.1428571428571,4,2,1,60,0,0
687027,-66.6666666666667,4,2,1,60,0,0
699414,394.736842105263,4,2,1,40,1,0
700203,401.740877134248,4,2,1,40,1,0
701006,402.684563758389,4,2,1,40,1,0
704227,397.350993377483,4,2,1,40,1,0
705816,400,4,2,1,40,1,0
709016,394.736842105263,4,2,1,40,1,0
711384,-50,4,2,1,60,0,0
711779,379.746835443038,4,2,1,60,1,0
712158,396.039603960396,4,2,1,80,1,1
712158,-50,4,2,1,80,0,1
717999,-40,4,2,1,80,0,1
718296,-33.3333333333333,4,2,1,80,0,1
718489,387.096774193548,4,2,1,40,1,0
724682,-66.6666666666667,4,2,1,60,0,0
726230,-52.6315789473684,4,2,1,60,0,0
737069,-44.4444444444445,4,2,1,60,0,0
743069,-100,4,2,1,40,0,0
744037,387.096774193548,4,2,1,60,1,0
744037,-66.6666666666667,4,2,1,60,0,0
756424,-50,4,2,1,80,0,1
757004,-66.6666666666667,4,2,1,80,0,1
757972,-50,4,2,1,80,0,1
760295,-100,4,2,1,80,0,1
761069,-50,4,2,1,80,0,1
768811,-100,4,2,1,60,0,0
771668,416.666666666667,4,2,1,40,1,0
771668,-133.333333333333,4,2,1,40,0,0
785777,384.615384615385,4,2,1,60,1,0
785777,-80,4,2,1,60,0,0
797315,-57.1428571428571,4,2,1,60,0,0
798084,-66.6666666666667,4,2,1,60,0,0
809623,-50,4,2,1,60,0,0
810007,-40,4,2,1,60,0,0
810392,-66.6666666666667,4,2,1,60,0,0
833469,-133.333333333333,4,2,1,60,0,0
834238,-66.6666666666667,4,2,1,60,0,0
835007,-200,4,2,1,40,0,0
836546,-44.4444444444445,4,2,1,60,0,0
837507,-200,4,2,1,60,0,0
838084,-44.4444444444445,4,2,1,60,0,0
839046,-200,4,2,1,60,0,0
839623,-44.4444444444445,4,2,1,60,0,0
842123,-100,4,2,1,60,0,0
842700,-50,4,2,1,60,0,0
843661,-66.6666666666667,4,2,1,60,0,0
844238,-50,4,2,1,60,0,0
845200,-66.6666666666667,4,2,1,60,0,0
845777,-50,4,2,1,60,0,0
847315,-44.4444444444445,4,2,1,60,0,0
848277,-50,4,2,1,60,0,0
861161,-66.6666666666667,4,2,1,60,0,0
885007,-44.4444444444445,4,2,1,60,0,0
885777,-200,4,2,1,40,0,0
895007,-133.333333333333,4,2,1,40,0,0
896546,-100,4,2,1,60,0,0
898084,-36.3636363636364,4,2,1,60,0,0
907315,-57.1428571428571,4,2,1,60,0,0
910392,-80,4,2,1,60,0,0
921930,-57.1428571428571,4,2,1,60,0,0
922700,-66.6666666666667,4,2,1,60,0,0
934238,-50,4,2,1,60,0,0
934623,-40,4,2,1,60,0,0
935007,-66.6666666666667,4,2,1,60,0,0
947315,-44.4444444444445,4,2,1,80,0,1
951930,-66.6666666666667,4,2,1,80,0,1
953469,-50,4,2,1,80,0,1
955007,-100,4,2,1,80,0,1
956546,-50,4,2,1,80,0,1
958853,-133.333333333333,4,2,1,80,0,1
959142,-66.6666666666667,4,2,1,80,0,1
959623,-200,4,2,1,40,0,0
961161,-44.4444444444445,4,2,1,60,0,0
962123,-200,4,2,1,60,0,0
962700,-44.4444444444445,4,2,1,60,0,0
963661,-200,4,2,1,60,0,0
964238,-44.4444444444445,4,2,1,60,0,0
966738,-100,4,2,1,60,0,0
967315,-50,4,2,1,60,0,0
968277,-66.6666666666667,4,2,1,60,0,0
968853,-50,4,2,1,60,0,0
969815,-66.6666666666667,4,2,1,60,0,0
970392,-50,4,2,1,60,0,0
971930,-44.4444444444445,4,2,1,60,0,0
972892,-50,4,2,1,60,0,0
985777,-66.6666666666667,4,2,1,60,0,0
1009623,-44.4444444444445,4,2,1,60,0,0
1010921,-44.4444444444445,4,2,1,40,0,0
1012947,379.746835443038,4,2,1,60,1,0
1013706,379.746835443038,6,2,1,60,1,0
1013706,-133.333333333333,6,2,1,60,0,0
1018262,-66.6666666666667,6,2,1,60,0,0
1020541,-50,6,2,1,60,0,0
1022819,-80,6,2,1,60,0,0
1041047,-100,6,2,1,40,0,0
1050161,-80,6,2,1,40,0,0
1054718,-66.6666666666667,6,2,1,60,0,0
1059275,-100,6,2,1,40,0,0
1068389,-80,6,2,1,40,0,0
1072946,-66.6666666666667,6,2,1,60,0,0
1075224,-57.1428571428571,6,2,1,60,0,0
1077503,-100,6,2,1,40,0,0
1079781,379.746835443038,4,2,1,60,1,0
1079781,-40,4,2,1,60,0,0
1081299,-50,4,2,1,60,0,0
1081394,-50,4,2,1,5,0,0
1081489,-50,4,2,1,60,0,0
1081584,-50,4,2,1,5,0,0
1081679,-50,4,2,1,60,0,0
1081774,-50,4,2,1,5,0,0
1081869,-50,4,2,1,60,0,0
1081964,-50,4,2,1,5,0,0
1082059,-133.333333333333,4,2,1,60,0,0
1082534,-133.333333333333,4,2,1,5,0,0
1082629,-133.333333333333,4,2,1,60,0,0
1082818,-50,4,2,1,60,0,0
1085097,-42.5531914893617,4,2,1,60,0,0
1085858,370.37037037037,4,2,1,60,1,0
1085858,-40,4,2,1,60,0,0
1086598,-30.7692307692308,4,2,1,60,0,0
1086969,-40,4,2,1,60,0,0
1088080,-33.3333333333333,4,2,1,60,0,0
1088820,-50,4,2,1,60,0,0
1090302,-66.6666666666667,4,2,1,60,0,0
1093265,-50,4,2,1,60,0,0
1093635,-66.6666666666667,4,2,1,60,0,0
1095117,-50,4,2,1,60,0,0
1095487,-66.6666666666667,4,2,1,60,0,0
1097709,-50,4,2,1,60,0,0
1100672,-40,4,2,1,60,0,0
1101691,-57.1428571428571,4,2,1,60,0,0
1101969,-100,4,2,1,60,0,0
1102154,370.37037037037,6,2,1,40,1,0
1106598,-200,6,2,1,40,0,0
1108820,-100,6,2,1,40,0,0
1109931,-200,6,2,1,40,0,0
1110302,-80,6,2,1,40,0,0
1110672,-50,6,2,1,40,0,0
1111042,-66.6666666666667,6,2,1,60,0,0
1114376,-50,6,2,1,60,0,0
1115487,-66.6666666666667,6,2,1,60,0,0
1119931,-57.1428571428571,6,2,1,80,0,1
1122154,-66.6666666666667,6,2,1,80,0,1
1126598,-50,6,2,1,80,0,1
1126968,-44.4444444444445,6,2,1,80,0,1
1128450,-57.1428571428571,6,2,1,80,0,1
1128820,-100,6,2,1,40,0,0
1133265,-200,6,2,1,40,0,0
1135487,-100,6,2,1,40,0,0
1136598,-200,6,2,1,40,0,0
1136968,-80,6,2,1,40,0,0
1137339,-50,6,2,1,40,0,0
1137709,-66.6666666666667,6,2,1,60,0,0
1141043,-50,6,2,1,60,0,0
1142154,-66.6666666666667,6,2,1,60,0,0
1146598,-100,6,2,1,60,0,0
1153265,-50,6,2,1,60,0,0
1156228,370.37037037037,4,2,1,60,1,0
1156228,-66.6666666666667,4,2,1,60,0,0
1157709,-50,4,2,1,60,0,0
1158079,-66.6666666666667,4,2,1,60,0,0
1159561,-50,4,2,1,60,0,0
1159931,-66.6666666666667,4,2,1,60,0,0
1162153,-50,4,2,1,60,0,0
1165116,-40,4,2,1,60,0,0
1166135,-57.1428571428571,4,2,1,60,0,0
1167709,-36.3636363636364,4,2,1,60,0,0
1168080,363.636363636364,4,2,1,60,1,0
1168080,-66.6666666666667,4,2,1,60,0,0
1169534,-50,4,2,1,60,0,0
1169898,-66.6666666666667,4,2,1,60,0,0
1171352,-50,4,2,1,60,0,0
1171716,-66.6666666666667,4,2,1,60,0,0
1173898,357.142857142857,4,2,1,60,1,0
1173898,-50,4,2,1,60,0,0
1176755,352.941176470588,4,2,1,60,1,0
1176755,-40,4,2,1,60,0,0
1177725,-57.1428571428571,4,2,1,60,0,0
1178166,-40,4,2,1,60,0,0
1179578,-57.1428571428571,4,2,1,60,0,0
1179975,-57.1428571428571,4,2,1,40,0,0

[Colours]
Combo1 : 149,237,255
Combo2 : 255,128,192
Combo3 : 54,109,254
Combo4 : 252,44,49
Combo5 : 148,40,255
Combo6 : 208,208,208
Combo7 : 234,240,111

[HitObjects]
48,194,1074,6,0,P|105:173|187:163,1,120.000004577637,4|0,0:0|0:0,0:0:0:0:
182,166,1694,1,0,0:0:0:0:
282,6,1901,2,0,P|274:67|283:132,1,120.000004577637
287,147,2522,1,0,0:0:0:0:
216,370,2729,2,0,P|223:310|215:251,1,120.000004577637,4|0,0:0|0:0,0:0:0:0:
209,235,3349,1,0,0:0:0:0:
455,213,3556,2,0,P|398:234|316:244,1,120.000004577637
321,241,4176,1,0,0:0:0:0:
139,310,4384,2,0,P|82:289|0:279,1,120.000004577637,4|0,0:0|0:0,0:0:0:0:
5,282,5004,1,0,0:0:0:0:
167,134,5211,1,0,0:0:0:0:
368,327,5625,6,0,P|338:327|308:322,1,60.0000022888184,4|0,0:0|0:0,0:0:0:0:
110,241,6039,1,4,0:0:0:0:
90,227,6453,5,0,0:0:0:0:
93,215,6660,1,0,0:0:0:0:
96,203,6867,1,0,0:0:0:0:
158,75,7280,1,4,0:0:0:0:
176,145,7487,1,8,0:0:0:0:
189,255,7694,6,0,P|221:207|275:165,1,120.000004577637,2|0,0:0|0:0,0:0:0:0:
431,164,8315,1,2,0:0:0:0:
353,251,8522,1,0,0:0:0:0:
334,41,8936,2,0,L|347:120,1,60.0000022888184,8|0,0:0|0:0,0:0:0:0:
337,279,9349,6,0,B|283:287|283:250|218:269,1,120.000004577637,2|0,0:0|0:0,0:0:0:0:
78,354,9970,1,2,0:0:0:0:
195,377,10177,1,0,0:0:0:0:
104,180,10591,2,0,L|113:239,1,60.0000022888184,8|0,0:0|0:0,0:0:0:0:
23,126,11005,6,0,P|70:99|101:99,1,60.0000022888184,2|0,0:0|0:0,0:0:0:0:
192,10,11418,2,0,P|219:20|241:40,1,60.0000022888184,0|2,0:0|0:0,0:0:0:0:
374,155,11832,2,0,P|380:126|376:97,1,60.0000022888184
85,110,12246,5,8,0:0:0:0:
246,37,12453,1,2,0:0:0:0:
385,81,12660,1,2,0:0:0:0:
385,81,13694,6,0,L|365:122,1,32
425,204,13901,2,0,L|376:223,1,46.0000008773804
350,357,14108,2,0,L|293:331,1,60.0000022888184
76,320,14315,6,0,P|131:273|177:253,1,120.000004577637,6|0,0:0|0:0,0:0:0:0:
204,253,14625,1,0,0:0:0:0:
204,253,14729,1,0,0:0:0:0:
415,300,14936,5,0,0:0:0:0:
180,345,15142,1,2,0:0:0:0:
286,245,15349,5,0,0:0:0:0:
283,227,15453,1,0,0:0:0:0:
277,209,15556,1,2,0:0:0:0:
270,192,15660,1,0,0:0:0:0:
295,158,15763,1,0,0:0:0:0:
76,320,15970,6,0,P|131:273|177:253,1,120.000004577637,2|0,0:0|0:0,0:0:0:0:
41,157,16280,2,0,P|109:181|149:210,1,92.0000017547608
133,83,16591,6,0,P|139:118|136:143,1,32
217,0,16798,2,0,P|212:15|210:31,1,32,2|0,0:0|0:0,0:0:0:0:
326,144,17005,6,0,L|272:126,1,32
455,88,17211,2,0,L|462:148,1,46.0000008773804,2|0,0:0|0:0,0:0:0:0:
396,334,17418,2,0,L|403:267,1,60.0000022888184
465,57,17625,6,0,B|403:18|401:87|323:48,1,120.000004577637,6|0,0:0|0:0,0:0:0:0:
331,42,17936,1,0,0:0:0:0:
331,42,18039,1,2,0:0:0:0:
396,193,18246,5,0,0:0:0:0:
217,3,18453,1,2,0:0:0:0:
90,81,18660,5,0,0:0:0:0:
85,98,18763,1,0,0:0:0:0:
80,115,18867,1,2,0:0:0:0:
75,132,18970,1,0,0:0:0:0:
49,154,19074,1,0,0:0:0:0:
187,319,19280,6,0,P|157:265|111:232,1,120.000004577637,2|0,0:0|0:0,0:0:0:0:
267,266,19591,2,0,P|304:225|319:177,1,92.0000017547608
330,332,19901,6,0,P|356:344|383:344,1,32
492,384,20108,2,0,P|495:368|495:352,1,32,2|0,0:0|0:0,0:0:0:0:
432,249,20315,6,0,L|428:280,1,32
495,113,20522,2,0,L|499:159,1,46.0000008773804,2|0,0:0|0:0,0:0:0:0:
353,0,20729,2,0,L|346:65,1,60.0000022888184,8|0,0:0|0:0,0:0:0:0:
106,99,20936,6,0,P|176:117|245:103,1,140.000001335144,6|0,0:0|0:0,0:0:0:0:
269,82,21246,1,0,0:0:0:0:
266,138,21349,1,8,0:0:0:0:
193,294,21556,6,0,L|190:247,1,32
88,379,21763,2,0,L|90:333,1,32,2|0,0:0|0:0,0:0:0:0:
261,360,21970,6,0,P|282:351|302:341,1,46.0000008773804
366,174,22177,2,0,P|361:203|360:233,1,60.0000022888184,8|0,0:0|0:0,0:0:0:0:
482,383,22384,2,0,P|450:357|415:335,1,70.000000667572,0|8,0:0|0:0,0:0:0:0:
264,240,22591,6,0,B|248:176|292:169|270:103,1,140.000001335144,6|0,0:0|0:0,0:0:0:0:
252,70,22901,1,0,0:0:0:0:
302,90,23005,1,8,0:0:0:0:
153,138,23211,6,0,L|185:133,1,32
34,200,23418,2,0,L|65:204,1,32,2|8,0:0|0:0,0:0:0:0:
172,300,23625,6,0,L|166:232,1,60.0000022888184,0|2,0:0|0:0,0:0:0:0:
64,110,23832,1,8,0:0:0:0:
69,92,23936,1,2,0:0:0:0:
74,74,24039,1,8,0:0:0:0:
79,56,24142,1,8,0:0:0:0:
100,40,24246,6,0,B|153:45|153:45|193:38|193:38|248:39,1,147.999999435425,6|0,0:0|0:0,0:0:0:0:
475,130,24556,2,0,B|422:135|422:135|382:128|382:128|327:129,1,147.999999435425,2|0,0:0|0:0,0:0:0:0:
334,0,24867,6,0,L|334:33,1,32
266,264,25074,2,0,L|267:222,1,32,2|0,0:0|0:0,0:0:0:0:
207,145,25280,1,0,0:0:0:0:
189,142,25384,1,0,0:0:0:0:
172,142,25487,1,0,0:0:0:0:
154,142,25591,1,0,0:0:0:0:
129,127,25694,5,0,0:0:0:0:
42,351,25901,2,0,P|65:298|83:353,1,147.999999435425,6|0,0:0|0:0,0:0:0:0:
8,241,26211,2,0,P|79:225|142:260,1,147.999999435425,6|0,0:0|0:0,0:0:0:0:
186,360,26522,1,0,0:0:0:0:
320,265,26729,5,8,0:0:0:0:
319,274,26798,1,8,0:0:0:0:
320,283,26867,1,8,0:0:0:0:
318,292,26936,2,0,L|244:276,1,73.9999997177124,4|4,0:1|0:3,0:0:0:0:
211,183,27142,5,8,0:0:0:0:
264,164,27245,1,2,0:0:0:0:
321,163,27348,1,8,0:0:0:0:
375,179,27452,1,8,0:0:0:0:
458,162,27556,6,0,B|457:102|423:45|423:45|376:70|376:70|307:33|244:46|244:46|213:16|213:16|147:52|128:140,1,500,0|2,0:0|0:0,0:0:0:0:
61,213,28798,2,0,P|33:176|25:105,1,100,0|8,0:0|0:0,0:0:0:0:
167,228,29211,6,0,B|211:315|155:383|155:383|160:329|212:319|261:353|294:383|337:397|391:394|436:371|449:345|452:289|419:231|363:241|329:263,1,616.000018798829,4|8,0:1|0:0,0:0:0:0:
323,266,30763,1,8,0:0:0:0:
323,266,30867,2,0,L|279:251,2,29.3333342285157,4|4|4,0:1|0:1|0:1,0:0:0:0:
254,306,31074,5,4,0:3:0:0:
232,308,31177,1,2,0:0:0:0:
210,310,31280,1,2,0:0:0:0:
188,312,31384,1,2,0:0:0:0:
147,360,31487,5,8,0:0:0:0:
141,338,31590,1,2,0:0:0:0:
138,316,31693,1,4,0:3:0:0:
136,295,31797,1,4,0:3:0:0:
135,273,31900,1,2,0:0:0:0:
137,251,32004,1,0,0:0:0:0:
140,229,32107,1,2,0:0:0:0:
144,207,32211,1,4,0:1:0:0:
125,173,32315,5,8,0:0:0:0:
124,151,32418,1,8,0:0:0:0:
122,129,32522,2,0,L|77:116,2,29.3333342285157,4|4|4,0:1|0:1|0:1,0:0:0:0:
146,98,32729,5,4,0:3:0:0:
168,96,32832,1,2,0:0:0:0:
190,94,32935,1,2,0:0:0:0:
212,92,33039,1,2,0:0:0:0:
253,44,33142,5,8,0:0:0:0:
258,65,33245,1,2,0:0:0:0:
286,106,33349,5,8,0:0:0:0:
286,106,33453,2,0,L|280:161,1,44.0000013427735,2|2,0:0|0:0,0:0:0:0:
223,264,33660,5,8,0:0:0:0:
223,264,33764,2,0,L|229:209,1,44.0000013427735,4|2,0:3|0:0,0:0:0:0:
396,77,33970,2,0,L|400:120,1,44.0000013427735,8|8,0:0|0:0,0:0:0:0:
448,352,34177,6,0,P|466:315|474:269,1,80,6|0,0:0|0:0,0:0:0:0:
480,160,34487,1,2,0:0:0:0:
480,160,34591,1,8,0:0:0:0:
416,224,34798,1,2,0:0:0:0:
355,384,35005,6,0,P|337:347|329:301,1,80,4|0,0:3|0:0,0:0:0:0:
326,176,35315,1,2,0:0:0:0:
309,217,35419,1,8,0:0:0:0:
309,217,35522,1,2,0:0:0:0:
309,217,35626,1,2,0:0:0:0:
216,349,35832,6,0,P|234:312|242:266,1,80,2|0,0:0|0:0,0:0:0:0:
248,157,36142,1,2,0:0:0:0:
248,157,36246,1,8,0:0:0:0:
184,221,36453,1,2,0:0:0:0:
128,384,36660,6,0,P|110:347|102:301,1,80,4|0,0:3|0:0,0:0:0:0:
74,144,36970,1,2,0:0:0:0:
99,131,37074,5,8,0:0:0:0:
124,140,37177,1,2,0:0:0:0:
150,145,37280,1,8,0:0:0:0:
177,145,37384,1,8,0:0:0:0:
259,159,37487,6,0,B|258:211|258:211|235:264|235:264|234:324,2,160,6|8|2,0:0|0:0|0:0,0:0:0:0:
263,59,38522,5,0,0:0:0:0:
268,41,38625,1,2,0:0:0:0:
272,22,38729,5,8,0:0:0:0:
301,46,38832,1,2,0:0:0:0:
341,60,38936,1,8,0:0:0:0:
391,62,39039,1,8,0:0:0:0:
441,40,39142,2,0,B|474:21|474:21|452:106|507:185|492:277|492:277|475:261|481:238,1,320,2|0,0:0|0:0,0:0:0:0:
492,323,40177,6,0,P|464:296|448:259,1,50,0|2,0:0|0:0,0:0:0:0:
265,382,40384,2,0,P|263:319|279:286,1,70.000000667572,8|4,0:0|0:1,0:0:0:0:
21,269,40591,2,0,P|52:219|141:168,1,90.0000034332277,8|8,0:0|0:0,0:0:0:0:
269,44,40798,5,6,0:0:0:0:
279,77,40901,1,0,0:0:0:0:
273,111,41004,1,0,0:0:0:0:
258,142,41108,1,0,0:0:0:0:
249,176,41211,1,8,0:0:0:0:
253,211,41315,1,4,0:1:0:0:
265,244,41418,2,0,P|270:278|258:329,1,70.000000667572,0|4,0:0|0:3,0:0:0:0:
115,133,41625,2,0,P|142:154|174:167,1,70.000000667572,2|0,0:0|0:0,0:0:0:0:
329,187,41832,5,2,0:0:0:0:
360,191,41936,1,0,0:0:0:0:
391,191,42039,1,8,0:0:0:0:
401,216,42142,1,0,0:0:0:0:
405,243,42246,2,0,L|391:313,1,70.000000667572,2|2,0:0|0:0,0:0:0:0:
492,372,42453,2,0,L|505:303,1,70.000000667572,2|0,0:0|0:0,0:0:0:0:
512,167,42660,1,0,0:0:0:0:
493,170,42763,1,2,0:0:0:0:
475,181,42867,5,8,0:0:0:0:
472,153,42970,1,2,0:0:0:0:
464,125,43074,1,0,0:0:0:0:
454,98,43177,1,2,0:0:0:0:
442,72,43280,2,0,P|434:39|442:-10,1,70.000000667572,2|0,0:0|0:0,0:0:0:0:
259,7,43487,6,0,L|274:88,1,50,2|0,0:0|0:0,0:0:0:0:
118,62,43694,2,0,L|183:136,1,70.000000667572,8|0,0:0|0:0,0:0:0:0:
0,277,43901,2,0,L|105:259,1,90.0000034332277,2|8,0:0|0:0,0:0:0:0:
226,283,44108,5,6,0:0:0:0:
270,292,44211,1,0,0:0:0:0:
309,268,44314,1,0,0:0:0:0:
320,224,44418,1,0,0:0:0:0:
298,185,44521,1,8,0:0:0:0:
254,172,44625,1,2,0:0:0:0:
214,193,44729,2,0,P|176:207|126:198,1,70.000000667572,0|2,0:0|0:0,0:0:0:0:
10,122,44936,2,0,P|41:147|58:194,1,70.000000667572,2|0,0:0|0:0,0:0:0:0:
132,320,45142,5,2,0:0:0:0:
147,341,45246,1,0,0:0:0:0:
161,364,45349,1,8,0:0:0:0:
188,371,45453,1,0,0:0:0:0:
216,373,45556,2,0,L|288:373,1,70.000000667572,2|2,0:0|0:0,0:0:0:0:
473,370,45763,6,0,P|485:289|437:259,1,140.000001335144,2|0,0:0|0:0,0:0:0:0:
417,264,46074,1,2,0:0:0:0:
393,291,46177,5,8,0:0:0:0:
372,272,46280,1,2,0:0:0:0:
347,259,46384,1,2,0:0:0:0:
319,255,46487,1,4,0:1:0:0:
291,261,46591,1,0,0:3:0:0:
100,362,46798,6,0,P|128:353|159:340,1,50,8|4,0:0|0:3,0:0:0:0:
25,181,47005,2,0,P|67:210|117:236,1,70.000000667572,8|4,0:0|0:3,0:0:0:0:
115,8,47211,2,0,P|120:59|133:114,1,90.0000034332277,8|4,0:0|0:3,0:0:0:0:
209,251,47418,6,0,P|238:158|217:36,1,210.000002002716,6|2,0:0|0:0,0:0:0:0:
274,183,47832,2,0,B|330:165|330:165|360:171|360:171|434:149,1,140.000001335144,8|2,0:0|0:0,0:0:0:0:
512,240,48246,1,2,0:0:0:0:
511,268,48453,6,0,P|485:260|456:230,1,50,2|0,0:0|0:0,0:0:0:0:
287,347,48660,2,0,P|302:296|360:239,1,70.000000667572,8|0,0:0|0:0,0:0:0:0:
122,214,48867,2,0,P|172:229|229:287,1,90.0000034332277,2|0,0:0|0:0,0:0:0:0:
15,361,49074,6,0,B|4:212|4:212|26:118,1,210.000002002716,6|2,0:0|0:0,0:0:0:0:
122,215,49487,2,0,P|57:239|11:291,1,140.000001335144,8|2,0:0|0:0,0:0:0:0:
125,335,49901,2,0,B|162:338|162:338|165:344|165:344|215:346|215:346|218:342|218:342|268:344,1,140.000001335144,2|2,0:0|0:0,0:0:0:0:
303,317,50211,5,0,0:0:0:0:
319,328,50315,2,0,L|332:251,1,70.000000667572,8|0,0:0|0:0,0:0:0:0:
429,264,50522,1,2,0:0:0:0:
443,273,50625,1,8,0:0:0:0:
462,286,50729,2,0,L|453:211,1,70.000000667572,6|0,0:0|0:0,0:0:0:0:
413,145,50936,1,0,0:0:0:0:
399,154,51039,1,2,0:0:0:0:
380,167,51143,2,0,L|389:92,1,70.000000667572,8|0,0:0|0:0,0:0:0:0:
465,45,51349,6,0,P|400:16|366:19,1,70.000000667572,2|0,0:0|0:0,0:0:0:0:
280,93,51556,2,0,P|246:83|217:64,1,70.000000667572,6|0,0:0|0:0,0:0:0:0:
152,0,51763,1,2,0:0:0:0:
145,27,51867,1,0,0:0:0:0:
138,54,51970,1,8,0:0:0:0:
139,82,52074,1,0,0:0:0:0:
145,109,52177,2,0,P|151:144|146:189,1,70.000000667572,2|0,0:0|0:0,0:0:0:0:
34,268,52384,6,0,B|91:242|112:312|213:265,1,140.000001335144,6|0,0:0|0:0,0:0:0:0:
197,254,52694,1,2,0:0:0:0:
197,254,52798,5,8,0:0:0:0:
223,262,52901,1,0,0:0:0:0:
251,259,53005,1,2,0:0:0:0:
278,262,53108,1,4,0:1:0:0:
315,230,53211,5,4,0:3:0:0:
361,223,53315,1,4,0:3:0:0:
406,242,53418,2,0,L|399:321,1,80,8|2,0:0|0:0,0:0:0:0:
493,268,53625,5,8,0:0:0:0:
484,198,53729,1,2,0:0:0:0:
438,145,53832,2,0,P|392:123|331:125,1,100,8|8,0:0|0:0,0:0:0:0:
148,178,54039,5,4,0:3:0:0:
115,194,54349,1,4,0:3:0:0:
79,196,54660,1,4,0:3:0:0:
297,292,54867,5,8,0:0:0:0:
328,313,55177,1,4,0:3:0:0:
347,343,55488,1,4,0:3:0:0:
322,105,55694,5,8,0:0:0:0:
324,68,56004,1,2,0:0:0:0:
341,36,56315,1,4,0:3:0:0:
39,272,56522,5,8,0:0:0:0:
167,105,56780,1,0,0:0:0:0:
124,171,56936,2,0,P|87:115|107:52,1,120.000004577637,2|8,0:0|0:0,0:0:0:0:
158,331,57349,6,0,P|172:244|124:171,1,180.000006866455,2|6,0:0|0:0,0:0:0:0:
408,344,57970,1,4,0:3:0:0:
39,272,58280,1,10,0:0:0:0:
490,133,58591,2,0,B|412:123|412:123|313:148,1,180.000006866455,6|6,0:0|0:0,0:0:0:0:
22,166,59211,1,4,0:0:0:0:
412,242,59522,1,8,0:0:0:0:
219,282,59832,5,2,0:0:0:0:
219,274,59901,1,4,0:1:0:0:
217,266,59970,2,0,L|209:226,1,40.000001525879,4|4,0:1|0:1,0:0:0:0:
273,180,60142,5,4,0:3:0:0:
261,154,60246,2,0,L|270:69,1,60.0000022888184,8|2,0:0|0:0,0:0:0:0:
114,21,60453,2,0,L|120:80,1,60.0000022888184,8|8,0:0|0:0,0:0:0:0:
80,288,60660,6,0,B|114:314|114:314|164:307|164:307|216:323|274:307|274:307|335:314,1,240.000009155274,2|8,0:0|0:0,0:0:0:0:
331,328,61177,1,2,0:0:0:0:
458,353,61384,1,2,0:0:0:0:
475,334,61487,2,0,L|484:203,1,120.000004577637,4|2,0:3|0:0,0:0:0:0:
407,34,61901,6,0,L|402:118,1,60.0000022888184,8|0,0:0|0:0,0:0:0:0:
336,176,62108,1,2,0:0:0:0:
333,157,62211,1,2,0:0:0:0:
312,120,62315,2,0,L|228:115,1,60.0000022888184,4|0,0:0|0:0,0:0:0:0:
177,69,62522,1,0,0:0:0:0:
172,79,62625,1,2,0:0:0:0:
168,90,62729,2,0,P|165:131|198:187,1,60.0000022888184,8|2,0:0|0:0,0:0:0:0:
170,237,62936,1,0,0:0:0:0:
181,236,63039,1,2,0:0:0:0:
192,234,63143,2,0,P|229:216|261:159,1,60.0000022888184,2|0,0:0|0:0,0:0:0:0:
93,194,63349,1,2,0:0:0:0:
81,193,63453,1,2,0:0:0:0:
70,192,63556,2,0,L|10:202,1,60.0000022888184,8|2,0:0|0:0,0:0:0:0:
108,329,63763,2,0,L|97:269,1,60.0000022888184,8|8,0:0|0:0,0:0:0:0:
33,62,63970,6,0,L|22:121,1,60.0000022888184,6|2,0:0|0:0,0:0:0:0:
163,156,64177,2,0,L|152:96,1,60.0000022888184,2|2,0:0|0:0,0:0:0:0:
31,46,64384,2,0,L|22:111,1,60.0000022888184,8|2,0:0|0:0,0:0:0:0:
169,171,64591,2,0,L|233:157,1,60.0000022888184,2|2,0:0|0:0,0:0:0:0:
443,97,64798,6,0,P|404:84|349:71,1,60.0000022888184,6|2,0:0|0:0,0:0:0:0:
225,64,65005,2,0,P|264:77|319:90,1,60.0000022888184,2|2,0:0|0:0,0:0:0:0:
440,124,65211,2,0,P|404:103|353:79,1,60.0000022888184,8|2,0:0|0:0,0:0:0:0:
217,0,65418,2,0,P|216:41|221:97,1,60.0000022888184,4|4,0:3|0:3,0:0:0:0:
127,327,65625,6,0,L|128:282,2,40.000001525879,12|2|2,0:0|0:0|0:0,0:0:0:0:
23,246,65832,2,0,L|68:247,2,40.000001525879,8|2|2,0:0|0:0|0:0,0:0:0:0:
104,142,66039,2,0,L|103:187,2,40.000001525879,8|2|2,0:0|0:0|0:0,0:0:0:0:
208,223,66246,2,0,L|163:222,2,40.000001525879,8|2|2,0:0|0:0|0:0,0:0:0:0:
46,326,66453,6,0,L|13:357,2,40.000001525879,12|2|2,0:0|0:0|0:0,0:0:0:0:
242,331,66660,2,0,L|215:303,2,40.000001525879,8|2|2,0:0|0:0|0:0,0:0:0:0:
308,287,66867,5,12,0:0:0:0:
322,291,66971,1,0,0:0:0:0:
391,334,67073,5,4,0:1:0:0:
405,330,67177,1,4,0:1:0:0:
468,273,67280,6,0,L|460:194,1,80,4|0,0:3|0:0,0:0:0:0:
299,209,67487,2,0,L|378:201,1,80,4|0,0:3|0:0,0:0:0:0:
283,50,67694,2,0,L|291:129,1,80,4|0,0:3|0:0,0:0:0:0:
123,66,67901,2,0,L|202:57,1,80,4|0,0:3|0:0,0:0:0:0:
451,114,68108,6,0,L|195:140,2,240,6|0|2,0:0|0:0|0:0,0:0:0:0:
202,57,68936,6,0,L|123:66,1,80,4|0,0:3|0:0,0:0:0:0:
139,224,69142,2,0,L|130:144,1,80,4|0,0:3|0:0,0:0:0:0:
299,209,69349,2,0,L|219:217,1,80,4|0,0:3|0:0,0:0:0:0:
317,366,69556,2,0,L|308:286,1,80,4|0,0:3|0:0,0:0:0:0:
202,57,69763,6,0,L|228:312,2,240,6|0|2,0:0|0:0|0:0,0:0:0:0:
385,279,70591,6,0,L|198:298,1,160,2|4,0:0|0:3,0:0:0:0:
147,302,70901,1,0,0:0:0:0:
147,302,71005,1,4,0:3:0:0:
130,144,71211,1,4,0:3:0:0:
378,200,71418,2,0,L|219:217,1,160,2|4,0:0|0:3,0:0:0:0:
139,224,71729,1,0,0:0:0:0:
139,224,71832,1,4,0:3:0:0:
123,66,72039,1,2,0:0:0:0:
372,122,72246,6,0,L|203:139,1,160,6|2,0:0|0:0,0:0:0:0:
361,39,72660,2,0,L|202:57,1,160,6|2,0:0|0:0,0:0:0:0:
451,114,73074,5,2,0:0:0:0:
455,153,73176,1,8,0:0:0:0:
459,193,73280,1,8,0:0:0:0:
463,233,73384,1,8,0:0:0:0:
466,273,73487,5,4,0:1:0:0:
426,276,73591,1,8,0:0:0:0:
387,280,73694,1,8,0:0:0:0:
390,319,73798,1,8,0:0:0:0:
394,359,73901,6,0,P|352:348|300:310,1,80,4|0,0:3|0:0,0:0:0:0:
150,353,74108,2,0,P|180:322|239:296,1,80,4|0,0:3|0:0,0:0:0:0:
277,144,74315,2,0,P|288:185|281:249,1,80,8|0,0:0|0:0,0:0:0:0:
378,370,74522,2,0,P|338:355|289:313,1,80,4|0,0:3|0:0,0:0:0:0:
136,343,74729,6,0,P|210:280|346:233,2,240,6|0|2,0:0|0:0|0:0,0:0:0:0:
200,233,75556,6,0,P|190:194|170:159,1,80,4|0,0:3|0:0,0:0:0:0:
7,106,75763,2,0,P|45:117|85:117,1,80,4|0,0:3|0:0,0:0:0:0:
225,4,75970,2,0,P|196:31|176:66,1,80,8|0,0:0|0:0,0:0:0:0:
217,230,76177,2,0,P|203:192|180:160,1,80,4|0,0:3|0:0,0:0:0:0:
11,123,76384,6,0,P|129:144|249:132,2,240,6|0|2,0:0|0:0|0:0,0:0:0:0:
70,0,77211,6,0,B|96:122|96:122|77:246,1,240,2|2,0:0|0:0,0:0:0:0:
69,254,77625,1,2,0:0:0:0:
0,384,77832,1,2,0:0:0:0:
143,311,78039,2,0,B|211:290|211:290|311:319|311:319|400:296,1,240,2|2,0:0|0:0,0:0:0:0:
395,292,78453,1,2,0:0:0:0:
512,384,78660,1,2,0:0:0:0:
403,306,78867,5,8,0:0:0:0:
387,305,78970,1,8,0:0:0:0:
379,292,79074,1,4,0:1:0:0:
387,278,79177,1,4,0:1:0:0:
403,278,79280,1,2,0:0:0:0:
411,292,79384,1,2,0:0:0:0:
394,333,79487,5,4,0:3:0:0:
360,310,79590,1,4,0:3:0:0:
359,271,79694,1,4,0:1:0:0:
394,251,79797,1,4,0:1:0:0:
430,271,79900,1,2,0:0:0:0:
430,312,80004,1,2,0:0:0:0:
353,347,80108,6,0,P|299:337|253:340,2,66.6666666666667,8|2|2,0:0|0:0|0:0,0:0:0:0:
206,295,80315,1,8,0:0:0:0:
161,298,80418,1,8,0:0:0:0:
128,325,80522,6,0,B|158:386|250:360|271:247|154:193|106:274|106:274|177:163|116:29|32:14|0:104,1,600,2|2,0:0|0:0,0:0:0:0:
13,85,81211,5,2,0:0:0:0:
14,91,81280,1,2,0:0:0:0:
18,96,81349,2,0,P|91:91|158:66,1,100,8|2,0:0|0:0,0:0:0:0:
301,37,81556,1,2,0:0:0:0:
330,30,81660,1,8,0:0:0:0:
370,42,81763,2,0,L|378:169,1,100,2|2,0:0|0:0,0:0:0:0:
464,384,81970,2,0,L|470:284,1,100,8|8,0:0|0:0,0:0:0:0:
224,210,82177,5,6,0:0:0:0:
96,306,82384,1,8,0:0:0:0:
116,318,82487,1,2,0:0:0:0:
108,183,82694,1,2,0:0:0:0:
119,203,82797,1,8,0:0:0:0:
0,161,83005,1,2,0:0:0:0:
176,122,83211,1,8,0:0:0:0:
158,105,83315,1,2,0:0:0:0:
135,96,83418,1,2,0:0:0:0:
111,92,83522,1,2,0:0:0:0:
87,95,83625,1,8,0:0:0:0:
32,252,83832,5,2,0:0:0:0:
176,122,84039,1,8,0:0:0:0:
194,139,84143,1,2,0:0:0:0:
217,148,84246,1,2,0:0:0:0:
241,152,84350,1,2,0:0:0:0:
265,149,84453,1,8,0:0:0:0:
369,27,84660,1,2,0:0:0:0:
265,149,84867,1,8,0:0:0:0:
259,188,84970,1,2,0:0:0:0:
254,227,85073,1,8,0:0:0:0:
300,196,85176,1,2,0:0:0:0:
355,187,85280,1,8,0:0:0:0:
409,198,85383,1,8,0:0:0:0:
447,238,85487,5,6,0:0:0:0:
347,319,85694,1,8,0:0:0:0:
327,330,85797,1,2,0:0:0:0:
224,307,86004,1,2,0:0:0:0:
212,327,86107,1,8,0:0:0:0:
132,233,86315,1,2,0:0:0:0:
28,304,86522,1,8,0:0:0:0:
32,264,86625,1,2,0:0:0:0:
36,224,86729,1,2,0:0:0:0:
29,184,86832,1,2,0:0:0:0:
18,145,86936,1,8,0:0:0:0:
80,22,87142,5,2,0:0:0:0:
136,116,87349,1,8,0:0:0:0:
129,135,87453,2,0,L|224:154,1,80,2|0,0:0|0:0,0:0:0:0:
240,186,87660,1,2,0:0:0:0:
237,202,87763,1,8,0:0:0:0:
320,300,87970,2,0,L|398:284,1,80,2|2,0:0|0:0,0:0:0:0:
428,253,88177,1,8,0:0:0:0:
436,230,88280,1,2,0:0:0:0:
444,207,88384,1,8,0:0:0:0:
476,161,88487,1,2,0:0:0:0:
467,105,88591,1,8,0:0:0:0:
418,77,88694,1,8,0:0:0:0:
365,96,88798,5,6,0:0:0:0:
221,42,89005,1,8,0:0:0:0:
236,59,89108,1,2,0:0:0:0:
101,75,89315,1,2,0:0:0:0:
123,82,89418,1,8,0:0:0:0:
33,175,89625,1,2,0:0:0:0:
139,300,89832,1,8,0:0:0:0:
105,346,89936,1,2,0:0:0:0:
52,328,90039,1,2,0:0:0:0:
53,272,90142,1,2,0:0:0:0:
107,255,90246,1,8,0:0:0:0:
0,384,90453,5,2,0:0:0:0:
107,255,90660,1,8,0:0:0:0:
114,231,90764,1,2,0:0:0:0:
196,384,90970,1,2,0:0:0:0:
189,360,91074,1,8,0:0:0:0:
102,155,91280,6,0,P|142:157|183:196,1,80,2|2,0:0|0:0,0:0:0:0:
194,227,91487,1,8,0:0:0:0:
232,250,91590,1,2,0:0:0:0:
275,254,91694,2,0,L|357:240,1,80,8|2,0:0|0:0,0:0:0:0:
512,169,91901,2,0,L|404:151,1,80,8|8,0:0|0:0,0:0:0:0:
319,51,92108,6,0,L|343:200,1,80,2|2,0:0|0:0,0:0:0:0:
449,345,92315,2,0,L|473:195,1,80,8|2,0:0|0:0,0:0:0:0:
309,44,92522,2,0,L|237:91,1,80,2|2,0:0|0:0,0:0:0:0:
72,105,92729,2,0,P|115:132|173:136,1,80,8|2,0:0|0:0,0:0:0:0:
88,317,92936,5,2,0:0:0:0:
88,317,93039,1,2,0:0:0:0:
88,317,93142,2,0,P|90:265|64:213,1,80,8|2,0:0|0:0,0:0:0:0:
269,203,93349,1,2,0:0:0:0:
269,203,93452,1,2,0:0:0:0:
269,203,93556,2,0,P|223:226|190:274,1,80,8|2,0:0|0:0,0:0:0:0:
174,381,93763,5,2,0:0:0:0:
198,381,93867,1,2,0:0:0:0:
221,381,93970,1,8,0:0:0:0:
245,381,94074,1,2,0:0:0:0:
268,381,94177,1,2,0:0:0:0:
291,381,94280,1,2,0:0:0:0:
315,381,94384,1,8,0:0:0:0:
338,381,94487,1,2,0:0:0:0:
362,381,94591,1,2,0:0:0:0:
385,381,94694,1,2,0:0:0:0:
409,381,94798,1,8,0:0:0:0:
432,381,94901,1,2,0:0:0:0:
456,373,95005,2,0,P|489:311|489:235,1,80,2|2,0:0|0:0,0:0:0:0:
309,159,95211,2,0,P|346:218|412:256,1,80,8|8,0:0|0:0,0:0:0:0:
471,159,95418,5,6,0:0:0:0:
379,68,95625,1,8,0:0:0:0:
394,42,95729,1,2,0:0:0:0:
243,78,95936,1,2,0:0:0:0:
268,62,96040,1,8,0:0:0:0:
139,31,96246,1,2,0:0:0:0:
25,96,96453,1,8,0:0:0:0:
19,135,96556,1,2,0:0:0:0:
6,173,96659,1,2,0:0:0:0:
22,210,96763,1,2,0:0:0:0:
28,250,96866,1,8,0:0:0:0:
147,174,97074,5,2,0:0:0:0:
266,98,97280,1,8,0:0:0:0:
274,115,97384,2,0,L|254:202,1,80,2|0,0:0|0:0,0:0:0:0:
263,244,97590,1,2,0:0:0:0:
272,258,97693,1,8,0:0:0:0:
148,164,97901,1,2,0:0:0:0:
164,314,98108,1,8,0:0:0:0:
176,325,98211,1,2,0:0:0:0:
191,339,98314,1,8,0:0:0:0:
251,355,98418,1,2,0:0:0:0:
311,339,98521,1,8,0:0:0:0:
355,295,98625,1,8,0:0:0:0:
370,235,98728,5,6,0:0:0:0:
449,129,98936,1,8,0:0:0:0:
458,159,99040,1,2,0:0:0:0:
340,78,99246,1,2,0:0:0:0:
349,48,99350,1,8,0:0:0:0:
362,181,99556,1,2,0:0:0:0:
217,191,99763,1,8,0:0:0:0:
239,169,99867,1,2,0:0:0:0:
261,147,99970,1,2,0:0:0:0:
277,288,100177,1,8,0:0:0:0:
160,384,100384,5,2,0:0:0:0:
21,312,100591,1,8,0:0:0:0:
51,303,100695,1,2,0:0:0:0:
51,172,100901,1,2,0:0:0:0:
81,179,101005,1,8,0:0:0:0:
159,298,101211,2,0,P|169:257|168:185,1,80,2|2,0:0|0:0,0:0:0:0:
87,71,101418,1,8,0:0:0:0:
87,71,101522,1,0,0:0:0:0:
87,71,101625,2,0,P|117:100|180:135,1,80,8|2,0:0|0:0,0:0:0:0:
335,118,101832,2,0,P|294:129|232:166,1,80,8|8,0:0|0:0,0:0:0:0:
64,273,102039,5,6,0:0:0:0:
206,338,102246,1,8,0:0:0:0:
184,317,102350,1,2,0:0:0:0:
315,284,102556,1,2,0:0:0:0:
306,254,102660,1,8,0:0:0:0:
411,343,102867,1,2,0:0:0:0:
508,184,103074,1,8,0:0:0:0:
502,214,103177,1,2,0:0:0:0:
497,247,103280,1,2,0:0:0:0:
493,280,103384,1,2,0:0:0:0:
488,313,103487,1,8,0:0:0:0:
337,384,103694,5,2,0:0:0:0:
306,254,103901,1,8,0:0:0:0:
327,231,104005,1,2,0:0:0:0:
184,317,104211,1,2,0:0:0:0:
213,307,104315,1,8,0:0:0:0:
21,260,104522,5,2,0:0:0:0:
45,264,104625,1,2,0:0:0:0:
70,268,104729,1,8,0:0:0:0:
94,272,104832,1,2,0:0:0:0:
110,296,104936,2,0,L|160:212,1,80,8|2,0:0|0:0,0:0:0:0:
274,6,105142,2,0,L|233:74,1,80,8|2,0:0|0:0,0:0:0:0:
256,242,105349,6,0,L|230:166,1,80,6|2,0:0|0:0,0:0:0:0:
74,57,105556,2,0,L|151:37,1,80,8|2,0:0|0:0,0:0:0:0:
334,199,105763,2,0,L|309:124,1,80,2|2,0:0|0:0,0:0:0:0:
80,147,105970,2,0,L|157:127,1,80,8|2,0:0|0:0,0:0:0:0:
392,0,106177,5,2,0:0:0:0:
392,0,106281,1,2,0:0:0:0:
392,0,106384,2,0,L|374:103,1,80,8|2,0:0|0:0,0:0:0:0:
512,263,106591,1,2,0:0:0:0:
512,263,106695,1,2,0:0:0:0:
512,263,106798,2,0,L|494:159,1,80,8|2,0:0|0:0,0:0:0:0:
460,80,107004,5,2,0:0:0:0:
405,58,107108,1,2,0:0:0:0:
347,68,107211,1,8,0:0:0:0:
300,105,107315,1,2,0:0:0:0:
278,160,107418,1,2,0:0:0:0:
284,219,107522,1,2,0:0:0:0:
317,268,107625,1,8,0:0:0:0:
370,295,107729,1,2,0:0:0:0:
430,293,107832,5,2,0:0:0:0:
371,281,107935,1,2,0:0:0:0:
311,280,108038,1,8,0:0:0:0:
252,291,108142,1,2,0:0:0:0:
200,317,108246,2,0,P|156:326|117:326,1,80,2|2,0:0|0:0,0:0:0:0:
442,297,108453,2,0,P|478:312|512:334,1,80,8|8,0:0|0:0,0:0:0:0:
229,179,108660,6,0,P|223:140|226:99,1,80,6|2,0:0|0:0,0:0:0:0:
387,0,108867,1,8,0:0:0:0:
399,30,108970,2,0,P|408:68|406:115,1,80,2|2,0:0|0:0,0:0:0:0:
322,85,109177,1,2,0:0:0:0:
307,99,109280,2,0,L|218:100,1,80,8|2,0:0|0:0,0:0:0:0:
75,0,109487,6,0,B|111:19|111:19|158:64,1,80,2|2,0:0|0:0,0:0:0:0:
117,238,109694,2,0,B|115:196|115:196|130:132,1,80,8|2,0:0|0:0,0:0:0:0:
301,47,109901,2,0,B|265:68|265:68|203:87,1,80,2|2,0:0|0:0,0:0:0:0:
60,103,110108,5,8,0:0:0:0:
42,130,110212,1,2,0:0:0:0:
30,160,110315,2,0,P|21:198|23:245,1,80,2|2,0:0|0:0,0:0:0:0:
78,373,110522,1,8,0:0:0:0:
95,358,110625,2,0,P|104:320|102:273,1,80,2|2,0:0|0:0,0:0:0:0:
108,176,110832,1,2,0:0:0:0:
123,159,110935,2,0,P|161:150|208:152,1,80,8|2,0:0|0:0,0:0:0:0:
226,3,111142,6,0,P|252:31|274:73,1,80,2|2,0:0|0:0,0:0:0:0:
380,116,111350,1,8,0:0:0:0:
353,134,111454,1,2,0:0:0:0:
323,146,111557,2,0,P|285:155|238:153,1,80,2|2,0:0|0:0,0:0:0:0:
431,210,111763,2,0,P|469:219|516:217,1,80,8|8,0:0|0:0,0:0:0:0:
247,344,111970,6,0,P|266:308|293:279,1,80,6|2,0:0|0:0,0:0:0:0:
428,350,112177,1,8,0:0:0:0:
427,370,112280,2,0,P|387:370|348:361,1,80,2|2,0:0|0:0,0:0:0:0:
167,332,112487,1,2,0:0:0:0:
168,352,112591,2,0,P|207:352|246:343,1,80,8|2,0:0|0:0,0:0:0:0:
431,210,112798,6,0,P|396:189|358:177,1,80,2|2,0:0|0:0,0:0:0:0:
349,38,113005,2,0,P|313:57|284:84,1,80,8|2,0:0|0:0,0:0:0:0:
159,23,113211,2,0,P|158:62|167:101,1,80,2|2,0:0|0:0,0:0:0:0:
98,228,113418,6,0,P|98:188|89:149,1,80,8|2,0:0|0:0,0:0:0:0:
0,32,113625,2,0,P|34:52|72:64,1,80,2|2,0:0|0:0,0:0:0:0:
240,168,113832,1,8,0:0:0:0:
249,160,113936,2,0,P|214:139|176:127,1,80,2|2,0:0|0:0,0:0:0:0:
0,191,114142,1,2,0:0:0:0:
2,202,114246,2,0,P|37:182|66:155,1,80,8|2,0:0|0:0,0:0:0:0:
162,0,114453,2,0,P|171:38|170:78,1,80,2|2,0:0|0:0,0:0:0:0:
121,232,114660,5,8,0:0:0:0:
118,255,114763,1,2,0:0:0:0:
112,278,114867,2,0,L|225:263,1,80,2|2,0:0|0:0,0:0:0:0:
316,217,115074,1,8,0:0:0:0:
339,220,115177,1,8,0:0:0:0:
362,224,115280,6,0,L|378:306,1,80,6|0,0:0|0:0,0:0:0:0:
443,384,115487,1,8,0:0:0:0:
466,380,115590,2,0,L|482:298,1,80,2|2,0:0|0:0,0:0:0:0:
469,181,115798,1,2,0:0:0:0:
465,204,115901,2,0,L|383:220,1,80,8|2,0:0|0:0,0:0:0:0:
201,278,116108,6,0,L|283:294,1,80,2|2,0:0|0:0,0:0:0:0:
339,384,116315,1,8,0:0:0:0:
362,380,116418,2,0,L|378:298,1,80,2|2,0:0|0:0,0:0:0:0:
365,181,116625,1,2,0:0:0:0:
361,204,116729,2,0,L|279:220,1,80,8|2,0:0|0:0,0:0:0:0:
97,278,116936,6,0,L|179:294,1,80,2|2,0:0|0:0,0:0:0:0:
27,334,117142,1,8,0:0:0:0:
14,319,117246,2,0,P|3:273|13:233,1,80,2|2,0:0|0:0,0:0:0:0:
186,199,117453,1,2,0:0:0:0:
179,217,117557,2,0,P|145:248|105:259,1,80,8|2,0:0|0:0,0:0:0:0:
9,139,117763,6,0,P|52:152|82:181,1,80,2|2,0:0|0:0,0:0:0:0:
147,35,117970,2,0,P|157:79|147:119,1,80,8|2,0:0|0:0,0:0:0:0:
240,143,118177,2,0,P|277:129|306:102,1,80,2|2,0:0|0:0,0:0:0:0:
406,233,118384,2,0,P|412:193|402:155,1,80,8|8,0:0|0:0,0:0:0:0:
484,0,118591,6,0,P|477:39|487:77,1,80,6|2,0:0|0:0,0:0:0:0:
505,288,118798,1,8,0:0:0:0:
509,271,118901,2,0,P|469:264|431:274,1,80,2|2,0:0|0:0,0:0:0:0:
259,366,119108,2,0,P|284:335|294:297,1,80,2|8,0:0|0:0,0:0:0:0:
305,102,119315,1,2,0:0:0:0:
288,104,119418,2,0,P|301:141|329:169,1,80,2|2,0:0|0:0,0:0:0:0:
414,361,119625,1,8,0:0:0:0:
425,372,119729,2,0,L|430:264,1,80,2|2,0:0|0:0,0:0:0:0:
481,116,119936,1,2,0:0:0:0:
494,107,120039,2,0,L|499:215,1,80,8|2,0:0|0:0,0:0:0:0:
311,287,120246,6,0,B|268:282|268:282|188:285,1,80,2|2,0:0|0:0,0:0:0:0:
42,236,120453,1,8,0:0:0:0:
51,219,120556,2,0,B|87:220|87:220|130:215,1,80,2|2,0:0|0:0,0:0:0:0:
260,88,120763,1,2,0:0:0:0:
243,97,120866,2,0,B|244:133|244:133|239:176,1,80,8|2,0:0|0:0,0:0:0:0:
56,363,121074,5,2,0:0:0:0:
82,349,121177,1,2,0:0:0:0:
111,342,121280,1,8,0:0:0:0:
141,343,121384,1,2,0:0:0:0:
170,351,121487,1,2,0:0:0:0:
199,359,121591,1,2,0:0:0:0:
229,362,121694,1,8,0:0:0:0:
259,361,121798,1,8,0:0:0:0:
288,356,121901,6,0,P|304:300|298:237,1,80,6|2,0:0|0:0,0:0:0:0:
133,78,122108,2,0,P|153:132|195:180,1,80,8|2,0:0|0:0,0:0:0:0:
421,212,122315,2,0,P|373:179|311:165,1,80,2|2,0:0|0:0,0:0:0:0:
115,255,122522,1,8,0:0:0:0:
109,273,122625,2,0,P|168:271|226:245,1,80,2|2,0:0|0:0,0:0:0:0:
330,54,122832,1,2,0:0:0:0:
326,40,122936,2,0,P|280:76|248:130,1,80,8|2,0:0|0:0,0:0:0:0:
288,355,123142,2,0,P|301:318|304:278,1,80,2|2,0:0|0:0,0:0:0:0:
133,78,123349,2,0,P|145:116|165:150,1,80,8|2,0:0|0:0,0:0:0:0:
444,221,123556,6,0,P|410:199|372:187,1,80,0|2,0:0|0:0,0:0:0:0:
129,346,123763,2,0,P|164:327|194:300,1,80,8|2,0:0|0:0,0:0:0:0:
323,375,123970,2,0,P|324:335|316:296,1,80,0|2,0:0|0:0,0:0:0:0:
72,151,124177,1,8,0:0:0:0:
56,164,124280,2,0,P|89:185|127:197,1,80,2|2,0:0|0:0,0:0:0:0:
371,47,124487,1,2,0:0:0:0:
371,36,124591,2,0,P|335:54|305:81,1,80,8|2,0:0|0:0,0:0:0:0:
176,9,124798,2,0,P|175:48|183:87,1,80,2|2,0:0|0:0,0:0:0:0:
444,221,125005,2,0,P|410:199|372:187,1,80,8|8,0:0|0:0,0:0:0:0:
31,352,125211,5,6,0:0:0:0:
44,253,125349,1,0,0:0:0:0:
137,215,125487,1,0,0:0:0:0:
214,276,125625,5,2,0:0:0:0:
123,312,125763,1,0,0:0:0:0:
44,253,125901,1,0,0:0:0:0:
60,153,126039,6,0,P|130:119|204:146,1,160,2|8,0:0|0:0,0:0:0:0:
275,206,126349,1,2,0:0:0:0:
291,182,126453,2,0,L|369:165,1,80,2|2,0:0|0:0,0:0:0:0:
459,239,126660,1,8,0:0:0:0:
464,199,126763,1,2,0:0:0:0:
468,159,126867,2,0,P|456:116|390:72,1,80,2|2,0:0|0:0,0:0:0:0:
384,7,127074,2,0,P|352:38|347:118,1,80,8|2,0:0|0:0,0:0:0:0:
169,83,127280,2,0,P|212:94|283:58,1,80,2|2,0:0|0:0,0:0:0:0:
101,8,127487,2,0,B|42:69|89:144|89:144|58:200|101:266|79:336,1,320,8|8,0:0|0:0,0:0:0:0:
0,384,128108,5,2,0:0:0:0:
40,365,128211,1,2,0:0:0:0:
83,353,128314,1,8,0:0:0:0:
128,354,128418,1,8,0:0:0:0:
171,366,128522,2,0,P|223:382|303:369,1,80,6|2,0:0|0:0,0:0:0:0:
308,240,128729,1,8,0:0:0:0:
288,242,128833,2,0,P|249:278|220:354,1,80,2|2,0:0|0:0,0:0:0:0:
331,329,129039,1,2,0:0:0:0:
342,345,129143,2,0,P|393:360|473:347,1,80,8|2,0:0|0:0,0:0:0:0:
187,182,129349,2,0,P|169:217|162:257,1,80,2|2,0:0|0:0,0:0:0:0:
54,183,129556,1,8,0:0:0:0:
45,201,129660,2,0,P|57:253|108:315,1,80,2|2,0:0|0:0,0:0:0:0:
268,195,129867,1,2,0:0:0:0:
280,176,129970,2,0,P|242:162|202:160,1,80,8|2,0:0|0:0,0:0:0:0:
0,111,130177,6,0,B|37:97|37:97|77:95,1,80,2|2,0:0|0:0,0:0:0:0:
155,6,130384,1,8,0:0:0:0:
171,0,130487,2,0,L|165:96,1,80,2|2,0:0|0:0,0:0:0:0:
252,266,130694,1,2,0:0:0:0:
263,274,130797,2,0,L|269:178,1,80,8|2,0:0|0:0,0:0:0:0:
347,38,131005,5,2,0:0:0:0:
351,73,131108,1,2,0:0:0:0:
355,109,131211,1,8,0:0:0:0:
359,144,131315,1,2,0:0:0:0:
365,187,131418,1,2,0:0:0:0:
430,162,131521,1,2,0:0:0:0:
481,211,131624,1,8,0:0:0:0:
457,277,131728,1,8,0:0:0:0:
387,283,131832,6,0,P|320:273|280:281,1,80,6|2,0:0|0:0,0:0:0:0:
165,323,132039,2,0,P|174:256|166:216,1,80,8|2,0:0|0:0,0:0:0:0:
125,101,132246,2,0,P|191:110|231:102,1,80,2|2,0:0|0:0,0:0:0:0:
347,61,132453,2,0,P|337:127|345:167,1,80,8|2,0:0|0:0,0:0:0:0:
117,112,132660,6,0,P|184:116|223:105,1,80,2|2,0:0|0:0,0:0:0:0:
176,330,132867,2,0,P|180:263|169:224,1,80,8|2,0:0|0:0,0:0:0:0:
394,271,133074,2,0,P|327:267|288:278,1,80,2|2,0:0|0:0,0:0:0:0:
335,53,133280,2,0,P|331:120|342:159,1,80,8|8,0:0|0:0,0:0:0:0:
387,384,133487,6,0,L|401:291,3,80,2|2|8|2,0:0|0:0|0:0|0:0,0:0:0:0:
247,209,133901,2,0,L|233:116,3,80,2|2|8|2,0:0|0:0|0:0|0:0,0:0:0:0:
176,330,134315,5,2,0:0:0:0:
157,337,134418,1,2,0:0:0:0:
138,342,134521,1,8,0:0:0:0:
118,341,134625,1,2,0:0:0:0:
99,335,134728,1,2,0:0:0:0:
80,327,134832,1,2,0:0:0:0:
61,321,134936,1,8,0:0:0:0:
42,320,135039,1,8,0:0:0:0:
20,323,135142,6,0,P|37:285|41:235,1,80,6|2,0:0|0:0,0:0:0:0:
11,141,135349,1,8,0:0:0:0:
5,118,135453,2,0,L|88:130,1,80,2|2,0:0|0:0,0:0:0:0:
163,186,135660,1,2,0:0:0:0:
170,203,135763,2,0,L|249:191,1,80,8|2,0:0|0:0,0:0:0:0:
356,267,135970,2,0,P|385:206|386:153,1,80,2|2,0:0|0:0,0:0:0:0:
310,79,136177,5,8,0:0:0:0:
290,80,136280,1,2,0:0:0:0:
270,82,136383,1,2,0:0:0:0:
250,84,136487,1,2,0:0:0:0:
222,73,136591,2,0,L|142:61,1,80,8|2,0:0|0:0,0:0:0:0:
5,117,136798,6,0,L|84:128,1,80,2|2,0:0|0:0,0:0:0:0:
177,192,137005,1,8,0:0:0:0:
170,203,137108,2,0,L|91:215,1,80,2|2,0:0|0:0,0:0:0:0:
0,286,137315,1,2,0:0:0:0:
7,297,137418,2,0,L|86:309,1,80,8|2,0:0|0:0,0:0:0:0:
172,384,137625,2,0,L|246:354,1,80,2|2,0:0|0:0,0:0:0:0:
355,297,137832,1,8,0:0:0:0:
358,281,137936,1,2,0:0:0:0:
362,262,138039,5,2,0:0:0:0:
410,293,138142,1,2,0:0:0:0:
463,272,138245,1,8,0:0:0:0:
475,215,138349,1,8,0:0:0:0:
435,174,138453,6,0,B|423:138|423:138|424:88,1,80,6|2,0:0|0:0,0:0:0:0:
329,36,138660,1,8,0:0:0:0:
316,45,138763,2,0,B|308:81|308:81|281:124,1,80,2|2,0:0|0:0,0:0:0:0:
174,85,138970,1,2,0:0:0:0:
158,86,139074,2,0,B|133:114|133:114|88:138,1,80,8|2,0:0|0:0,0:0:0:0:
0,233,139280,2,0,B|42:234|42:234|77:222,1,80,2|2,0:0|0:0,0:0:0:0:
305,249,139487,5,8,0:0:0:0:
278,244,139590,1,2,0:0:0:0:
252,239,139693,1,2,0:0:0:0:
226,233,139797,1,2,0:0:0:0:
204,218,139900,1,8,0:0:0:0:
181,204,140004,1,2,0:0:0:0:
159,190,140108,6,0,B|157:232|157:232|169:267,1,80,2|2,0:0|0:0,0:0:0:0:
83,368,140315,1,8,0:0:0:0:
71,377,140418,2,0,B|78:340|78:340|100:304,1,80,2|2,0:0|0:0,0:0:0:0:
216,333,140625,1,2,0:0:0:0:
229,343,140729,2,0,B|264:330|264:330|306:332,1,80,8|2,0:0|0:0,0:0:0:0:
452,384,140936,2,0,B|432:346|432:346|403:321,1,80,2|2,0:0|0:0,0:0:0:0:
338,232,141142,1,8,0:0:0:0:
336,216,141246,1,2,0:0:0:0:
334,199,141349,5,2,0:0:0:0:
281,223,141452,1,2,0:0:0:0:
228,198,141555,1,8,0:0:0:0:
214,142,141659,1,8,0:0:0:0:
248,95,141763,6,0,P|279:90|332:108,1,80,6|2,0:0|0:0,0:0:0:0:
123,144,141970,2,0,L|80:133,3,40,8|0|2|0,0:0|0:0|0:0|0:0,0:0:0:0:
45,194,142177,5,2,0:0:0:0:
45,209,142280,1,2,0:0:0:0:
46,225,142384,1,8,0:0:0:0:
47,240,142487,1,2,0:0:0:0:
28,275,142591,5,2,0:0:0:0:
67,279,142694,1,2,0:0:0:0:
106,283,142798,1,8,0:0:0:0:
145,287,142901,1,2,0:0:0:0:
166,320,143005,5,2,0:0:0:0:
205,317,143108,1,2,0:0:0:0:
244,314,143211,1,8,0:0:0:0:
284,311,143315,1,2,0:0:0:0:
316,334,143418,5,2,0:0:0:0:
339,301,143522,1,2,0:0:0:0:
340,261,143625,1,8,0:0:0:0:
321,225,143729,1,2,0:0:0:0:
343,192,143832,6,0,L|359:106,1,80,2|2,0:0|0:0,0:0:0:0:
425,8,144039,2,0,L|439:86,1,80,8|2,0:0|0:0,0:0:0:0:
504,185,144246,2,0,L|425:170,1,80,2|2,0:0|0:0,0:0:0:0:
269,141,144453,5,8,0:0:0:0:
238,151,144556,1,2,0:0:0:0:
206,144,144660,1,2,0:0:0:0:
175,154,144763,1,2,0:0:0:0:
142,151,144867,1,8,0:0:0:0:
160,203,144970,1,8,0:0:0:0:
152,258,145074,6,0,P|142:300|147:348,3,80,6|2|8|2,0:0|0:0|0:0|0:0,0:0:0:0:
20,280,145487,2,0,P|38:244|66:216,3,80,2|2|8|2,0:0|0:0|0:0|0:0,0:0:0:0:
49,113,145901,2,0,L|31:29,3,80,2|2|8|2,0:0|0:0|0:0|0:0,0:0:0:0:
189,0,146315,2,0,L|172:78,3,80,2|2|8|2,0:0|0:0|0:0|0:0,0:0:0:0:
273,142,146729,6,0,L|389:116,1,80,2|2,0:0|0:0,0:0:0:0:
467,79,146936,2,0,L|360:56,1,80,8|2,0:0|0:0,0:0:0:0:
249,84,147142,6,0,L|387:128,1,80,2|2,0:0|0:0,0:0:0:0:
491,137,147349,2,0,L|393:48,1,80,8|2,0:0|0:0,0:0:0:0:
171,78,147556,5,2,0:0:0:0:
165,106,147659,1,2,0:0:0:0:
160,135,147762,1,8,0:0:0:0:
155,163,147866,1,2,0:0:0:0:
121,206,147970,1,2,0:0:0:0:
129,249,148073,1,2,0:0:0:0:
138,293,148177,2,0,L|119:399,1,80,8|8,0:0|0:0,0:0:0:0:
38,279,148384,6,0,L|-1:333,2,53.3333333333333,6|0|0,0:0|0:0|0:0,0:0:0:0:
223,229,148591,2,0,L|271:207,2,53.3333333333333,8|0|0,0:0|0:0|0:0,0:0:0:0:
37,229,148798,6,0,L|-11:250,2,53.3333333333333,2|0|0,0:0|0:0|0:0,0:0:0:0:
223,278,149005,2,0,L|276:284,2,53.3333333333333,8|0|0,0:0|0:0|0:0,0:0:0:0:
62,186,149211,6,0,L|8:180,2,53.3333333333333,2|0|0,0:0|0:0|0:0,0:0:0:0:
198,321,149418,2,0,L|241:352,2,53.3333333333333,8|0|0,0:0|0:0|0:0,0:0:0:0:
105,161,149625,6,0,L|61:129,2,53.3333333333333,2|0|0,0:0|0:0|0:0,0:0:0:0:
93,370,149832,2,0,L|166:337,1,80,8|0,0:0|0:0,0:0:0:0:
401,348,150039,6,0,B|413:298|383:242|383:242|402:202|402:202|376:150|415:65,1,240,2|2,0:0|0:0,0:0:0:0:
433,13,150453,6,0,L|406:104,1,80,2|2,0:0|0:0,0:0:0:0:
197,90,150660,2,0,L|274:71,1,80,8|2,0:0|0:0,0:0:0:0:
385,243,150867,2,0,L|329:184,1,80,2|2,0:0|0:0,0:0:0:0:
330,0,151074,1,8,0:0:0:0:
337,22,151177,1,2,0:0:0:0:
346,47,151280,2,0,P|259:24|140:8,1,160,2|8,0:0|0:0,0:0:0:0:
18,101,151591,1,4,0:1:0:0:
9,126,151694,2,0,P|96:103|215:87,1,160,6|8,0:0|0:0,0:0:0:0:
250,165,152005,5,2,0:0:0:0:
262,183,152108,2,0,L|251:289,1,80,2|2,0:0|0:0,0:0:0:0:
176,379,152315,2,0,L|167:299,1,80,8|2,0:0|0:0,0:0:0:0:
108,188,152522,6,0,L|100:238,3,40,2|0|2|0,0:0|0:0|0:0|0:0,0:0:0:0:
165,91,152729,2,0,L|112:112,3,40,8|0|2|0,0:0|0:0|0:0|0:0,0:0:0:0:
277,91,152936,2,0,L|232:55,3,40,2|0|2|0,0:0|0:0|0:0|0:0,0:0:0:0:
333,187,153142,2,0,L|341:130,3,40,8|0|2|0,0:0|0:0|0:0|0:0,0:0:0:0:
392,305,153349,6,0,L|383:249,7,40,2|0|2|0|8|0|2|0,0:0|0:0|0:0|0:0|0:0|0:0|0:0|0:0,0:0:0:0:
492,206,153763,2,0,L|473:255,6,40,2|0|2|0|8|0|2,0:0|0:0|0:0|0:0|0:0|0:0|0:0,0:0:0:0:
312,214,154177,6,0,B|165:156|165:315|14:214|14:214|94:155|179:213,1,480,2|8,0:0|0:0,0:0:0:0:
234,175,154901,1,8,0:0:0:0:
234,175,155005,2,0,L|246:95,1,80,6|2,0:0|0:0,0:0:0:0:
388,59,155211,1,8,0:0:0:0:
388,59,155315,2,0,L|337:121,1,80,2|2,0:0|0:0,0:0:0:0:
469,234,155522,1,2,0:0:0:0:
469,234,155625,2,0,P|416:217|355:225,1,80,8|2,0:0|0:0,0:0:0:0:
240,311,155832,2,0,P|280:273|304:217,1,80,2|2,0:0|0:0,0:0:0:0:
332,156,156039,5,8,0:0:0:0:
334,185,156142,1,2,0:0:0:0:
341,214,156245,1,2,0:0:0:0:
351,243,156349,1,2,0:0:0:0:
365,269,156452,1,8,0:0:0:0:
384,294,156556,1,2,0:0:0:0:
405,314,156660,6,0,P|451:274|470:226,1,106.666666666667,2|0,0:0|0:0,0:0:0:0:
512,79,156936,1,0,0:0:0:0:
445,140,157074,2,0,L|298:121,1,106.666666666667,2|0,0:0|0:0,0:0:0:0:
213,44,157349,1,0,0:0:0:0:
134,102,157487,2,0,B|119:131|119:131|118:212,1,106.666666666667,2|0,0:0|0:0,0:0:0:0:
73,361,157763,1,0,0:0:0:0:
153,298,157901,2,0,L|281:275,1,106.666666666667,2|0,0:0|0:0,0:0:0:0:
394,367,158177,1,0,0:0:0:0:
471,282,158315,5,6,0:0:0:0:
476,238,158418,1,2,0:0:0:0:
481,194,158522,1,8,0:0:0:0:
461,159,158625,6,0,B|392:130|391:188|304:156,1,160,2|2,0:0|0:0,0:0:0:0:
347,0,158936,2,0,L|347:103,1,80,8|2,0:0|0:0,0:0:0:0:
275,241,159142,1,2,0:0:0:0:
239,245,159246,1,2,0:0:0:0:
204,249,159349,1,8,0:0:0:0:
169,254,159453,1,2,0:0:0:0:
131,282,159556,5,2,0:0:0:0:
125,243,159660,1,2,0:0:0:0:
118,204,159763,2,0,L|116:108,1,80,8|2,0:0|0:0,0:0:0:0:
279,43,159970,1,2,0:0:0:0:
231,34,160073,1,2,0:0:0:0:
184,37,160176,1,8,0:0:0:0:
137,48,160280,1,2,0:0:0:0:
89,51,160383,1,2,0:0:0:0:
42,43,160487,1,2,0:0:0:0:
0,19,160591,2,0,L|0:98,1,80,8|2,0:0|0:0,0:0:0:0:
0,321,160798,2,0,B|61:332|61:332|118:319|118:319|170:339|214:319|214:319|271:328|271:328|329:313,1,320,2|2,0:0|0:0,0:0:0:0:
491,280,161418,5,8,0:0:0:0:
448,247,161522,1,8,0:0:0:0:
400,236,161625,2,0,P|334:187|306:139,1,80,6|2,0:0|0:0,0:0:0:0:
295,44,161832,1,8,0:0:0:0:
276,58,161936,2,0,L|266:145,1,80,2|2,0:0|0:0,0:0:0:0:
202,225,162142,1,2,0:0:0:0:
189,239,162246,2,0,L|179:152,1,80,8|2,0:0|0:0,0:0:0:0:
96,66,162453,2,0,B|90:87|90:87|96:152,1,80,2|2,0:0|0:0,0:0:0:0:
9,258,162660,5,8,0:0:0:0:
5,232,162763,1,2,0:0:0:0:
5,206,162866,1,2,0:0:0:0:
10,179,162970,1,2,0:0:0:0:
15,153,163073,1,8,0:0:0:0:
15,127,163177,1,2,0:0:0:0:
12,100,163280,2,0,P|88:75|170:75,1,160,2|8,0:0|0:0,0:0:0:0:
220,0,163591,2,0,P|291:36|349:94,1,160,2|2,0:0|0:0,0:0:0:0:
462,231,163901,2,0,P|461:151|437:76,2,160,8|2|8,0:0|0:0|0:0,0:0:0:0:
287,376,164522,6,0,P|315:347|333:310,1,80,2|2,0:0|0:0,0:0:0:0:
130,337,164729,2,0,P|170:336|209:324,1,80,8|10,0:0|0:0,0:0:0:0:
27,235,164936,2,0,P|64:222|104:222,1,80,6|2,0:0|0:0,0:0:0:0:
266,233,165142,1,8,0:0:0:0:
258,243,165246,2,0,P|228:216|208:181,1,80,2|2,0:0|0:0,0:0:0:0:
141,47,165453,1,2,0:0:0:0:
153,48,165557,2,0,P|144:86|124:121,1,80,8|2,0:0|0:0,0:0:0:0:
155,301,165763,2,0,P|135:266|126:227,1,80,2|2,0:0|0:0,0:0:0:0:
237,86,165970,5,8,0:0:0:0:
275,78,166073,1,2,0:0:0:0:
314,89,166176,1,2,0:0:0:0:
352,100,166280,1,2,0:0:0:0:
391,92,166384,2,0,P|370:173|389:237,1,80,8|2,0:0|0:0,0:0:0:0:
444,328,166591,6,0,P|384:269|319:253,1,80,2|2,0:0|0:0,0:0:0:0:
229,340,166798,1,8,0:0:0:0:
227,363,166901,2,0,P|307:340|353:292,1,80,2|2,0:0|0:0,0:0:0:0:
156,255,167108,1,2,0:0:0:0:
137,241,167211,2,0,P|115:322|135:386,1,80,8|2,0:0|0:0,0:0:0:0:
21,384,167418,2,0,P|15:344|0:307,1,80,2|2,0:0|0:0,0:0:0:0:
5,116,167625,5,8,0:0:0:0:
0,140,167729,1,2,0:0:0:0:
0,162,167832,2,0,P|37:176|77:182,1,80,2|2,0:0|0:0,0:0:0:0:
190,143,168039,5,8,0:0:0:0:
190,143,168142,1,8,0:0:0:0:
236,109,168246,5,6,0:0:0:0:
245,144,168349,1,2,0:0:0:0:
254,179,168452,1,8,0:0:0:0:
263,215,168556,1,2,0:0:0:0:
272,250,168659,1,2,0:0:0:0:
281,286,168763,1,2,0:0:0:0:
262,321,168867,5,8,0:0:0:0:
298,331,168971,1,2,0:0:0:0:
333,341,169074,1,2,0:0:0:0:
368,351,169178,1,2,0:0:0:0:
403,361,169281,1,8,0:0:0:0:
438,370,169384,1,2,0:0:0:0:
400,384,169487,5,2,0:0:0:0:
390,348,169591,1,2,0:0:0:0:
380,313,169694,1,8,0:0:0:0:
370,278,169798,1,2,0:0:0:0:
360,243,169901,1,2,0:0:0:0:
351,208,170004,1,2,0:0:0:0:
380,180,170108,5,8,0:0:0:0:
345,171,170211,1,2,0:0:0:0:
310,162,170314,1,2,0:0:0:0:
274,153,170418,1,2,0:0:0:0:
239,144,170521,1,8,0:0:0:0:
203,135,170625,1,2,0:0:0:0:
165,150,170729,5,2,0:0:0:0:
156,185,170832,1,2,0:0:0:0:
146,220,170935,1,8,0:0:0:0:
136,255,171039,1,2,0:0:0:0:
126,290,171142,1,2,0:0:0:0:
116,325,171245,1,2,0:0:0:0:
76,345,171349,6,0,P|63:309|58:260,1,80,8|0,0:0|0:0,0:0:0:0:
76,81,171556,5,12,0:0:0:0:
76,81,171660,1,2,0:0:0:0:
115,83,171763,5,8,0:0:0:0:
115,83,171867,1,2,0:0:0:0:
154,85,171970,5,8,0:0:0:0:
154,85,172074,1,2,0:0:0:0:
193,88,172177,5,8,0:0:0:0:
193,88,172281,1,2,0:0:0:0:
227,120,172384,5,12,0:0:0:0:
227,120,172487,1,2,0:0:0:0:
266,117,172591,5,8,0:0:0:0:
266,117,172695,1,2,0:0:0:0:
305,113,172798,5,8,0:0:0:0:
305,113,172901,1,2,0:0:0:0:
344,107,173005,5,8,0:0:0:0:
344,107,173109,1,2,0:0:0:0:
380,100,173211,5,4,0:1:0:0:
330,65,173314,1,4,0:1:0:0:
273,49,173417,1,4,0:3:0:0:
213,53,173521,1,4,0:3:0:0:
158,76,173624,5,4,0:3:0:0:
198,121,173728,1,4,0:3:0:0:
222,175,173831,1,4,0:3:0:0:
229,235,173935,1,4,0:3:0:0:
218,294,174038,5,12,0:0:0:0:
148,257,174142,1,2,0:0:0:0:
101,193,174245,1,2,0:0:0:0:
88,115,174349,1,12,0:0:0:0:
110,38,174452,5,4,0:1:0:0:
113,116,174556,1,4,0:1:0:0:
102,199,174659,1,12,0:0:0:0:
74,280,174763,1,10,0:0:0:0:
40,358,174867,6,0,B|122:382|197:345|197:345|234:359|234:359|266:334|266:334|336:366|432:313,1,400,4|0,0:0|0:0,0:0:0:0:
